#TITLE:Impulse;
#SUBTITLE:Full Version;
#ARTIST:Blazar;
#TITLETRANSLIT:;
#SUBTITLETRANSLIT:;
#ARTISTTRANSLIT:;
#CREDIT:;
#BANNER:../Beast - bn.png;
#BACKGROUND:../Beast - bg.png;
#LYRICSPATH:;
#CDTITLE:;
#MUSIC:Impulse.ogg;
#OFFSET:-0.029;
#SAMPLESTART:99.980;
#SAMPLELENGTH:12.000;
#SELECTABLE:YES;
#BPMS:0.000=240.000;
#STOPS:;
#BGCHANGES:;
// cache tags:
#FIRSTBEAT:0.000;
#LASTBEAT:797.000;
#SONGFILENAME:Songs/Beast Aoreo BEAST! 2/Impulse - [Arvin & Aoreo]/Impulse.sm;
#HASMUSIC:1;
#HASBANNER:1;
#MUSICLENGTH:199.524;
// end cache tags

//---------------dance-single - ----------------
#NOTES:
     dance-single:
     :
     Challenge:
     19:
     1.000,1.000,0.085,0.085,1.000,2326.000,17.000,17.000,17.000,0.000:
1000
0010
0010
1000
0010
0010
0100
0001
,
0100
0000
0010
0000
1000
0000
0001
0000
1000
0010
1000
0001
1000
0010
1000
0001
,
1000
0100
0010
0001
1000
0001
1000
0100
0010
0001
1000
0001
1000
0100
0010
0001
,
1000
0100
1000
0001
0100
0010
1000
0010
1000
0000
0010
0000
1000
0000
0010
0000
,
1000
0100
0100
1000
0100
0100
0010
0001
,
0010
0000
0100
0000
1000
0000
0001
0000
1000
0010
1000
0001
1000
0100
1000
0001
,
1000
0010
0100
0001
1000
0001
1000
0010
0100
0001
1000
0001
1000
0010
0100
0001
,
1000
0010
1000
0001
0010
0100
1000
0100
1000
0000
0001
0000
1000
0000
0001
0000
,
1000
0100
0100
1000
0100
0100
0010
0001
,
0010
0000
0100
0000
1000
0000
0001
0000
1000
0100
1000
0001
1000
0100
1000
0001
,
1000
0010
0100
0001
1000
0001
1000
0010
0100
0001
1000
0001
1000
0010
0100
0001
,
1000
0010
1000
0001
0010
0100
1000
0100
1000
0000
0100
0000
1000
0000
0100
0000
,
1000
0010
0010
1000
0010
0010
0100
0001
,
0100
0000
0010
0000
1000
0000
0001
0000
1000
0100
1000
0001
1000
0010
1000
0001
,
1000
0100
0010
0001
1000
0001
1000
0100
0010
0001
1000
0001
1000
0100
0010
0001
,
1000
0100
1000
0001
0100
0010
1000
0010
1000
0001
1000
0001
1000
0001
1000
0001
,
1000
0100
0010
0001
0100
0010
1000
0100
,
0020
0030
0000
0000
0000
0000
0000
0000
0000
0000
0000
0000
0000
0000
0000
0000
0002
0003
0000
0000
0000
0000
0000
0000
0000
0000
0000
0000
0000
0000
0000
0000
4000
0000
0000
0000
0000
0000
0000
0000
0000
0000
0000
0000
0000
0000
0000
0000
0000
0000
0000
0000
0000
0000
0000
0000
0000
0000
0000
0000
0000
0000
0000
0000
,
3001
0010
0100
1000
0010
0100
0001
1000
,
0001
0010
0001
1000
0100
0010
0001
1000
0001
0010
0001
0010
0001
0010
0001
0010
,
0001
0010
0100
1000
0010
0100
0001
0010
,
0200
0300
0000
0000
0000
0000
0000
0000
0000
0000
0000
0000
0000
0000
0000
0000
2000
3000
0000
0000
0000
0000
0000
0000
0000
0000
0000
0000
0000
0000
0000
0000
0004
0000
0000
0000
0000
0000
0000
0000
0000
0000
0000
0000
0000
0000
0000
0000
0000
0000
0000
0000
0000
0000
0000
0000
0000
0000
0000
0000
0000
0000
0000
0000
,
1003
0100
0010
0001
0100
0010
1000
0001
,
1000
0100
1000
0001
0010
0100
1000
0001
1000
0100
1000
0100
1000
0100
1000
0100
,
1000
0001
1000
0100
0010
0001
1000
0001
0010
0100
1000
0001
0100
0001
1000
0010
,
0100
0001
0100
0010
1000
0001
0010
0100
1000
0100
0010
0001
1000
0010
1000
0001
,
0010
0100
1000
0001
0010
0001
1000
0100
0010
0001
1000
0100
0010
0100
1000
0001
,
0100
0001
1000
0010
0100
0010
1000
0001
1000
0000
0001
0000
1000
0100
1000
0100
,
1000
0001
1000
0010
0100
0001
1000
0001
0100
0010
1000
0001
0010
0001
1000
0100
,
0010
0001
0010
0100
1000
0001
0100
0010
1000
0010
0100
0001
1000
0100
1000
0001
,
0100
0010
1000
0001
0100
0001
1000
0010
0100
0001
1000
0010
0100
0010
1000
0001
,
0010
0001
1000
0100
0010
0100
1000
0001
1000
0100
1000
0100
1000
0100
1000
0100
,
1000
0001
0001
0100
0010
1000
1000
0001
,
0010
0100
1000
0001
0100
0010
1000
0001
,
2000
0000
0000
0000
0000
0000
0000
0000
0000
0000
0000
0000
0000
0000
0000
0000
3200
0000
0000
0000
0000
0000
0000
0000
0000
0000
0000
0000
0000
0000
0000
0300
,
0M00
0000
0M00
0000
,
2000
0000
3020
0000
,
2030
0000
3002
0000
,
2003
0000
0000
0000
0000
0000
0000
0000
0000
0000
0000
0000
0000
0000
0000
0000
3200
0000
0000
0000
0000
0000
0000
0000
0000
0000
0000
0000
0000
0000
0000
0300
,
0M00
0000
0M00
0000
,
2000
0000
3020
0000
,
0230
0000
0302
0000
,
1003
0100
1000
0100
1000
0100
1000
0100
0010
0000
0000
0000
0000
0000
0000
0000
,
000M
0000
000M
0000
,
0001
0100
0001
0100
0001
0100
0001
0100
0010
0000
0000
0000
0000
0000
0000
0000
,
1000
0010
1000
0010
1000
0010
1000
0010
0100
0000
0000
0000
0000
0000
0000
0000
,
0001
0010
0001
0010
0001
0010
0001
0010
0100
0000
0000
0000
0000
0000
0000
0000
,
M000
0000
M000
0000
,
1000
0001
1000
0001
1000
0001
1000
0001
0010
0000
0000
0000
0000
0000
0000
0000
,
0001
1000
0001
1000
0001
1000
0001
1000
0010
0000
0000
0000
0000
0000
0000
0000
,
4000
0000
3400
0000
,
0340
0000
0034
0000
,
1003
0000
0100
0000
0010
0001
0010
0000
0100
0000
1000
0000
0001
0010
0001
0000
,
1000
0000
0010
0000
0100
0001
0100
0000
0010
0000
1000
0000
0001
0100
0001
0000
,
1000
0000
0100
0000
0010
0001
0010
0000
0100
0000
1000
0000
0001
0100
0001
0000
,
1000
0000
0001
0000
0100
0010
0100
0000
0001
0000
1000
0000
0010
0100
0010
0000
,
1000
0000
0010
0000
0100
0001
0100
0000
0010
0000
1000
0000
0001
0100
0001
0000
,
1000
0000
0100
0000
0010
0001
0010
0000
0100
0000
1000
0000
0001
0010
0001
0000
,
1000
0100
0010
0001
1000
0010
0100
0001
,
1000
0100
0010
0100
1000
0001
0010
0100
,
1000
0000
0010
0000
0100
0001
0100
0000
0010
0000
1000
0000
0001
0100
0001
0000
,
1000
0000
0100
0000
0010
0001
0010
0000
0100
0000
1000
0000
0001
0010
0001
0000
,
1000
0000
0100
0000
0010
0001
0010
0000
0100
0000
1000
0000
0001
0100
0001
0000
,
1000
0100
0010
0001
1000
0001
1000
0100
0010
0001
0010
0001
0010
0001
0010
0001
,
1000
0000
0100
0000
0010
0001
0010
0000
0100
0000
1000
0000
0001
0010
0001
0000
,
1000
0000
0010
0000
0100
0001
0100
0000
0010
0000
1000
0000
0001
0100
0001
0000
,
1000
0000
0010
0000
0100
0001
0100
0000
0010
0000
1000
0000
0001
0010
0001
0000
,
1000
0010
0100
0001
1000
0001
1000
0010
0100
0001
0100
0001
0100
0001
0100
0001
,
1000
0100
0010
0010
0001
1000
1001
0000
,
0001
0001
0010
0100
1000
0010
1010
0000
,
1000
1000
0100
0010
0001
0001
1000
0010
,
0100
0001
0001
1000
0100
0010
0010
0001
,
1000
0010
0100
0100
0001
1000
1001
0000
,
0001
0001
0100
0010
1000
0100
1100
0000
,
1000
0000
1000
0000
0100
0000
0010
0000
0001
0000
1000
0000
0001
0100
0001
0000
,
1000
1000
0010
0100
0001
0001
0100
0010
,
1010
0000
1000
0000
0001
0010
0001
0000
1000
0000
0100
0000
0010
0001
0010
0000
,
0011
0000
0001
0000
1000
0010
1000
0000
0001
0000
0100
0000
0010
1000
0010
0000
,
1010
0000
1000
0000
0001
0100
0001
0000
1000
0000
0010
0000
0100
0001
0100
0000
,
0101
0000
0001
0000
1000
0100
1000
0000
0001
0000
0010
0000
0100
1000
0100
0000
,
1100
0000
1000
0000
0010
0100
0010
0000
1000
0000
0001
0000
0010
0100
0010
0000
,
0011
0000
0001
0000
0100
0010
0100
0000
0001
0000
1000
0000
0100
0010
0100
0000
,
1100
0000
1000
0000
0010
0100
0010
0000
1000
0000
0001
0000
0100
0010
0100
0000
,
0101
0000
0001
0000
0010
0100
0010
0000
0001
0000
1000
0000
0010
0100
0010
0000
,
1000
0001
1000
0001
0010
0100
1000
0001
1000
0001
0010
0100
1000
0001
0100
0010
,
1000
0010
1000
0001
0100
0010
1000
0010
1000
0001
0010
0100
1000
0001
0010
0001
,
1000
0100
0010
0001
1000
0001
1000
0100
0010
0001
1000
0001
1000
0010
0100
0001
,
1000
0001
1000
0010
0100
0001
1000
0001
1000
0010
0100
0001
1000
0010
0100
0010
,
1000
0001
1000
0001
0010
0100
1000
0001
1000
0001
0010
0100
1000
0001
0100
0010
,
1000
0010
1000
0001
0100
0010
1000
0010
1000
0001
0010
0100
1000
0001
0100
0001
,
1000
0100
1000
0100
0010
0100
0010
0001
0010
0001
1000
0001
1000
0010
1000
0010
,
0100
0001
0100
0001
1000
0001
1000
0001
0010
0100
1000
0001
1000
0001
0010
0100
,
1000
0001
0100
0001
1000
0001
0100
0001
,
1000
0010
0100
0010
1000
0010
0100
0010
,
1000
0100
0010
0001
1000
0001
1000
0100
0010
0001
1000
0010
1000
0001
0100
0010
,
1000
0010
0100
0001
1000
0001
1000
0010
0100
0001
1000
0100
1000
0001
0010
0100
,
1000
0001
1000
0100
1000
0001
1000
0100
,
1000
0010
0100
0010
1000
0010
0100
0010
,
1000
0100
1000
0100
0010
0100
0010
0001
0010
0001
1000
0001
1000
0010
1000
0010
,
0100
0001
0100
0001
1000
0010
1000
0010
0100
0010
0100
0001
0100
0001
1000
0001
,
1000
0000
0100
0000
0010
0001
0010
0000
0100
0000
1000
0000
0001
0010
0001
0000
,
1000
0000
0010
0000
0100
0001
0100
0000
0010
0000
1000
0000
0001
0100
0001
0000
,
1000
0000
0100
0000
0010
0001
0010
0000
0100
0000
1000
0000
0001
0100
0001
0000
,
1000
0000
0001
0000
0100
0010
0100
0000
0001
0000
1000
0000
0010
0100
0010
0000
,
1000
0000
0010
0000
0100
0001
0100
0000
0010
0000
1000
0000
0001
0100
0001
0000
,
1000
0000
0100
0000
0010
0001
0010
0000
0100
0000
1000
0000
0001
0010
0001
0000
,
1000
0100
0010
0001
1000
0010
0100
0001
,
1000
0100
0010
0100
1000
0001
0010
0100
,
1000
0000
0010
0000
0100
0001
0100
0000
0010
0000
1000
0000
0001
0100
0001
0000
,
1000
0000
0100
0000
0010
0001
0010
0000
0100
0000
1000
0000
0001
0010
0001
0000
,
1000
0000
0100
0000
0010
0001
0010
0000
0100
0000
1000
0000
0001
0100
0001
0000
,
1000
0100
0010
0001
1000
0001
1000
0100
0010
0001
0010
0001
0010
0001
0010
0001
,
1000
0000
0100
0000
0010
0001
0010
0000
0100
0000
1000
0000
0001
0010
0001
0000
,
1000
0000
0010
0000
0100
0001
0100
0000
0010
0000
1000
0000
0001
0100
0001
0000
,
1000
0000
0010
0000
0100
0001
0100
0000
0010
0000
1000
0000
0001
0010
0001
0000
,
1000
0010
0100
0001
1000
0001
1000
0010
0100
0001
0100
0001
0100
0001
0100
0001
,
M000
0M00
00M0
000M
,
00M0
0M00
M000
000M
,
M100
0001
0001
0010
0100
0100
1000
0001
,
1000
0001
0010
0100
1000
0001
0100
0010
0100
0001
1000
0100
,
0010
0100
0100
1000
0001
0001
0010
0100
,
1000
0100
1000
0100
0010
0001
0010
0001
1000
0001
1000
0001
1000
0001
1000
0001
,
1000
0001
0100
0001
1000
0100
1000
0001
0100
0001
1000
0100
,
0040
0000
0000
0000
0030
0000
0001
0000
0000
4000
0000
0000
3000
0000
0000
0000
0000
0000
0002
0000
0000
0000
0000
0000
,
0103
0001
0010
0100
1000
0010
0100
0001
,
1000
0100
1000
0001
0010
0100
1000
0001
1000
0100
1000
0100
1000
0100
1000
0100
,
1000
0001
1000
0100
0010
0001
1000
0001
0010
0100
1000
0001
0100
0001
1000
0010
,
0100
0001
0100
0010
1000
0001
0010
0100
1000
0100
0010
0001
1000
0010
1000
0001
,
0010
0100
1000
0001
0010
0001
1000
0100
0010
0001
1000
0100
0010
0100
1000
0001
,
0100
0001
1000
0010
0100
0010
1000
0001
1000
0001
0100
0001
1000
0100
1000
0100
,
1000
0001
1000
0010
0100
0001
1000
0001
0100
0010
1000
0001
0010
0001
1000
0100
,
0010
0001
0010
0100
1000
0001
0100
0010
1000
0010
0100
0001
1000
0100
1000
0001
,
0100
0010
1000
0001
0100
0001
1000
0010
0100
0001
1000
0010
0100
0010
1000
0001
,
0010
0001
1000
0100
0010
0100
1000
0001
1000
0100
1000
0100
1000
0100
1000
0100
,
1000
0001
1000
0001
0010
0100
1000
0001
1000
0001
0010
0100
1000
0001
0100
0010
,
1000
0010
1000
0001
0100
0010
1000
0010
1000
0001
0010
0100
1000
0001
0010
0001
,
1000
0100
0010
0001
1000
0001
1000
0100
0010
0001
1000
0001
1000
0010
0100
0001
,
1000
0001
1000
0010
0100
0001
1000
0001
1000
0010
0100
0001
1000
0010
0100
0010
,
1000
0001
1000
0001
0010
0100
1000
0001
1000
0001
0010
0100
1000
0001
0100
0010
,
1000
0010
1000
0001
0100
0010
1000
0010
1000
0001
0010
0100
1000
0001
0100
0001
,
1000
0100
1000
0100
0010
0100
0010
0001
0010
0001
1000
0001
1000
0010
1000
0010
,
0100
0001
0100
0001
1000
0001
1000
0001
0010
0100
1000
0001
1000
0001
0010
0100
,
1000
0001
1000
0001
0010
0100
1000
0001
1000
0001
0010
0100
1000
0001
0100
0010
,
1000
0010
1000
0001
0100
0010
1000
0010
1000
0001
0010
0100
1000
0001
0010
0001
,
1000
0100
0010
0001
1000
0001
1000
0100
0010
0001
1000
0001
1000
0010
0100
0001
,
1000
0001
1000
0010
0100
0001
1000
0001
1000
0010
0100
0001
1000
0010
0100
0010
,
1000
0001
1000
0001
0010
0100
1000
0001
1000
0001
0010
0100
1000
0001
0100
0010
,
1000
0010
1000
0001
0100
0010
1000
0010
1000
0001
0010
0100
1000
0001
0100
0001
,
1000
0100
1000
0100
0010
0100
0010
0001
0010
0001
1000
0001
1000
0010
1000
0010
,
0100
0001
0100
0001
1000
0001
1000
0001
0010
0100
1000
0001
1000
0001
0010
0100
,
1000
0000
0001
0000
0100
0001
0100
0000
0001
0000
1000
0000
0100
0010
0100
0000
,
0010
0000
0001
0000
1000
0001
1000
0000
0010
0000
0100
0000
0001
1000
0001
0000
,
1000
0000
0100
0000
0010
0001
0010
0000
0001
0000
1000
0000
0100
1000
0100
0000
,
1000
0000
0001
0000
0100
0001
0100
0000
0010
0000
1000
0000
0100
1000
0100
0000
,
0010
0000
0001
0000
1000
0001
1000
0000
0001
0000
0100
0000
0010
0100
0010
0000
,
1000
0000
0001
0000
0100
0010
0100
0000
0001
0000
1000
0000
0010
0100
0010
0000
,
0100
0001
0010
0100
1000
0100
1000
0010
,
0100
0001
0010
0100
0010
0001
1000
0001
,
1000
0000
0100
0000
1000
0001
1000
0000
0001
0000
0100
0000
0010
0100
0010
0000
,
0100
0000
0001
0000
1000
0100
1000
0000
0001
0000
0100
0000
0010
0100
0010
0000
,
1000
0000
0001
0000
0010
0001
0010
0000
0100
0000
1000
0000
0001
1000
0001
0000
,
0100
0001
0100
0001
1000
0010
1000
0010
1000
0001
1000
0001
1000
0001
1000
0001
,
1000
0000
0001
0000
0010
0100
0010
0000
0100
0000
1000
0000
0001
1000
0001
0000
,
1000
0000
0010
0000
0100
0010
0100
0000
0001
0000
1000
0000
0100
1000
0100
0000
,
0010
0000
0001
0000
1000
0001
1000
0000
0001
0000
0100
0000
0010
0100
0010
0000
,
1000
0100
1000
0001
0010
0100
1000
0001
1000
0100
1000
0100
1000
0100
1000
0100
,
1000
0001
1000
0100
0010
0001
1000
0001
0010
0100
1000
0001
0100
0001
1000
0010
,
0100
0001
0100
0010
1000
0001
0010
0100
1000
0100
0010
0001
1000
0010
1000
0001
,
0010
0100
1000
0001
0010
0001
1000
0100
0010
0001
1000
0100
0010
0100
1000
0001
,
0100
0001
1000
0010
0100
0010
1000
0001
1000
0001
0100
0001
1000
0100
1000
0100
,
1000
0001
1000
0010
0100
0001
1000
0001
0100
0010
1000
0001
0010
0001
1000
0100
,
0010
0001
0010
0100
1000
0001
0100
0010
1000
0010
0100
0001
1000
0100
1000
0001
,
0100
0010
1000
0001
0100
0001
1000
0010
0100
0001
1000
0010
0100
0010
1000
0001
,
0010
0001
1000
0100
0010
0100
1000
0001
1000
0100
1000
0100
1000
0100
1000
0100
,
1000
0001
1000
0001
0010
0100
1000
0001
1000
0001
0010
0100
1000
0001
0100
0010
,
1000
0010
1000
0001
0100
0010
1000
0010
1000
0001
0010
0100
1000
0001
0010
0001
,
1000
0100
0010
0001
1000
0001
1000
0100
0010
0001
1000
0001
1000
0010
0100
0001
,
1000
0001
1000
0010
0100
0001
1000
0001
1000
0010
0100
0001
1000
0010
0100
0010
,
1000
0001
1000
0001
0010
0100
1000
0001
1000
0001
0010
0100
1000
0001
0100
0010
,
1000
0010
1000
0001
0100
0010
1000
0010
1000
0001
0010
0100
1000
0001
0100
0001
,
1000
0100
1000
0100
0010
0100
0010
0001
0010
0001
1000
0001
1000
0010
1000
0010
,
0100
0001
0100
0001
1000
0001
1000
0001
0010
0100
1000
0001
1000
0001
0010
0100
,
1000
0001
1000
0001
0010
0100
1000
0001
1000
0001
0010
0100
1000
0001
0100
0010
,
1000
0010
1000
0001
0100
0010
1000
0010
1000
0001
0010
0100
1000
0001
0010
0001
,
1000
0100
0010
0001
1000
0001
1000
0100
0010
0001
1000
0001
1000
0010
0100
0001
,
1000
0001
1000
0010
0100
0001
1000
0001
1000
0010
0100
0001
1000
0010
0100
0010
,
1000
0001
1000
0001
0010
0100
1000
0001
1000
0001
0010
0100
1000
0001
0100
0010
,
1000
0010
1000
0001
0100
0010
1000
0010
1000
0001
0010
0100
1000
0001
0100
0001
,
1000
0100
1000
0100
0010
0100
0010
0001
0010
0001
1000
0001
1000
0010
1000
0010
,
0100
0001
0100
0001
1000
0001
1000
0001
0010
0100
1000
0001
1000
0001
0010
0100
,
1000
0001
1000
0001
0010
0100
1000
0001
1000
0001
0010
0100
1000
0001
0100
0010
,
1000
0010
1000
0001
0100
0010
1000
0010
1000
0001
0010
0100
1000
0001
0010
0001
,
1000
0100
0010
0001
1000
0001
1000
0100
0010
0001
1000
0001
1000
0010
0100
0001
,
1000
0001
1000
0010
0100
0001
1000
0001
1000
0010
0100
0001
1000
0010
0100
0010
,
1000
0001
1000
0001
0010
0100
1000
0001
1000
0001
0010
0100
1000
0001
0100
0010
,
1000
0010
1000
0001
0100
0010
1000
0010
1000
0001
0010
0100
1000
0001
0100
0001
,
1000
0100
1000
0100
0010
0100
0010
0001
0010
0001
1000
0001
1000
0010
1000
0010
,
0100
0001
0100
0001
1000
0001
1000
0001
0010
0100
1000
0001
1000
0001
0010
0100
,
1000
0000
0000
0000
0000
0000
0001
1000
0001
1000
0000
0000
,
1001
1001
0000
0000
;
