#TITLE:FuriFuri;
#SUBTITLE:;
#ARTIST:DJ Sharpnel;
#TITLETRANSLIT:;
#SUBTITLETRANSLIT:;
#ARTISTTRANSLIT:;
#CREDIT:;
#BANNER:furi furi bn.png;
#BACKGROUND:furi furi bg.png;
#LYRICSPATH:;
#CDTITLE:;
#MUSIC:FuriFuri.ogg;
#OFFSET:-0.025;
#SAMPLESTART:37.860;
#SAMPLELENGTH:17.831;
#SELECTABLE:YES;
#DISPLAYBPM:215.000;
#BPMS:0.000=215.340,0.500=200.000,1.000=180.000,1.500=170.000,2.000=150.000,2.500=170.000,3.000=180.000,3.500=200.000,4.000=215.340,363.000=71.800,364.000=215.340,377.000=71.800,378.000=215.340;
#STOPS:;
#BGCHANGES:;
// cache tags:
#FIRSTBEAT:0.000;
#LASTBEAT:421.000;
#SONGFILENAME:Songs/SHARPNELSTREAMZ v2/FuriFuri/FuriFuri.sm;
#HASMUSIC:1;
#HASBANNER:1;
#MUSICLENGTH:120.398;
// end cache tags

//---------------dance-single - 16- (TYLappo)----------------
#NOTES:
     dance-single:
     16- (TYLappo):
     Challenge:
     16:
     1.000,1.000,0.075,0.050,1.000,1207.000,9.000,6.000,50.000,0.000:
0000
0000
0000
0000
,
0000
0000
0000
0000
0000
0000
0001
1000
,
0100
0000
1000
0001
1000
0010
0100
0000
0001
1000
0001
1000
0010
0000
1000
0000
,
0100
0000
0010
0001
0010
0100
1000
0000
0001
1000
0001
0100
0010
0000
1000
0000
,
0100
0000
1000
0001
1000
0010
0100
0000
0001
1000
0001
1000
0100
0000
0010
0000
,
0001
0000
1000
0001
1000
0010
0100
0000
0001
0000
0001
0000
0001
0000
1000
0000
,
0010
0000
1000
0001
1000
0100
0010
0000
0001
1000
0001
1000
0100
0000
1000
0000
,
0010
0000
0100
0001
0100
0010
1000
0000
0001
0000
1000
0000
0001
0000
1000
0000
,
0001
0000
0001
0000
1000
0001
1000
0000
,
0000
0000
M00M
0000
0001
0001
1000
0001
,
0010
0000
0001
1000
0001
0100
0010
0000
1000
0001
1000
0001
0100
0000
0001
0000
,
0010
0000
0100
1000
0100
0010
0001
0000
1000
0001
1000
0010
0100
0000
0001
0000
,
0010
0000
0001
1000
0001
0100
0010
0000
1000
0001
1000
0001
0010
0000
0100
0000
,
1000
0000
0001
1000
0001
0100
0010
0000
1000
0000
1000
0000
1000
0000
0001
0000
,
0100
0000
0001
1000
0001
0010
0100
1000
0001
1000
0100
0010
0001
1000
0010
1000
,
0001
0100
0010
1000
0100
0010
0001
1000
0100
1000
0001
1000
0010
0100
0001
0010
,
0100
1000
0001
0100
0010
1000
0100
1000
0010
0100
0001
0010
0100
0000
0000
0000
,
1001
0000
0000
0000
1000
0000
0010
0100
0001
0000
1000
0000
1001
0000
0M00
0000
,
00M0
0000
M000
000M
M000
000M
M000
000M
0M00
0000
00M0
0000
0000
0000
M000
0000
,
000M
00M0
000M
M000
0M00
M000
000M
0000
0M00
0000
00M0
0000
0000
0000
0M00
0000
,
00M0
0000
M000
000M
M000
000M
M000
000M
0M00
0000
00M0
0000
0000
0000
M000
0000
,
000M
0M00
000M
M000
0M00
M000
00M0
0000
0M00
0000
0000
0000
1000
0000
0000
0000
,
0010
0100
0001
1000
,
0001
0010
0100
1000
,
0001
0100
0001
1000
,
0100
0000
0010
0000
0001
0000
1000
0001
,
1000
0001
0100
0010
0100
0010
1000
0001
,
1000
0001
0010
0100
0010
0100
1000
0001
,
1000
0001
0100
0001
0100
0010
1000
0010
,
1000
0000
0001
0000
1000
0000
0001
0000
0010
0000
0100
1000
0001
0000
1000
0000
,
0001
0000
1000
0010
0100
0000
0001
0000
1000
0000
0001
1000
0100
0010
0100
1000
,
0001
0010
0001
1000
0001
0100
0010
1000
0001
0100
0001
0100
0010
1000
0001
0100
,
0001
0100
0010
1000
0001
0010
0100
1000
0001
0010
0001
1000
0001
0000
0000
0000
,
0000
0000
0000
0000
1000
0001
1000
0000
0010
0000
1000
0000
0001
0010
0001
1000
,
0010
1000
0001
1000
0001
0010
0001
1000
0010
1000
0100
1000
0001
1000
0001
0100
,
0001
1000
0010
0100
0001
1000
0010
1000
0100
0010
0100
0010
0001
0100
0001
1000
,
0100
1000
0001
1000
0001
0100
0001
1000
0100
1000
0010
1000
0001
1000
0001
0010
,
0001
1000
0100
0010
0001
1000
0100
1000
0010
0100
0010
0100
0001
0010
0001
1000
,
0010
1000
0001
1000
0001
0010
0001
1000
0010
1000
0100
1000
0001
1000
0001
0100
,
0001
1000
0010
0100
0001
1000
0010
1000
0100
0010
0100
0010
0001
0100
0001
1000
,
0100
1000
0001
1000
0001
0100
0001
1000
0100
1000
0010
1000
0001
0000
0000
0000
,
0000
0000
0000
0000
0000
0000
0000
0000
0200
0000
0302
0000
1003
0100
1000
0001
,
0100
0001
1000
0001
1000
0100
1000
0001
0100
0001
0010
0001
1000
0001
1000
0010
,
1000
0001
0100
0010
1000
0001
0100
0001
0010
0100
0010
0100
1000
0010
1000
0001
,
0010
0001
1000
0001
1000
0010
1000
0001
0010
0001
0100
0001
1000
0001
1000
0100
,
1000
0001
0010
0100
1000
0001
0010
0001
0100
0010
0100
0010
1000
0100
1000
0001
,
0100
0001
1000
0001
1000
0100
1000
0001
0100
0001
0010
0001
1000
0001
1000
0010
,
1000
0001
0100
0010
1000
0001
0100
0001
0010
0100
0010
0100
1000
0000
0000
0000
,
0000
0000
0000
0000
0000
0000
0001
1000
,
0001
0000
0000
0000
0040
0000
0000
0000
0000
0000
0000
0000
0031
1000
0100
1000
,
0010
0100
0001
1000
0001
0100
0001
1000
0010
1000
0100
1000
0001
1000
0001
0100
,
0001
1000
0010
0100
0001
1000
0010
1000
0100
0010
0100
0010
0001
0100
0001
1000
,
0100
1000
0001
1000
0001
0100
0001
1000
0100
1000
0010
1000
0001
1000
0001
0010
,
0001
1000
0100
0010
0001
1000
0100
1000
0010
0100
0010
0100
0001
0010
0001
1000
,
0010
1000
0001
1000
0001
0010
0001
1000
0010
1000
0100
1000
0001
1000
0001
0100
,
0001
1000
0010
0100
0001
1000
0010
1000
0100
0010
0100
0010
0001
0100
0001
1000
,
0100
1000
0001
1000
0001
0100
0001
1000
0100
1000
0010
1000
0001
0000
0000
0000
,
0000
0000
0000
0000
0010
0001
0010
0001
0200
0000
0302
0000
1003
0100
1000
0001
,
0100
0001
1000
0001
1000
0100
1000
0001
0100
0001
0010
0001
1000
0001
1000
0010
,
1000
0001
0100
0010
1000
0001
0100
0001
0010
0100
0010
0100
1000
0010
1000
0001
,
0010
0001
1000
0001
1000
0010
1000
0001
0010
0001
0100
0001
1000
0001
1000
0100
,
1000
0001
0010
0100
1000
0001
0010
0001
0100
0010
0100
0010
1000
0100
1000
0001
,
0100
0001
1000
0001
1000
0100
1000
0001
0100
0001
0010
0001
1000
0001
1000
0010
,
1000
0001
0100
0010
1000
0001
0100
0001
0010
0100
0010
0100
1000
0010
0100
0001
,
1000
0001
0100
0010
1000
0100
0010
0001
0100
0001
0010
0100
1000
0001
0010
0001
,
0100
0010
1000
0100
0010
0001
0100
0001
0010
0100
1000
0010
0100
0000
0001
0000
,
1000
0100
0000
0100
0000
0100
0000
0100
,
0000
0100
0010
0100
1000
0100
0010
0001
,
0100
0010
0000
0010
0000
0010
0000
0010
,
0000
0010
0100
0010
1000
0001
0011
0010
,
0100
1000
0000
1000
0000
1000
0000
1000
,
0000
1000
0100
0010
0001
1000
0010
0100
,
0001
1000
0000
1000
0000
1000
0M00
00M0
,
0M00
0000
000M
M000
000M
0000
0M00
00M0
0M00
0000
0000
0000
1000
0001
1000
0001
,
1000
0010
0100
0001
1000
0010
1000
0001
0100
0001
1000
0100
1000
0001
0010
0100
,
1000
0001
0010
0100
0010
0001
1000
0100
1000
0001
0100
0010
1000
0001
0100
0001
,
1000
0001
0100
0001
1000
0100
0010
0001
1000
0001
0010
0100
1000
0001
0010
0001
,
1000
0010
0100
0001
1000
0001
0100
0010
1000
0001
1000
0001
1000
0100
0010
0001
,
1000
0010
1000
0001
0100
0010
1000
0001
0100
0001
1000
0100
0010
0001
1000
0100
,
0010
0100
1000
0001
0010
0001
1000
0010
0100
0001
1000
0010
0100
0001
1000
0010
,
1000
0001
0010
0100
1000
0001
0010
0100
1000
0001
0010
0001
1000
0010
0100
0001
,
1000
0001
0100
0001
0010
0100
1000
0001
0010
0100
0010
0001
1000
0001
1000
0001
,
1000
0010
0100
0001
1000
0010
1000
0001
0100
0001
1000
0100
1000
0001
0010
0100
,
1000
0001
0010
0100
0010
0001
1000
0100
1000
0001
0100
0010
1000
0001
0100
0001
,
1000
0001
0100
0001
1000
0100
0010
0001
1000
0001
0010
0100
1000
0001
0010
0001
,
1000
0010
0100
0001
1000
0001
0100
0010
1000
0001
1000
0001
1000
0100
0010
0001
,
1000
0001
1000
0010
0100
0010
1000
0001
0100
0001
1000
0100
0010
0001
1000
0100
,
0010
0100
1000
0001
0010
0001
1000
0010
0100
0001
1000
0010
0100
0001
1000
0010
,
1000
0001
0010
0100
1000
0001
0010
0100
1000
0001
0010
0001
1000
0010
0100
0001
,
1000
0010
1000
0001
0010
0100
1000
0001
0010
0001
1000
0010
1000
0001
1000
0001
,
0010
0100
1000
0001
1000
0010
1000
0010
0100
0001
0010
0100
1000
0000
0000
0000
,
0001
0000
0001
0000
1000
0100
0010
0001
1000
0100
1000
0001
0010
0001
1000
0010
,
0100
0001
1000
0010
0100
0010
1000
0001
0100
0001
1000
0100
0010
0001
1000
0001
,
0010
0100
1000
0001
0010
0001
1000
0010
0100
0001
1000
0010
0100
0001
0100
0010
,
1000
0001
0010
0100
1000
0000
0000
0000
0001
0000
0001
0000
1000
0010
0100
0001
,
1000
0010
1000
0001
0100
0001
1000
0100
0010
0001
1000
0100
0010
0100
1000
0001
,
0010
0001
1000
0010
0100
0001
1000
0001
1000
0010
1000
0001
0100
0000
0100
0000
,
0010
0000
0100
0001
1000
0000
1000
0000
0100
0000
0010
0000
0001
0000
0001
0000
,
0100
0000
0001
1000
0100
0000
0100
0000
0010
0000
0001
0000
1000
0000
1000
0000
,
0010
0000
0100
0001
1000
0000
1000
0000
0100
0000
0010
0000
0001
0000
0001
0000
,
0100
0000
0001
1000
0100
0000
0100
0000
0010
0000
0001
0000
1000
0000
1000
0000
,
0010
0000
0100
0001
1000
0000
1000
0000
0100
0000
0010
0000
0001
0000
0001
0000
,
0100
0000
0001
1000
0100
0000
0100
0000
0010
0000
0001
1000
0010
0000
0010
0000
,
0100
0001
0001
0010
0100
0100
1000
0001
,
0001
1000
1001
1001
1001
1001
2002
0000
,
0000
3003
0000
0000
;

//---------------dance-single - 14- (TYLR)----------------
#NOTES:
     dance-single:
     14- (TYLR):
     Hard:
     14:
     1.000,1.000,0.075,0.257,0.939,932.000,9.000,31.000,50.000,0.000:
0000
0000
0000
0000
,
0000
0000
0000
0000
0000
0000
0001
1000
,
0100
0000
1000
0001
1000
0010
0100
0000
0001
1000
0001
1000
0010
0000
1000
0000
,
0100
0000
0010
0001
0010
0100
1000
0000
0001
1000
0001
0100
0010
0000
1000
0000
,
0100
0000
1000
0001
1000
0010
0100
0000
0001
1000
0001
1000
0100
0000
0010
0000
,
0001
0000
1000
0001
1000
0010
0100
0000
0001
0000
0001
0000
0001
0000
1000
0000
,
0010
0000
1000
0001
1000
0100
0010
0000
0001
1000
0001
1000
0100
0000
1000
0000
,
0010
0000
0100
0001
0100
0010
1000
0000
0001
0000
1000
0000
0001
0000
1000
0000
,
0001
0000
0001
0000
1000
0001
1000
0000
,
0000
0000
M00M
0000
0001
0001
1000
0001
,
0010
0000
0001
1000
0001
0100
0010
0000
1000
0001
1000
0001
0100
0000
0001
0000
,
0010
0000
0100
1000
0100
0010
0001
0000
1000
0001
1000
0010
0100
0000
0001
0000
,
0010
0000
0001
1000
0001
0100
0010
0000
1000
0001
1000
0001
0010
0000
0100
0000
,
1000
0000
0001
1000
0001
0100
0010
0000
1000
0000
1000
0000
1000
0000
0001
0000
,
0100
0000
0001
1000
0001
0010
0100
1000
0001
1000
0100
0010
0001
1000
0010
1000
,
0001
0100
0010
1000
0100
0010
0001
1000
0100
1000
0001
1000
0010
0100
0001
0010
,
0100
1000
0001
0100
0010
1000
0100
1000
0010
0100
0001
0010
0100
0000
0000
0000
,
1001
0000
0000
0000
1000
0000
0010
0100
0001
0000
1000
0000
1001
0000
0M00
0000
,
00M0
0000
M000
000M
M000
000M
M000
000M
0M00
0000
00M0
0000
0000
0000
M000
0000
,
000M
00M0
000M
M000
0M00
M000
000M
0000
0M00
0000
00M0
0000
0000
0000
0M00
0000
,
00M0
0000
M000
000M
M000
000M
M000
000M
0M00
0000
00M0
0000
0000
0000
M000
0000
,
000M
0M00
000M
M000
0M00
M000
00M0
0000
0M00
0000
0000
0000
1000
0000
0000
0000
,
0010
0100
0001
1000
,
0001
0010
0100
1000
,
0001
0100
0001
1000
,
0100
0000
0010
0000
0001
0000
1000
0001
,
1000
0001
0100
0010
0100
0010
1000
0001
,
1000
0001
0010
0100
0010
0100
1000
0001
,
1000
0001
0100
0001
0100
0010
1000
0010
,
1000
0000
0001
0000
1000
0000
0001
0000
0010
0000
0100
1000
0001
0000
1000
0000
,
0001
0000
1000
0010
0100
0000
0001
0000
1000
0000
0001
1000
0100
0010
0100
1000
,
0001
0010
0001
1000
0001
0100
0010
1000
0001
0100
0001
0100
0010
1000
0001
0100
,
0001
0100
0010
1000
0001
0010
0100
1000
0001
0010
0001
1000
0001
0000
0000
0000
,
0000
0000
0000
0000
1000
0001
1000
0000
0010
0000
1000
0000
1001
0000
0001
0000
,
0010
0000
0100
1000
0100
0010
0001
1000
0001
0000
0200
0000
0301
0000
1000
0000
,
0001
0010
0001
1000
0010
0100
0001
0000
2000
0000
0000
0000
3001
0000
0010
0000
,
0100
0000
0010
0001
1000
0001
0010
0100
1000
0000
0002
0000
0103
0000
0001
0000
,
1000
0010
0100
0010
1000
0001
0010
0000
0200
0000
0000
0000
1300
0000
0100
0000
,
0010
0000
0001
1000
0001
0010
0100
1000
0001
0000
2000
0000
3010
0000
1000
0000
,
0001
0010
0100
0010
0001
1000
0010
0000
0200
0000
0000
0000
0301
0000
0100
0000
,
0010
0000
1000
0001
1000
0100
0010
0001
2000
0000
3001
0000
1001
0000
0000
0000
,
0000
0000
0000
0000
0020
0032
1003
0001
,
0100
0000
0010
1000
0010
0100
0001
1000
0001
0000
0020
0000
0031
0000
1000
0000
,
0001
0100
0001
1000
0100
0010
0001
0000
2000
0000
0000
0000
3001
0000
0100
0000
,
0010
0000
0100
0001
1000
0001
0100
0010
1000
0000
0002
0000
0013
0000
0001
0000
,
1000
0100
0010
0100
1000
0001
0100
0000
0020
0000
0000
0000
1030
0000
0010
0000
,
0100
0000
0001
1000
0001
0100
0010
1000
0001
0000
2000
0000
3100
0000
1000
0000
,
0001
0010
0100
0010
0001
1000
0010
0000
0200
0000
0000
0000
0301
0000
1000
0000
,
0001
0000
0100
0010
0100
0001
1000
0100
1000
0000
0002
0000
1003
0000
0001
0000
,
1000
0000
0000
0000
1000
0010
1000
0010
1000
0010
1000
0010
1000
0000
0001
0000
,
0010
0000
0100
1000
0100
0010
0001
1000
0001
0000
0200
0000
0301
0000
1000
0000
,
0001
0010
0001
1000
0010
0100
0001
0000
2000
0000
0000
0000
3001
0000
0010
0000
,
0100
0000
0010
0001
1000
0001
0010
0100
1000
0000
0002
0000
0103
0000
0001
0000
,
1000
0010
0100
0010
1000
0001
0010
0000
0200
0000
0000
0000
1300
0000
0100
0000
,
0010
0000
0001
1000
0001
0010
0100
1000
0001
0000
2000
0000
3010
0000
1000
0000
,
0001
0010
0100
0010
0001
1000
0010
0000
0200
0000
0000
0000
0310
0000
1000
0000
,
0001
0000
1000
0100
0010
0001
1000
0001
0010
0000
0200
0000
1300
0000
0000
0000
,
0000
0000
0001
0001
1000
1000
0010
1000
,
0100
0000
0010
0001
0010
0100
1000
0001
1000
0000
0020
0000
1030
0000
0001
0000
,
1000
0100
1000
0001
0100
0010
1000
0000
0002
0000
0000
0000
1003
0000
0100
0000
,
0010
0000
0100
1000
0001
1000
0100
0010
0001
0000
2000
0000
3010
0000
1000
0000
,
0001
0100
0010
0100
0001
1000
0100
0000
0020
0000
0000
0000
0031
0000
0010
0000
,
0100
0000
1000
0001
1000
0100
0010
0001
1000
0000
0002
0000
0103
0000
0001
0000
,
1000
0100
0010
0100
1000
0001
0100
0000
0020
0000
0000
0000
1030
0010
0100
0001
,
1000
0001
0100
0010
1000
0100
0010
0001
0100
0001
0010
0100
1000
0001
0010
0001
,
0100
0010
1000
0100
0010
0001
1000
0001
0010
0100
1000
0001
0100
0000
0100
0000
,
0100
0010
0000
0010
0000
0010
0000
0010
,
0000
0010
1000
0001
1000
0010
0100
0100
,
0100
0001
0000
0001
0000
0001
0000
0001
,
0000
0001
1000
0100
1000
0001
0010
0010
,
0010
0100
0000
0100
0000
0100
0000
0100
,
0000
0100
1000
0001
0010
0001
1000
1000
,
1000
0010
0000
0010
0000
0010
0M00
00M0
,
0M00
0000
000M
M000
000M
0000
0M00
00M0
0M00
0000
0000
0000
1000
0000
1000
0000
,
1000
0100
0010
0100
1000
0100
0010
0100
,
1000
0100
0010
0001
0010
0001
1000
1000
,
1000
0010
0100
0010
1000
0010
0100
0010
,
1000
0010
0100
0001
0100
0100
0010
0010
,
0010
1000
0001
1000
0100
1000
0001
1000
,
0010
1000
0001
0010
0001
0010
0100
0100
,
0100
1000
0001
1000
0010
1000
0001
1000
,
0100
1000
0010
0100
0010
0010
1000
1000
,
1000
0010
0100
0010
1000
0010
0100
0010
,
1000
0010
0100
0001
0100
0001
1000
1000
,
1000
0100
0010
0100
1000
0100
0010
0100
,
1000
0100
0010
0001
0010
0010
0100
0100
,
0100
1000
0001
1000
0010
1000
0001
1000
,
0100
0000
1000
0000
0001
0000
0100
0000
0001
0000
0100
0000
0001
0100
0001
1000
,
0100
0010
0100
1000
0001
0010
0001
1000
0010
0100
0001
1000
0001
0010
0001
1000
,
0100
0010
0100
1000
0001
0100
0010
1000
0100
0000
0100
0000
0010
0000
0010
0000
,
0001
0000
1000
0001
0100
0000
0010
1000
0010
1000
0001
0000
0010
0000
0000
0000
,
0100
0000
0100
0000
1000
0000
1000
0000
0001
0000
0100
0001
1000
0000
0100
1000
,
0100
0010
0001
0000
1000
0000
1000
0000
0001
0000
0100
0010
1000
0000
0001
1000
,
0001
0010
0100
0000
1000
0000
1000
0000
0001
0000
0100
0010
1000
0000
0001
1000
,
0001
0010
0100
0000
1000
0000
0000
0000
0001
0000
0001
0000
1000
0000
1000
0000
,
0010
0000
0100
0001
1000
0000
0100
1000
0100
0010
0001
0000
1000
0000
1000
0000
,
0010
0000
0100
0001
1000
0000
0001
0010
0001
1000
0010
0000
0100
0000
0001
0000
,
0100
0000
0010
1000
0001
0000
0001
0000
0001
0000
0010
0000
0100
0000
0100
0000
,
0100
0100
1000
0100
0100
0010
0001
1000
,
0001
0000
0100
0000
0010
0000
0010
0000
0010
0000
1000
0000
0001
0000
0010
0001
,
0000
1000
0001
0000
0100
0000
0010
0000
0010
0000
1000
0000
0001
0000
0001
0000
,
0001
0010
0100
0100
0100
1000
0001
0001
,
0001
0001
0001
0001
0001
0001
0100
0100
,
0010
1000
1000
0100
0010
0010
0001
1000
,
1000
0001
1001
1001
1001
1001
2002
0000
,
0000
3003
0000
0000
;

//---------------dance-single - G. Nappo----------------
#NOTES:
     dance-single:
     G. Nappo:
     Edit:
     16:
     1.000,1.000,0.100,0.274,1.000,1106.000,12.000,33.000,63.000,0.000:
M000
00M0
0M00
000M
M000
0M00
M000
000M
,
0M00
00M0
000M
M000
0M00
0000
0001
1000
,
0001
0100
0001
0000
1000
0000
0100
0000
1000
0000
0001
0000
0100
0000
0001
0000
,
1000
0010
1000
0000
0001
0000
0100
0000
0001
0000
0010
0000
0100
0000
1000
0000
,
0001
0010
0001
0000
1000
0000
0010
0000
1000
0000
0010
0000
0100
0000
0001
0000
,
1000
0100
1000
0000
0001
0000
0010
0000
0001
0000
0001
0000
1000
0000
0001
0000
,
1000
0001
1000
0000
0010
0000
0100
0000
0001
0000
1000
0000
0010
0000
0100
0000
,
0001
0100
0001
0000
1000
0000
0100
0000
1000
0000
1000
0000
0001
0000
0001
0000
,
0100
0000
0101
0000
0010
1000
0001
0000
,
0000
0000
00M0
0000
10M0
0001
0100
0010
,
1000
0100
1000
0010
0100
0010
1000
0100
,
1000
0001
0010
0001
1000
0100
1000
0010
,
0100
0010
1000
0001
1000
0001
0010
0001
,
1000
0100
1000
0001
0100
0100
0001
1000
,
0001
0000
0100
0000
0001
1000
0001
1000
0001
0100
0001
0100
0010
1000
0010
1000
,
0001
1000
0001
1000
0001
0010
0001
0010
0100
1000
0100
1000
0001
0010
0100
1000
,
0001
0010
0001
1000
0010
0100
0001
1000
0010
1000
0001
0100
0001
0000
0000
0000
,
1010
0000
0000
0100
1001
0000
1001
0M00
,
00M0
0000
M000
000M
M000
000M
M000
000M
0M00
0000
00M0
0000
0000
0000
M000
0000
,
000M
00M0
000M
M000
0M00
M000
000M
0000
0M00
0000
00M0
0000
0000
0000
0M00
0000
,
00M0
0000
M000
000M
M000
000M
M000
000M
0M00
0000
00M0
0000
0000
0000
M000
0000
,
000M
0M00
000M
M000
0M00
M000
00M0
0000
0M00
0000
0000
0000
1000
0000
0000
0000
,
0010
0100
0001
1000
,
0001
0010
0100
1000
,
0001
0100
0001
1000
,
0100
0000
0010
0000
0001
0000
1000
0001
,
1000
0001
0100
0010
0100
0010
1000
0001
,
1000
0001
0010
0100
0010
0100
1000
0001
,
1000
0001
0100
0001
0100
0010
1000
0010
,
1000
0001
1000
0001
0010
0100
1000
0001
,
0100
0000
0001
0000
1000
0000
0010
0000
1000
0000
0001
0000
1000
0100
0010
0001
,
1000
0100
1000
0001
1000
0010
0100
0001
1000
0010
1000
0010
0100
0001
1000
0010
,
1000
0010
0100
0001
1000
0100
0010
0001
1000
0100
1000
0001
1000
0000
0000
0000
,
0000
0000
0000
0000
0000
0000
0000
0000
0000
0000
0000
0000
1002
0000
0003
0000
0000
0000
0000
0000
0000
0000
0000
0000
1002
0000
0003
0000
0000
0000
0000
0000
0000
0000
0000
0000
1000
0000
0000
0100
0000
0000
1000
0000
0000
0001
0000
0000
,
0100
0010
1000
0001
0100
0010
1000
0001
1000
0100
2000
0000
3000
0000
0001
0100
,
0001
1000
0100
0010
0001
1000
0100
0010
0002
0000
0000
0003
1000
0100
1000
0010
,
0100
0001
1000
0010
0100
0001
1000
0010
1000
0100
2000
0000
3000
0000
0001
0100
,
0001
1000
0100
0010
0001
1000
0100
0010
0002
0000
0000
0003
1000
0010
1000
0001
,
0010
0100
1000
0001
0010
0100
1000
0001
1000
0010
2000
0000
3000
0000
0001
0010
,
0001
1000
0010
0100
0001
1000
0010
0100
0002
0000
0000
0003
1000
0010
1000
0001
,
0010
0100
1000
0001
0010
0100
1000
0001
1000
0010
2000
0000
3000
0000
0001
0010
,
0001
0000
0000
1000
0000
0000
0010
0000
0000
0100
0000
0000
0002
0000
0003
1000
0000
0000
0010
0000
0000
0100
0000
0000
0002
0000
0003
0000
0000
0000
0000
0000
0000
0000
0000
0000
1000
0000
0000
0100
0000
0000
0010
0000
0000
0001
0000
0000
,
1000
0100
1000
0001
0010
0100
1000
0001
0010
0100
2000
0000
3000
0000
0001
0100
,
0010
1000
0001
0100
0001
0100
0010
1000
0002
0000
0000
0003
1000
0100
1000
0001
,
0010
0100
1000
0001
0010
0001
1000
0100
0010
0001
2000
0000
3000
0000
0001
0100
,
0001
1000
0010
0100
0001
1000
0010
1000
0002
0000
0000
0003
1000
0100
0010
0001
,
1000
0001
1000
0100
0010
0001
1000
0100
0010
0001
2000
0000
3000
0000
0001
0100
,
0010
1000
0001
1000
0010
0100
0001
1000
0002
0000
0000
0003
1000
0100
0010
0001
,
1000
0100
1000
0001
0010
0100
1000
0001
0010
0001
1000
0000
0001
0000
1000
0000
,
0001
0000
0000
0000
0000
0000
1000
0000
0000
0000
0000
0000
0001
0000
1000
0000
0001
0000
1000
0000
0001
0000
1000
0000
0001
0000
1000
0000
0001
0000
1000
0000
0001
0000
1000
0000
0001
0000
0000
0010
0000
0000
0100
0000
0000
1000
0000
0000
,
0001
0010
0001
1000
0100
0010
0001
1000
0100
0010
0002
0000
0003
0000
1000
0010
,
0100
0001
1000
0010
1000
0010
0100
0001
2000
0000
0000
3000
0001
0010
0001
1000
,
0100
0010
0001
1000
0100
1000
0001
0010
0100
1000
0002
0000
0003
0000
1000
0010
,
1000
0001
0100
0010
1000
0001
0100
0001
2000
0000
0000
3000
0001
0010
0100
1000
,
0001
1000
0001
0010
0001
1000
0001
0010
0100
1000
0002
0000
0003
0000
1000
0010
,
0100
0001
1000
0001
0100
0010
1000
0001
2000
0000
0000
3000
0001
0010
0100
1000
,
0001
0010
0001
1000
0100
0010
0001
1000
0100
1000
0002
0000
0003
0000
1000
0010
,
1000
0001
0100
0010
1000
0001
0100
0001
2000
0000
0000
3000
0001
0010
0100
1000
,
0001
0010
0001
1000
0100
0010
0001
1000
0100
0010
0002
0000
0003
0000
1000
0010
,
0100
0001
1000
0010
1000
0010
0100
0001
2000
0000
0000
3000
0001
0010
0001
1000
,
0100
0010
0001
1000
0100
1000
0001
0010
0100
1000
0002
0000
0003
0000
1000
0010
,
1000
0001
0100
0010
1000
0001
0100
0001
2000
0000
0000
3000
0001
0010
0100
1000
,
0001
1000
0001
0010
0100
1000
0001
0010
0100
1000
0002
0000
0003
0000
1000
0010
,
0100
0001
1000
0001
0100
0010
1000
0001
2000
0000
0000
3000
0001
0010
0100
1000
,
0001
0010
0001
1000
0100
0010
0001
1000
0001
1000
0001
0100
0001
1000
0010
1000
,
0001
1000
0100
0010
0001
1000
0010
1000
0001
1000
0010
0100
0001
0000
0010
0000
,
0100
1000
0000
1000
0000
1000
0000
1000
,
0000
1000
0010
0100
0001
0010
0100
1000
,
0001
1000
0000
1000
0000
1000
0000
1000
,
0000
1000
0010
0100
0001
1000
0100
0010
,
0001
1000
0000
1000
0000
1000
0000
1000
,
0000
1000
0010
0100
0001
1000
0100
0010
,
0001
1000
0000
1000
0000
1000
00M0
0M00
,
00M0
0000
M000
000M
M000
0000
00M0
0M00
00M0
0000
0000
0000
0001
1000
0001
1000
,
0001
0100
0010
1000
0001
0100
0001
1000
0010
1000
0001
0010
0001
1000
0100
0010
,
0001
1000
0100
0010
0100
1000
0001
0010
0001
1000
0010
0100
0001
1000
0010
1000
,
0001
1000
0010
1000
0001
0010
0100
1000
0001
1000
0100
0010
0001
1000
0100
1000
,
0001
0100
0010
1000
0001
1000
0001
1000
0001
1000
0001
1000
0001
0100
0010
1000
,
0001
0100
0001
1000
0010
0100
0001
1000
0010
1000
0001
0010
0100
1000
0001
0010
,
0100
0010
0001
1000
0100
1000
0001
0100
0010
1000
0001
0100
0010
1000
0001
0100
,
0001
1000
0100
0010
0001
1000
0100
0010
0001
1000
0100
1000
0001
0100
0010
1000
,
0001
0000
1000
0000
0100
0000
1000
0000
0001
0000
0100
0000
0001
1000
0001
1000
,
0001
0100
0010
1000
0001
0100
0001
1000
0010
1000
0001
0010
0001
1000
0100
0010
,
0001
1000
0100
0010
0100
1000
0001
0010
0001
1000
0010
0100
0001
1000
0010
1000
,
0001
1000
0010
1000
0001
0010
0100
1000
0001
1000
0100
0010
0001
1000
0100
1000
,
0001
0100
0010
1000
0001
1000
0001
1000
0001
1000
0001
1000
0001
0100
0010
1000
,
0001
0100
0001
1000
0010
0100
0001
1000
0010
1000
0001
0010
0100
1000
0001
0010
,
0100
0010
0001
1000
0100
1000
0001
0100
0010
1000
0001
0100
0010
1000
0001
0100
,
0001
1000
0100
0010
0001
1000
0100
0010
0001
1000
0100
1000
0001
0100
0010
1000
,
0001
0100
0001
1000
0100
0010
0001
1000
0100
1000
0001
0100
0001
0000
1000
0000
,
0001
0100
0001
1000
0100
1000
0001
0000
,
1000
0000
1000
0000
0001
0010
0100
1000
0001
0010
0001
1000
0100
1000
0001
0100
,
0010
1000
0001
0100
0010
0100
0001
1000
0010
1000
0001
0010
0100
1000
0001
1000
,
0100
0010
0001
1000
0100
1000
0001
0100
0010
1000
0001
0100
0010
1000
0010
0100
,
0001
1000
0100
0010
0001
0000
0000
0000
1000
0000
1000
0000
0001
0100
0010
1000
,
0001
0100
0001
1000
0010
1000
0001
0010
0100
1000
0001
0010
0100
0010
0001
1000
,
0100
1000
0001
0100
0010
1000
0001
1000
0001
0100
0001
1000
0010
0000
0000
0000
,
1010
0000
1000
0001
0010
0100
0000
0100
,
1000
0001
0100
0001
1000
0010
0000
0010
,
0100
0001
1000
0100
0010
0001
0000
0001
,
1000
0001
0100
0010
1000
0010
0000
0010
,
0100
0001
0010
0100
1000
0001
0000
0001
,
1000
0100
0010
0001
1000
0010
0100
0100
,
0001
1000
1000
0100
0010
0010
0001
1000
,
1000
0001
1001
1001
1001
1001
2002
0000
,
0000
3003
0000
0000
;
