#TITLE:Ray of Illuminati SC;
#SUBTITLE:;
#ARTIST:ESTi;
#TITLETRANSLIT:;
#SUBTITLETRANSLIT:;
#ARTISTTRANSLIT:;
#CREDIT:;
#BANNER:Ray of Illuminati SC.png;
#BACKGROUND:Ray of Illuminati SC-bg.png;
#LYRICSPATH:;
#CDTITLE:NVLM-cdtitle.png;
#MUSIC:Ray of Illuminati SC.mp3;
#OFFSET:-0.668;
#SAMPLESTART:13.312;
#SAMPLELENGTH:12.000;
#SELECTABLE:YES;
#BPMS:0.000=150.000;
#STOPS:;
#BGCHANGES:;
// cache tags:
#FIRSTBEAT:0.000;
#LASTBEAT:316.000;
#SONGFILENAME:Songs/other/Ray of Illuminati SC/Ray of Illuminati SC.sm;
#HASMUSIC:1;
#HASBANNER:1;
#MUSICLENGTH:129.384;
// end cache tags

//---------------dance-single - ----------------
#NOTES:
     dance-single:
     :
     Challenge:
     18:
     1.000,1.000,1.000,0.665,1.000,1088.000,574.000,86.000,0.000,141.000:  // measure 1
2101
0010
0100
0001
0010
0100
0010
0100
0010
0001
0010
0100
0010
0001
0010
0001
,  // measure 2
3210
0001
1000
0010
1000
0001
0010
1000
0321
1000
0100
1000
0001
0100
0001
0100
,  // measure 3
2031
0100
0010
0100
0001
0010
0100
0001
3120
1000
0100
0001
0100
1000
0100
1000
,  // measure 4
0100
0001
0100
0001
1000
0100
1000
0001
0100
0001
1000
0100
1000
0001
0100
0001
,  // measure 5
1230
0001
0010
0001
1010
0001
0011
1000
0011
1000
0010
1000
1010
0001
1000
0001
,  // measure 6
1320
0101
1001
0100
1001
0100
1001
0100
0001
0100
0001
0100
1100
0001
0100
1000
,  // measure 7
0132
1000
0010
0100
1010
1000
0110
0010
1010
0100
0010
0100
0110
1000
0100
1000
,  // measure 8
2123
0000
3201
0000
2300
0000
3201
0000
2300
0000
3201
0000
1300
1001
1100
1001
,  // measure 9
1131
0011
1110
0011
1110
1101
0110
1011
,  // measure 10
0111
0000
1101
0000
1010
0000
1011
0000
0110
0000
0101
1000
0110
0001
1010
0100
,  // measure 11
1001
1100
0110
0011
1001
0000
1001
1100
0110
0011
1001
1100
0110
0011
1001
0110
,  // measure 12
2011
0100
0000
0001
3110
0000
0001
0110
0000
1220
0001
0000
0001
1000
0330
0001
,  // measure 13
1100
0010
0101
0010
1001
0001
1100
0010
1100
0001
0110
1000
0101
0010
1100
0001
,  // measure 14
1100
0010
0101
1000
0110
0001
1010
0100
1001
0100
0011
0100
1010
0001
0110
1000
,  // measure 15
0101
0110
1001
0000
1001
1100
0000
1100
1001
0110
0011
1100
0110
1001
1100
0101
,  // measure 16
2120
0001
0100
0000
0001
0000
3201
0000
1000
0001
1000
0000
1032
0000
0010
0000
1303
0100
0010
0000
1000
0000
0100
0000
1000
0010
0100
0000
0010
0000
0001
0000
,  // measure 17
0011
0100
1010
0000
1001
0000
1100
0011
0000
1100
0011
0000
1001
0100
1010
0001
,  // measure 18
1001
0010
1100
0010
0101
1100
0000
0101
0000
1010
0000
1001
0010
1100
0000
1010
,  // measure 19
0100
0010
0001
1000
0110
0000
0011
1100
0000
1100
0011
0000
1001
0010
1100
0001
,  // measure 20
1010
0100
0010
0000
1001
0000
1001
0110
0000
0011
1100
0000
0101
1010
0101
1010
,  // measure 21
0011
0010
1100
0010
1101
0010
1100
0010
1100
0010
1100
0010
1101
0010
1100
0010
,  // measure 22
1011
0100
0011
0100
1011
0100
0011
0100
0011
1100
0011
0100
1011
0100
0011
0100
,  // measure 23
0111
1000
0110
1000
0111
1000
0110
1000
0110
1001
0110
1000
0111
1000
0110
0001
,  // measure 24
1210
1010
1010
1010
1321
1001
1001
1001
2131
0101
0101
0101
3120
1100
1100
1100
,  // measure 25
1130
0010
0101
0000
1100
0011
0000
0011
1100
0000
1100
0011
0000
0011
1100
0000
,  // measure 26
1100
0110
0011
1001
1100
0110
0011
1001
0011
0110
1100
1001
0011
0110
1100
1001
,  // measure 27
1100
0010
0101
0000
1100
0011
0000
0011
1100
0000
1100
0011
0000
0011
1100
0000
,  // measure 28
1100
0110
0011
1001
1100
0110
0011
1001
0011
0110
1100
1001
0011
0110
1100
1001
,  // measure 29
1110
0111
1011
1001
1110
0111
0011
1101
1011
0110
1110
1101
0011
0111
1110
1001
,  // measure 30
1100
0110
0011
1001
1100
0110
0011
1001
0011
0110
1100
1001
0011
0110
1100
1001
,  // measure 31
1110
0111
1011
1001
1110
0111
0011
1101
1011
0110
1110
1101
0011
0111
1110
1001
,  // measure 32
1110
0111
1011
1001
1110
0111
0011
1101
1011
0110
1110
1101
0011
0111
1110
1001
,  // measure 33
1100
0110
0101
0000
1100
1010
0101
0000
1001
0101
1001
0000
1001
1010
1001
0000
,  // measure 34
0101
0011
0101
0000
0101
0110
0101
0000
0011
0110
0011
0000
0011
0011
0011
0000
,  // measure 35
1100
0110
0101
0000
1100
1010
0101
0000
1001
0101
1001
0000
1001
1010
1001
0000
,  // measure 36
0101
0011
0101
0000
0101
0110
0101
0000
0011
0110
0011
0000
0011
0011
0011
0000
,  // measure 37
1010
0110
0101
1000
0110
0011
0100
1100
0011
0100
0010
1100
0011
0100
0011
1100
,  // measure 38
1100
1100
1100
1100
0011
1100
1100
1100
0011
1100
1100
1100
0011
1100
1100
1100
,  // measure 39
1100
0110
1001
1100
0110
1001
0011
1100
0110
1001
1100
0011
0110
1001
1100
0110
,  // measure 40
1001
0100
0010
1001
0100
0010
1001
0100
0010
1001
0100
0010
1001
0100
1001
0010
,  // measure 41
2001
0010
0100
0000
0001
0000
0100
0000
0001
0010
0100
0000
0001
0000
0100
0000
0001
0010
0100
0000
0001
0000
0100
0000
0001
0010
0100
0000
0001
0000
0100
0000
,  // measure 42
3101
0010
0001
0100
1010
0100
0010
0100
1001
0100
0110
1000
0100
0010
1001
0100
,  // measure 43
1010
0100
0001
0010
1100
0010
0100
1000
0101
0010
0100
1000
0101
0010
0001
0010
,  // measure 44
1100
0110
1001
0011
0000
0000
1100
0110
0011
1001
0000
0000
1100
0110
0011
1001
,  // measure 45
1100
0010
0001
0010
1100
0010
0001
0010
1100
0010
0001
0010
1100
0010
0001
0010
,  // measure 46
1100
0010
0001
0100
1010
0100
0010
0100
1001
1000
1010
0100
0010
0001
1001
0001
,  // measure 47
1001
0100
0010
0001
0110
1000
0100
0010
1001
0100
1000
0100
0110
0001
0010
0100
,  // measure 48
1110
0100
0111
0001
1011
0010
1011
1101
0001
1011
1011
0010
1101
0100
1011
0010
,  // measure 49
1100
0001
0110
0000
0011
0000
0110
0000
1100
0001
0110
0000
0011
0000
0110
0000
1100
0001
0110
0000
0011
0000
0110
0000
1100
0001
0110
0000
0011
0000
0110
0000
,  // measure 50
1100
0100
1000
0100
1010
0100
0010
0100
1001
0010
0001
0010
0101
0010
0100
0010
,  // measure 51
1001
0100
1000
0100
1001
0010
0100
1001
0100
0001
0110
0001
1010
0100
0010
0100
,  // measure 52
1001
0010
0000
0011
0100
0010
0101
0010
1001
0100
1000
0100
1010
0100
0010
0100
,  // measure 53
1001
0010
0001
0010
0001
0100
1010
0001
0010
1001
0100
1000
0100
0010
0100
0010
,  // measure 54
1001
0100
0010
1000
0110
1000
0100
0010
0101
0010
1000
0100
0011
0100
0010
0100
,  // measure 55
1001
0100
0010
1000
0100
0010
0001
0100
1100
0010
1100
0010
0100
1000
0101
0010
,  // measure 56
1001
0110
1000
0110
1001
0100
1010
0101
1000
0110
1001
0100
0011
1010
0001
0110
,  // measure 57
1001
0110
1001
0110
1100
0011
1100
0011
1001
1001
0110
1001
1001
0110
1001
0110
,  // measure 58
1001
0100
1000
0100
1010
0100
0010
0100
1001
0010
0001
0010
0101
0010
0100
0010
,  // measure 59
1001
0100
1000
0100
1001
0010
0100
1001
0100
0001
0110
0001
1010
0100
0010
0100
,  // measure 60
1001
0010
0000
0011
0100
0010
0101
0010
1001
0100
1000
0100
1010
0100
0010
0100
,  // measure 61
1001
0010
0001
0010
0001
0100
1010
0001
0010
1001
0100
1000
0100
0010
0100
0010
,  // measure 62
1001
0100
0010
1000
0110
1000
0100
0010
0101
0010
1000
0100
0011
0100
0010
0100
,  // measure 63
1001
0100
0010
1000
0100
0010
0001
0100
1100
0010
1100
0010
0100
1000
0101
0010
,  // measure 64
1001
0110
1000
0110
1001
0100
1010
0101
1000
0110
1001
0100
0011
1010
0001
0110
,  // measure 65
1001
0110
1001
0110
1100
0011
1100
0011
1010
0101
1010
0101
1001
0110
1001
0110
,  // measure 66
1100
0100
0010
0001
1100
0100
0010
0001
1100
0100
0010
0001
1100
0100
0010
0001
,  // measure 67
1100
0100
0010
0001
1100
0100
0010
0001
1100
0100
0010
0001
1100
0100
0010
0001
,  // measure 68
1100
0100
0010
0001
1100
0100
0010
0001
1100
0100
0010
0001
1100
0100
0010
0001
,  // measure 69
2222
0000
0000
0000
0000
0000
0000
0000
0000
0000
0000
0000
0000
0000
0000
3333
,  // measure 70
2000
0000
3200
0000
0320
0032
0000
0023
,  // measure 71
0000
0230
0000
0302
0000
0203
2300
3200
,  // measure 72
0320
2030
0200
3020
0302
0030
2003
0200
3020
0302
2030
0203
3320
0200
2030
0300
,  // measure 73
0000
3200
0000
0000
0000
0000
0320
0000
0032
0000
0000
0000
0000
0000
0000
0000
,  // measure 74
0023
0000
0000
0000
2030
0000
0000
0000
0200
3020
0302
0030
0000
0000
0023
0000
,  // measure 75
0000
0230
0000
0302
0000
0203
2300
3020
,  // measure 76
0230
0000
0320
0000
0032
0200
0003
0302
0000
0000
0203
2300
3200
0000
0321
1031
,  // measure 77
1001
0000
0110
0110
0000
0101
0101
0000
1010
1010
0000
0000
2002
0000
3223
0000
,  // measure 78
2330
0000
0200
0000
0000
0000
0020
0000
0002
0000
0000
0000
0000
0000
0000
0000
0000
0000
0000
0000
0000
0000
0000
0000
0000
0000
0000
0000
0000
0000
0000
0000
0000
0000
0000
0000
0000
0000
0000
0000
0000
0000
0000
0000
0000
0000
0000
0000
0000
0000
0000
0000
0000
0000
0000
0000
0000
0000
0000
0000
0000
0000
0000
0000
0000
0000
0000
0000
0000
0000
0000
0000
0000
0000
0000
0000
0000
0000
0000
0000
0000
0000
0000
0000
0000
0000
0000
0000
0000
0000
0000
0000
0000
0000
0000
0000
0000
0000
0000
0000
0000
0000
0000
0000
0000
0000
0000
0000
0000
0000
0000
0000
0000
0000
0000
0000
0000
0000
0000
0000
0000
0000
0000
0000
0000
0000
0000
0000
0000
0000
0000
0000
0000
0000
0000
0000
0000
0000
0000
0000
0000
0000
0000
0000
0000
0000
0000
0000
0000
0000
0000
0000
0000
0000
0000
0000
0000
0000
0000
0000
0000
0000
0000
0000
0000
0000
0000
0000
0000
0000
0000
0000
0000
0000
0000
0000
0000
0000
0000
0000
0000
0000
0000
0000
0000
0000
0000
0000
0000
0000
0000
0000
,  // measure 79
0000
0000
0000
0000
,  // measure 80
3333
0000
0000
0000
;

//---------------dance-single - ----------------
#NOTES:
     dance-single:
     :
     Hard:
     15:
     1.000,1.000,1.000,0.518,1.000,907.000,229.000,67.000,0.000,27.000:  // measure 1
2000
0000
0000
0000
,  // measure 2
3200
0000
0320
0000
,  // measure 3
2030
0000
3020
0000
,  // measure 4
0000
0000
0000
0000
,  // measure 5
2230
0000
3001
0010
0002
0000
0013
0000
,  // measure 6
1320
0001
1000
0000
1000
0000
0100
0000
0002
0000
0000
0000
0103
0000
0000
0000
,  // measure 7
0232
0000
0310
0100
2000
0000
3100
0000
,  // measure 8
0223
0000
0000
0000
0302
0000
0000
0000
0203
0000
0000
0000
1300
0100
1000
0100
,  // measure 9
2031
0010
0001
0010
0020
0032
3000
0023
,  // measure 10
0000
0230
0000
2300
0000
0100
0010
3001
,  // measure 11
1100
0010
0001
0010
1100
0010
0001
0010
1001
0100
0010
0100
1002
0000
0203
0000
,  // measure 12
0000
0000
0310
0000
0000
0000
0002
0000
0013
0100
0000
0100
0020
0000
0031
0000
,  // measure 13
1100
0010
1100
0001
1100
0010
1100
0001
1100
0010
0001
0000
0000
0000
2001
0000
,  // measure 14
0000
0010
0000
0100
0000
0100
0010
3001
,  // measure 15
0110
0000
1001
0000
0110
1001
0000
1001
0000
0000
1000
0100
0010
0000
1001
0000
,  // measure 16
0011
0010
0100
1100
0011
0010
0100
1100
0011
0010
0100
1100
0011
0010
0100
1100
,  // measure 17
0011
0100
1000
0000
1001
0000
1100
0010
0000
0100
0011
0000
1000
0100
0010
0001
,  // measure 18
1001
0010
1100
0010
0101
1000
0000
0101
0000
1010
0000
1001
0010
1100
0000
1010
,  // measure 19
0100
0010
0001
1000
0110
0000
0011
0100
0000
0100
0011
0000
2001
0010
3100
0001
,  // measure 20
1010
0100
0010
0000
1001
0000
1001
0100
0000
0010
1100
0000
0101
1010
0101
1010
,  // measure 21
0011
0100
0010
0100
0011
0100
0010
0100
0010
0100
0010
0100
0011
0100
0010
0100
,  // measure 22
1010
0001
0010
0001
1010
0001
0010
0001
0010
1001
0010
0001
1010
0001
0010
0100
,  // measure 23
1001
0100
1000
0100
1001
0100
1000
0100
1000
0101
1000
0100
1001
0100
1000
0100
,  // measure 24
2100
0100
0100
0100
3210
0010
0010
0010
0321
0001
0001
0001
1032
1000
1000
1000
,  // measure 25
1103
0000
1001
0000
1100
0010
0000
1000
0110
0000
0110
0001
0000
1000
0110
0000
,  // measure 26
1001
0010
0100
1000
1001
0010
0100
1000
1001
0100
0010
0001
1001
0100
0010
0001
,  // measure 27
1100
0000
1001
0000
1100
0010
0000
1000
0110
0000
0110
0001
0000
1000
0110
0000
,  // measure 28
1001
0010
0100
1000
1001
0010
0100
1000
1001
0100
0010
0001
1001
0100
0010
0001
,  // measure 29
1000
0100
0110
0001
1100
0110
0010
1001
0011
0010
1100
1001
0001
1010
0110
1000
,  // measure 30
1001
0010
0100
1000
1001
0010
0100
1000
1001
0100
0010
0001
1001
0100
0010
0001
,  // measure 31
1000
0100
0110
0001
1100
0110
0010
1001
0011
0010
1100
1001
0001
1010
0110
1000
,  // measure 32
1001
0010
0100
1000
1001
0010
0100
1000
1001
0100
0010
0001
1001
0100
0010
0001
,  // measure 33
1100
0010
0001
0000
1100
0010
0001
0000
1010
0100
0001
0000
1001
0100
0001
0000
,  // measure 34
0011
0100
1000
0000
0011
0100
1000
0000
0101
0010
1000
0000
1001
0010
1000
0000
,  // measure 35
1100
0010
0001
0000
1100
0010
0001
0000
1010
0100
0001
0000
1001
0100
0001
0000
,  // measure 36
0011
0100
1000
0000
0011
0100
1000
0000
0101
0010
1000
0000
1001
0010
1000
0000
,  // measure 37
1100
0010
0001
0000
1100
0011
0000
0011
1100
0000
1100
0011
0000
1001
0110
0000
,  // measure 38
1001
1001
1001
0000
1001
1001
0000
1001
0000
1001
1001
0000
1001
0000
1001
0000
,  // measure 39
1100
0010
0001
0000
0110
1001
0000
1100
0011
0000
1010
0101
0000
1010
0101
0000
,  // measure 40
2200
0000
0000
0000
0000
0000
0320
0000
0000
0000
0000
0000
0032
0000
0000
0000
0000
0203
0000
0000
0000
0000
0000
0000
0320
0000
0000
0000
0032
0000
0000
0000
,  // measure 41
3103
0010
1000
0000
0001
0000
1000
0000
0010
0001
0100
0000
0001
0000
0100
0000
0010
0100
1000
0000
0010
0000
0001
0000
0100
0010
0001
0000
1000
0000
0001
0000
,  // measure 42
2100
0010
0100
0001
3020
0001
0100
0001
1030
0100
0011
0000
0000
0000
0200
0000
,  // measure 43
0000
0320
0000
0031
0000
1100
1010
1001
,  // measure 44
0100
1000
0010
0002
0000
0103
1000
0010
0002
0000
0000
0103
0010
0001
0010
0100
,  // measure 45
0010
1000
0100
0010
1000
0010
0100
0010
0001
0010
0100
0010
1000
0100
0010
0001
,  // measure 46
2100
0010
0100
0001
3020
0001
0100
0001
1030
0100
0011
0000
0000
0000
0200
0000
,  // measure 47
0000
0320
0000
0031
0000
1100
1010
1001
,  // measure 48
1100
0000
0110
0000
0011
0000
1100
0010
0000
0010
1000
0100
0010
0001
0010
0100
,  // measure 49
1000
0100
0010
0000
0001
0000
1000
0000
0100
0010
0001
0000
1000
0000
0100
0000
0010
0001
1000
0000
0100
0000
0010
0000
0001
1000
0100
0000
0010
0000
0001
0000
,  // measure 50
1000
0100
0010
0100
0001
0010
0001
0100
0010
1000
0100
0010
0100
0010
0001
1000
,  // measure 51
0100
0010
1000
0100
0001
0010
0001
0100
1000
0010
1000
0100
0001
0010
1000
0100
,  // measure 52
0010
0001
1000
0100
0010
0100
0001
1000
0100
0010
1000
0100
0001
0010
0001
0100
,  // measure 53
0010
1000
0100
0001
0010
0100
0001
0100
1000
0010
0100
1000
0001
0100
0010
1000
,  // measure 54
0100
0001
1000
0010
0100
0001
1000
0100
0010
0001
1000
0100
0001
0010
1000
0100
,  // measure 55
0010
0001
1000
0100
0010
0001
0100
0001
1000
0100
0010
1000
0001
0100
0010
0001
,  // measure 56
1000
0010
0100
0001
1000
0100
0010
1000
0001
0100
0010
1000
0010
0001
0100
0010
,  // measure 57
1100
0011
1100
0011
1100
0011
1100
0011
1001
0110
1001
0110
1001
0110
1001
0110
,  // measure 58
1000
0100
0010
0100
0001
0010
0001
0100
0010
1000
0100
0010
0100
0010
0001
1000
,  // measure 59
0100
0010
1000
0100
0001
0010
0001
0100
1000
0010
1000
0100
0001
0010
1000
0100
,  // measure 60
0010
0001
1000
0100
0010
0100
0001
1000
0100
0010
1000
0100
0001
0010
0001
0100
,  // measure 61
0010
1000
0100
0001
0010
0100
0001
0100
1000
0010
0100
1000
0001
0100
0010
1000
,  // measure 62
0100
0001
1000
0010
0100
0001
1000
0100
0010
0001
1000
0100
0001
0010
1000
0100
,  // measure 63
0010
0001
1000
0100
0010
0001
0100
0001
1000
0100
0010
1000
0001
0100
0010
0001
,  // measure 64
1000
0010
0100
0001
1000
0100
0010
1000
0001
0100
0010
1000
0010
0001
0100
0010
,  // measure 65
1100
0011
1100
0011
1100
0011
1100
0011
1001
0110
1001
0110
1001
0110
1001
0110
,  // measure 66
1000
0100
0010
0001
1000
0100
0010
0001
1000
0100
0010
0001
1000
0100
0010
0001
,  // measure 67
1000
0100
0010
0001
1000
0100
0010
0001
1000
0100
0010
0001
1000
0100
0010
0001
,  // measure 68
1000
0100
0010
0001
1000
0100
0010
0001
1000
0100
0010
0001
1000
0100
0010
2002
,  // measure 69
0000
0000
0000
0000
0000
0000
0000
0000
0000
0000
0000
0000
0000
0000
0000
3003
,  // measure 70
2001
0010
0001
0010
0020
0032
3000
0023
,  // measure 71
0000
0230
0000
2300
0000
0100
0010
3001
,  // measure 72
1100
0010
0001
0010
1100
0010
0001
0010
1001
0100
0010
0100
1002
0000
0203
0000
,  // measure 73
0000
0000
0310
0000
0000
0000
0002
0000
0013
0100
0000
0100
0020
0000
0031
0000
,  // measure 74
1100
0010
1100
0001
1100
0010
1100
0001
1100
0010
0001
0000
0000
0000
2001
0000
,  // measure 75
0000
0010
0000
0100
0000
0100
0010
3001
,  // measure 76
0110
0000
1001
0000
0110
1001
0000
1001
0000
0000
1000
0100
0010
0000
1001
0000
,  // measure 77
1001
0000
0000
0101
0000
0000
0110
0000
0000
1001
0000
0000
1100
0000
1001
0000
,  // measure 78
2000
0000
0200
0000
0000
0000
0020
0000
0002
0000
0000
0000
0000
0000
0000
0000
0000
0000
0000
0000
0000
0000
0000
0000
0000
0000
0000
0000
0000
0000
0000
0000
0000
0000
0000
0000
0000
0000
0000
0000
0000
0000
0000
0000
0000
0000
0000
0000
0000
0000
0000
0000
0000
0000
0000
0000
0000
0000
0000
0000
0000
0000
0000
0000
0000
0000
0000
0000
0000
0000
0000
0000
0000
0000
0000
0000
0000
0000
0000
0000
0000
0000
0000
0000
0000
0000
0000
0000
0000
0000
0000
0000
0000
0000
0000
0000
0000
0000
0000
0000
0000
0000
0000
0000
0000
0000
0000
0000
0000
0000
0000
0000
0000
0000
0000
0000
0000
0000
0000
0000
0000
0000
0000
0000
0000
0000
0000
0000
0000
0000
0000
0000
0000
0000
0000
0000
0000
0000
0000
0000
0000
0000
0000
0000
0000
0000
0000
0000
0000
0000
0000
0000
0000
0000
0000
0000
0000
0000
0000
0000
0000
0000
0000
0000
0000
0000
0000
0000
0000
0000
0000
0000
0000
0000
0000
0000
0000
0000
0000
0000
0000
0000
0000
0000
0000
0000
0000
0000
0000
0000
0000
0000
,  // measure 79
0000
0000
0000
0000
,  // measure 80
3333
0000
0000
0000
;

//---------------dance-single - ----------------
#NOTES:
     dance-single:
     :
     Medium:
     11:
     0.824,0.885,0.139,0.417,0.958,674.000,18.000,54.000,0.000,6.000:  // measure 1
2000
0000
0000
0000
,  // measure 2
3200
0000
0320
0000
,  // measure 3
2030
0000
3020
0000
,  // measure 4
0000
0000
0000
0000
,  // measure 5
2030
0000
3001
0010
0002
0000
0013
0000
,  // measure 6
1000
0001
1000
0000
0010
0000
0100
0000
0002
0000
0000
0000
0103
0000
0000
0000
,  // measure 7
0200
0000
0310
0100
2000
0000
3100
0000
,  // measure 8
0200
0000
0000
0000
0302
0000
0000
0000
0203
0000
0000
0000
1300
0100
1000
0100
,  // measure 9
0020
0000
1030
0000
1000
0200
0000
0310
,  // measure 10
0000
2000
0000
3010
0000
1000
0100
0010
,  // measure 11
0001
1000
0001
1000
0001
0000
0010
0100
0010
0100
0010
0100
0010
0000
0002
0000
,  // measure 12
0000
0000
0013
0000
0000
0000
0200
0000
0310
0100
0000
0100
0010
0000
0001
0000
,  // measure 13
2000
0000
0000
0000
3001
0000
0000
0000
1000
0100
0010
0000
0000
0000
0002
0000
,  // measure 14
0000
0010
0000
0013
0000
0100
0010
0001
,  // measure 15
1000
0000
0010
0000
1000
0100
0000
0100
0000
0000
0001
0010
0100
0000
1000
0000
,  // measure 16
2000
0000
0000
0200
0000
0000
0020
0000
0002
0000
0000
0000
0000
0000
3333
0000
,  // measure 17
0010
0100
1000
0000
0001
0000
1000
0010
0000
0100
0001
0000
1000
0100
0010
0001
,  // measure 18
1000
0010
1000
0000
0100
1000
0000
0100
0000
1000
0100
0000
0010
1000
0100
1000
,  // measure 19
0100
0010
0001
0000
0010
0000
0001
0100
0000
0100
0001
0000
0001
0010
0100
0001
,  // measure 20
1000
0100
0010
0000
1000
0000
0001
0100
0000
0010
1000
0000
0100
0010
0100
0010
,  // measure 21
0001
0100
1000
0000
0001
0000
1000
0010
0000
0100
0001
0000
1000
0100
0010
0001
,  // measure 22
1000
0010
1000
0000
0100
1000
0000
0100
0000
1000
0100
0000
0010
1000
0100
1000
,  // measure 23
0100
0010
0001
0000
0010
0000
0001
0100
0000
0100
0001
0000
0001
0010
0100
0001
,  // measure 24
2000
0000
0000
0000
0200
0000
0000
0000
0020
0000
0000
0000
0002
0000
0000
3333
,  // measure 25
1000
0000
0001
0000
1000
0100
0000
0010
0001
0000
0010
0100
0000
1000
0100
0000
,  // measure 26
1000
0100
1000
0100
1000
0010
1000
0000
0001
0010
0001
0010
0001
0100
0001
0000
,  // measure 27
1000
0000
0001
0000
1000
0100
0000
0010
0001
0000
0010
0100
0000
1000
0100
0000
,  // measure 28
1000
0100
1000
0100
1000
0010
1000
0000
0001
0010
0001
0010
0001
0100
0001
0000
,  // measure 29
1000
0000
0001
0000
1000
0100
0000
0010
0001
0000
0010
0100
0000
1000
0100
0000
,  // measure 30
1000
0100
1000
0100
1000
0010
1000
0000
0001
0010
0001
0010
0001
0100
0001
0000
,  // measure 31
1000
0000
0010
0000
0100
0001
0000
1000
0100
0000
0010
0001
0000
0100
1000
0000
,  // measure 32
1000
0100
1000
0100
1000
0100
0010
0001
,  // measure 33
1000
0100
0010
0000
0001
0010
0100
0000
1000
0100
0010
0000
0001
0010
0100
0000
,  // measure 34
1000
0100
0010
0000
0001
0010
0100
0000
1000
0100
0010
0000
0001
0010
0100
0000
,  // measure 35
1000
0100
0010
0000
0001
0010
0100
0000
1000
0100
0010
0000
0001
0010
0100
0000
,  // measure 36
1000
0100
0010
0000
0001
0010
0100
0000
1000
0100
0010
0000
0001
0010
0100
0000
,  // measure 37
1000
0000
0001
0000
0010
0100
0000
1000
0100
0000
0001
0100
0000
0100
0010
0000
,  // measure 38
0010
0010
0010
0000
0010
0010
0000
0010
0000
0010
0010
0000
0010
0010
0010
0010
,  // measure 39
1000
0000
0001
0000
0100
0010
0000
1000
0100
0000
0010
0001
0000
0100
1000
0000
,  // measure 40
0101
0000
0000
1001
0000
0000
1001
0000
0000
0110
0000
0000
0011
0000
1001
0000
,  // measure 41
2002
0000
0000
0000
0000
0000
0000
3003
,  // measure 42
2000
0000
3010
0000
1000
0200
0000
0310
,  // measure 43
0000
0102
0000
1003
0000
0001
0010
0100
,  // measure 44
1000
0100
1000
0020
0000
0030
1000
0100
1000
0002
0000
0003
1000
0100
1000
0020
,  // measure 45
0000
0030
1000
0100
1000
0010
0001
0010
0100
1000
0100
0010
0001
0100
1000
0010
,  // measure 46
2000
0000
3010
0000
1000
0200
0000
0310
,  // measure 47
0000
0102
0000
1003
0000
0001
0010
0100
,  // measure 48
1000
0000
0100
0000
0010
0000
0001
0010
0000
0100
1000
0010
0001
0000
1000
0000
,  // measure 49
1000
0100
0010
0001
1000
0100
0010
0001
0001
0010
0100
1000
0001
0010
0100
1000
,  // measure 50
1000
0100
0000
0100
1000
0100
0000
0100
1000
0100
0000
0100
0010
0001
0000
0001
,  // measure 51
0010
0100
0000
1000
0100
0010
0000
0001
0010
0001
0000
0001
0010
0001
0000
0100
,  // measure 52
0010
0100
0000
0100
0010
0100
0000
0100
1000
0100
0000
1000
0100
1000
0000
0100
,  // measure 53
0001
0010
0000
0100
1000
0100
0000
0010
0001
1000
0100
0001
0010
0001
0100
1000
,  // measure 54
0100
0000
0001
0010
0100
0000
1000
0100
0010
0000
0001
0010
0100
0000
1000
0100
,  // measure 55
0010
0000
0010
0100
0010
0000
1000
0010
1000
0000
0100
0001
0100
0000
0010
0100
,  // measure 56
0010
0000
1000
0010
0001
0000
0100
0010
1000
0000
0100
0001
0010
0000
0100
1000
,  // measure 57
0010
0000
1000
0010
0100
0001
0010
0100
0010
1000
0100
0001
0010
0100
1000
0100
,  // measure 58
0010
0100
0000
1000
0100
0010
0000
0001
0100
0010
0000
1000
0100
0001
0000
0010
,  // measure 59
0100
0001
0000
1000
0010
0100
0000
0001
1000
0100
0000
0001
0010
1000
0000
0100
,  // measure 60
0010
0001
0000
0100
0010
1000
0000
0010
0100
0001
0000
1000
0100
0010
0000
0001
,  // measure 61
1000
0100
0000
0001
0010
1000
0000
0100
0001
0010
0100
1000
0010
0001
0010
0001
,  // measure 62
0100
0000
0100
1000
0100
0000
0010
0000
0100
0000
1000
0100
1000
0000
0001
0000
,  // measure 63
0100
0000
0010
1000
0100
0000
0010
0000
0001
0000
0100
0010
0001
0000
1000
0000
,  // measure 64
0100
0000
0001
0010
1000
0000
0100
0000
0010
0000
0001
0010
0100
0000
1000
0000
,  // measure 65
1001
1001
1001
1001
1001
0101
0101
1010
,  // measure 66
2001
0000
0000
0000
,  // measure 67
0000
0000
0000
0000
0000
0000
0000
0000
0000
0000
0000
0000
0000
0000
0000
3100
0020
0000
0000
0000
0000
0000
0000
0000
0000
0000
0000
0000
0000
0000
0000
0000
,  // measure 68
0032
0000
0000
0000
,  // measure 69
2000
0000
0000
0000
0000
0000
0000
3003
,  // measure 70
0020
0000
1030
0000
1000
0200
0000
0310
,  // measure 71
0000
2000
0000
3010
0000
1000
0100
0010
,  // measure 72
0001
1000
0001
1000
0001
0000
0010
0100
0010
0100
0010
0100
0010
0000
0002
0000
,  // measure 73
0000
0000
0013
0000
0000
0000
0200
0000
0310
0100
0000
0100
0010
0000
0001
0000
,  // measure 74
2000
0000
0000
0000
3001
0000
0000
0000
1000
0100
0010
0000
0000
0000
0002
0000
,  // measure 75
0000
0010
0000
0013
0000
0100
0010
0001
,  // measure 76
1000
0000
0010
0000
1000
0100
0000
0100
0000
0000
0001
0010
0100
0000
1000
0000
,  // measure 77
1000
0000
0000
0100
0000
0000
0010
0000
0000
0100
0000
0000
0010
0000
0001
0000
,  // measure 78
2000
0000
0000
0200
0020
0000
0002
0000
0000
0000
0000
0000
0000
0000
0000
0000
0000
0000
0000
0000
0000
0000
0000
0000
0000
0000
0000
0000
0000
0000
0000
0000
0000
0000
0000
0000
0000
0000
0000
0000
0000
0000
0000
0000
0000
0000
0000
0000
0000
0000
0000
0000
0000
0000
0000
0000
0000
0000
0000
0000
0000
0000
0000
0000
0000
0000
0000
0000
0000
0000
0000
0000
0000
0000
0000
0000
0000
0000
0000
0000
0000
0000
0000
0000
0000
0000
0000
0000
0000
0000
0000
0000
0000
0000
0000
0000
0000
0000
0000
0000
0000
0000
0000
0000
0000
0000
0000
0000
0000
0000
0000
0000
0000
0000
0000
0000
0000
0000
0000
0000
0000
0000
0000
0000
0000
0000
0000
0000
0000
0000
0000
0000
0000
0000
0000
0000
0000
0000
0000
0000
0000
0000
0000
0000
0000
0000
0000
0000
0000
0000
0000
0000
0000
0000
0000
0000
0000
0000
0000
0000
0000
0000
0000
0000
0000
0000
0000
0000
0000
0000
0000
0000
0000
0000
0000
0000
0000
0000
0000
0000
0000
0000
0000
0000
0000
0000
0000
0000
0000
0000
0000
0000
,  // measure 79
0000
0000
0000
0000
,  // measure 80
3333
0000
0000
0000
;

//---------------dance-single - ----------------
#NOTES:
     dance-single:
     :
     Easy:
     7:
     0.554,0.763,0.062,0.703,0.178,403.000,8.000,91.000,0.000,0.000:  // measure 1
0000
0000
0000
0000
,  // measure 2
0000
0000
0000
0000
,  // measure 3
0000
0000
0000
0000
,  // measure 4
0000
0000
0000
0000
,  // measure 5
2000
3001
0002
0013
,  // measure 6
2000
3010
0002
0103
,  // measure 7
0200
0310
2000
3100
,  // measure 8
0002
0023
0230
2300
,  // measure 9
3020
0000
1030
0000
1000
0100
0000
0010
,  // measure 10
0000
0001
0000
0010
0000
1000
0100
0010
,  // measure 11
0001
0100
0001
0010
0100
0010
0100
0002
,  // measure 12
0000
0013
0000
0200
0320
0000
0000
0031
,  // measure 13
2000
0000
3001
0000
2000
3010
0000
0002
,  // measure 14
0000
0010
0000
0013
0000
0100
0010
0001
,  // measure 15
1000
0000
0010
0000
1000
0100
0000
0100
0000
0000
0001
0000
0100
0000
1000
0000
,  // measure 16
0001
0000
0000
0010
0000
0000
0100
0000
2000
0000
0000
0000
3000
0000
0000
0000
,  // measure 17
0001
0010
1000
0100
0010
0001
0010
0000
,  // measure 18
1000
0100
0001
0010
0100
1000
0010
0000
,  // measure 19
0001
0010
0001
0100
0010
1000
0100
0000
,  // measure 20
0001
1000
0100
0010
1000
0001
0100
0000
,  // measure 21
0001
0010
1000
0100
0010
0001
0010
0100
,  // measure 22
1000
0100
0001
0010
0100
1000
0010
0100
,  // measure 23
0001
0010
0001
0100
0010
1000
0100
0010
,  // measure 24
0002
0023
0230
2300
,  // measure 25
3100
0000
1000
0000
1000
0100
0000
0010
0001
0000
0010
0100
0000
1000
0100
0000
,  // measure 26
0220
0000
0000
0000
0000
0000
0000
0330
,  // measure 27
0100
0000
1000
0000
1000
0100
0000
0010
0001
0000
0010
0100
0000
1000
0100
0000
,  // measure 28
0120
0000
0000
0000
0100
0000
0000
0030
,  // measure 29
0100
0000
1000
0000
1000
0100
0000
0010
0001
0000
0010
0100
0000
1000
0100
0000
,  // measure 30
0220
0000
0000
0000
0000
0000
0000
0330
,  // measure 31
0100
0000
1000
0000
1000
0100
0000
0010
0001
0000
0010
0100
0000
1000
0100
0000
,  // measure 32
1000
0100
0010
0001
1000
0100
0010
0001
,  // measure 33
0020
0000
0000
0000
,  // measure 34
0000
0000
0000
0000
0000
0000
0031
0100
,  // measure 35
2000
0000
0000
0000
0000
0000
3100
0010
,  // measure 36
0002
0000
0000
0000
0000
0000
0000
0003
,  // measure 37
1000
0000
0001
0000
0010
0100
0000
1000
0100
0000
0001
0100
0000
0100
0010
0000
,  // measure 38
0020
0000
0000
0000
,  // measure 39
1030
0000
0001
0000
0010
0100
0000
1000
0100
0000
0001
0100
0000
0100
0010
0000
,  // measure 40
0001
0000
0000
0010
0000
0000
1000
0000
0000
0100
0000
0000
0001
0000
1000
0000
,  // measure 41
0012
0000
0010
0000
0010
0000
0010
0003
,  // measure 42
2000
0000
3010
0000
1000
0200
0000
0310
,  // measure 43
0000
0102
0000
1003
0000
1000
0100
0010
,  // measure 44
0020
0000
0000
0031
0000
0000
0002
0000
0000
0000
0103
0000
2000
0000
0000
0000
,  // measure 45
3100
0010
0001
0010
0100
1000
0100
0010
,  // measure 46
2000
0000
3010
0000
1000
0200
0000
0310
,  // measure 47
0000
0102
0000
1003
0000
1000
0100
0010
,  // measure 48
1000
0000
0100
0000
0010
0000
0001
0010
0000
0100
1000
0100
0010
0000
1000
0000
,  // measure 49
2000
3200
0320
0032
0023
0230
2300
3200
,  // measure 50
2300
3200
0320
0230
,  // measure 51
0302
0000
0023
0130
2000
0000
3000
0200
,  // measure 52
0310
0000
0010
0002
0010
0000
0103
0000
,  // measure 53
2000
0000
0000
0100
0200
0000
3300
0000
,  // measure 54
0002
0023
0230
1300
,  // measure 55
0200
0000
0000
0010
0020
0000
0330
0200
,  // measure 56
0310
0000
0010
0002
0010
0000
0103
0000
,  // measure 57
1000
0000
0100
0000
1000
0000
0100
0000
0010
0001
0000
0010
0100
0000
1000
0000
,  // measure 58
2000
3200
0320
0230
,  // measure 59
0302
0000
0023
0130
2000
0000
3000
0200
,  // measure 60
0310
0000
0010
0002
0010
0000
0103
0000
,  // measure 61
2000
0000
0000
0100
0200
0000
3300
0000
,  // measure 62
0100
0000
0100
1000
0100
0000
0010
0000
0100
0000
1000
0100
1000
0000
0001
0000
,  // measure 63
0100
0000
0010
1000
0100
0000
0010
0000
0001
0000
0100
0010
0001
0000
1000
0000
,  // measure 64
0100
0000
0001
0010
1000
0000
0100
0000
0010
0000
0001
0010
0100
0000
1000
0000
,  // measure 65
1000
1000
1000
1000
1000
1000
1000
1000
,  // measure 66
2001
0000
0000
0000
,  // measure 67
0000
0000
0000
0000
0000
0000
0000
0000
0000
0000
0000
0000
0000
0000
0000
3100
0020
0000
0000
0000
0000
0000
0000
0000
0000
0000
0000
0000
0000
0000
0000
0000
,  // measure 68
0032
0000
0000
0000
,  // measure 69
2000
0000
0000
0000
0000
0000
0000
3003
,  // measure 70
0020
0000
1030
0000
1000
0100
0000
0010
,  // measure 71
0000
0001
0000
0010
0000
1000
0100
0010
,  // measure 72
0001
0100
0001
0010
0100
0010
0100
0002
,  // measure 73
0000
0013
0000
0200
0320
0000
0000
0031
,  // measure 74
2000
0000
3001
0000
2000
3010
0000
0002
,  // measure 75
0000
0010
0000
0013
0000
0100
0010
0001
,  // measure 76
1000
0000
0010
0000
1000
0100
0000
0100
0000
0000
0001
0000
0100
0000
1000
0000
,  // measure 77
0001
0000
0000
0010
0000
0000
0100
0000
0000
1000
0000
0000
0100
0000
0010
0000
,  // measure 78
2002
0000
0000
0000
,  // measure 79
0000
0000
0000
0000
,  // measure 80
3003
0000
0000
0000
;
