#TITLE:The Everlasting Guilty Crown;
#SUBTITLE:Guilty Crown Op 2;
#ARTIST:Egoist;
#TITLETRANSLIT:;
#SUBTITLETRANSLIT:;
#ARTISTTRANSLIT:;
#CREDIT:;
#BANNER:bn.jpg;
#BACKGROUND:bg.jpg;
#LYRICSPATH:;
#CDTITLE:bombastik.png;
#MUSIC:The Everlasting Guilty Crown.mp3;
#OFFSET:0.720;
#SAMPLESTART:27.540;
#SAMPLELENGTH:12.000;
#SELECTABLE:YES;
#BPMS:0.000=172.040;
#STOPS:;
#BGCHANGES:;
// cache tags:
#FIRSTBEAT:4.000;
#LASTBEAT:264.000;
#SONGFILENAME:Songs/FUCK ANIME PACK/The Everlasting Guilty Crown/The Everlasting Guilty Crown.sm;
#HASMUSIC:1;
#HASBANNER:1;
#MUSICLENGTH:96.865;
// end cache tags

//---------------dance-single - Blank----------------
#NOTES:
     dance-single:
     Blank:
     Challenge:
     10:
     1.000,1.000,1.000,0.878,1.000,668.000,216.000,85.000,0.000,56.000:

0000
0000
0000
0000
,
0101
0000
0010
0000
1100
0000
0001
0010
1100
0000
1000
0000
0110
0000
1000
0010
,
1001
0100
0011
1000
0101
0110
0000
0000
,
0110
0000
0001
0000
1100
0000
0010
1000
0011
0000
0100
0000
1100
0000
0001
0100
,
1010
0100
1010
0101
1100
0011
0000
0000
,
1110
0001
0110
1000
1100
0010
0011
0200
,
1011
0000
1000
0000
0011
0300
0100
0000
1010
0000
0001
0000
1100
0000
0010
0000
,
1101
0010
0101
0010
1100
0001
1010
0100
,
1011
0100
1001
0010
1010
0001
1100
0002
,
1110
0000
0100
0000
1010
0000
1000
0100
0010
0000
1000
0000
1100
0000
0010
0100
,
1000
0000
0100
0000
1010
0000
1000
0100
0010
0000
1000
0000
1100
0000
0013
0100
,
1000
0000
0000
0110
0000
0000
1001
0000
1100
0000
0000
0011
0000
0000
1100
0000
,
0101
0000
0000
0110
0000
0000
1001
0000
0220
0330
0000
0000
1001
0000
0000
0000
,
0111
0100
0011
1000
0011
0100
0011
2000
,
0110
0000
0101
0000
0011
3000
0110
0000
2220
3330
0000
0000
1001
0000
0110
0000
,
1001
0000
0100
0000
1010
0000
0001
0010
1100
0000
0010
0000
1100
0000
0001
0000
,
1101
0010
0101
1000
0110
1000
1010
0102
,
1110
1100
0110
1010
0000
1100
0000
0110
,
1100
0000
0100
0000
1010
0000
0000
0003
2002
3003
0022
0033
2100
0000
0010
0000
,
0102
0010
0110
0100
3113
0000
1010
0001
,
1000
0100
0000
1000
0000
0001
0000
0100
,
1011
0100
1000
0001
1010
0100
1000
0010
0101
1000
0001
0010
0101
1000
0010
0100
,
0011
1000
0010
0100
1010
0001
0100
0010
1100
0001
0100
1000
0101
0010
1000
0100
,
0011
1000
0001
0010
1100
0001
1000
0100
1001
0010
0100
0001
1010
0100
0010
1000
,
0011
0100
0001
0010
1100
0001
0010
1000
0110
0001
1000
0100
0011
0100
1000
0010
,
1101
0010
0100
0001
1100
0010
1000
0100
0011
1000
0010
0100
1001
0010
0001
0100
,
0011
1000
0100
0001
1100
0010
0001
0100
0011
0100
1000
0010
0101
1000
0010
0100
,
1010
0001
0100
0010
1100
0001
0100
1000
0110
0001
0100
0010
1100
0010
1000
0100
,
0011
0100
1000
0010
1001
0100
0010
1000
0011
0100
0001
0010
1100
0001
0010
1000
,
0011
0100
0010
1000
0101
0010
1000
0100
1010
0100
0010
0001
1100
0010
1000
0100
,
0011
1000
0010
0001
1100
0010
1000
0100
1010
0001
0010
1000
0101
0010
1000
0100
,
1001
0010
0001
0100
1010
0001
1000
0100
0011
0100
1000
0010
1100
0001
0010
1000
,
0011
0100
1000
0010
1100
0001
0100
0010
0101
1000
0010
0100
1001
0010
0100
0001
,
2100
0010
0001
0100
0001
0010
0100
0010
0001
0100
0001
0010
0001
0100
0010
0100
,
0001
0010
0100
0010
0100
0001
0100
0010
0001
0100
3001
0100
0011
0100
1000
0010
,
2100
0001
0010
0100
0001
0010
0001
0100
0010
0100
0001
0010
3100
0000
0001
0000
,
2200
0000
0000
0000
0000
0000
0000
3300
0022
0000
0000
0000
0000
0000
0000
0033
,
1111
0000
0010
0001
1100
0000
0010
0000
1110
0000
0001
0010
1100
0000
0010
0000
,
0111
1100
0110
2002
3003
0000
0000
1000
,
0111
0000
1000
0100
1001
0000
0010
0000
1101
0000
0100
1000
0022
0000
0133
0000
,
1110
0110
0011
2200
3300
0010
0002
0103
,
2100
0001
3010
0001
0120
1000
0131
1000
,
0012
0000
0100
0000
1013
0000
0110
0001
2100
0000
3001
0000
0110
0000
0100
0000
,
0011
0011
0110
2200
3300
0011
0011
0110
,
2110
0001
3110
0022
0033
0000
2200
3301
,
1110
0001
0100
0010
1100
0010
1000
0100
0011
0100
1000
0010
1100
0001
0010
1000
,
0011
0011
0110
2002
3003
0000
0011
0100
,
1100
0010
0100
0001
0110
1000
0010
0100
0011
1000
0010
0100
2002
0000
0100
3003
,
1100
1100
0110
2002
3003
1100
0110
1100
,
0012
0000
0000
0000
0100
0000
1000
0000
0010
0000
0000
0000
0100
0000
0000
0000
2200
3300
0000
0000
0010
0000
0000
0000
1100
0000
0000
0000
0010
0000
0000
0000
,
2020
3030
0000
0000
0100
0000
1000
0000
0010
0000
0000
0000
0100
0000
0000
0000
2200
3300
0000
0000
1000
0000
0000
0000
0110
0000
0000
0000
1000
0000
0000
0000
,
2010
0000
0103
0000
0101
0000
0010
0000
0011
0000
0100
0000
0011
0000
0010
3000
,
2002
0000
3003
1000
0110
1000
0011
1000
,
0112
0000
1000
0000
0100
0000
1000
0000
0010
0000
0100
0000
0010
0000
1000
0000
0200
0300
1000
0000
0010
0000
0100
0000
0010
0000
1000
0000
0100
0000
0010
0000
,
2000
3000
0100
0000
1000
0000
0010
0000
0100
0000
1000
0000
0100
0000
1000
0000
0200
0300
1000
0000
0010
0000
0100
0000
0010
0000
1000
0000
0100
0000
0010
0000
,
2000
3000
0100
0000
1000
0000
0010
0000
0100
0000
1000
0000
0010
0000
0100
0000
2003
3000
0001
0000
0100
0000
0010
0000
1000
0000
0010
0000
0100
0000
0010
0000
,
2002
3003
0010
0000
0100
0000
1000
0000
0010
0000
0100
0000
0010
0000
0001
0000
2200
3300
0010
0000
0100
0000
0010
0000
0100
0000
1000
0000
0010
0000
0100
0000
,
0022
0033
1000
0000
0100
0000
0010
0000
1000
0000
0100
0000
1000
0000
0100
0000
2002
3003
0010
0000
0100
0000
0010
0000
0001
0000
0010
0000
0100
0000
0010
0000
,
2200
3300
0001
0000
0010
0000
0100
0000
1000
0000
0100
0000
0010
0000
1000
0000
0220
0330
0001
0000
0010
0000
0100
0000
0010
0000
0100
0000
0001
0000
0010
0000
,
2200
3300
0010
0000
0100
0000
0010
0000
0001
0000
0010
0000
0100
0000
1000
0000
0022
0033
0100
0000
0010
0000
0100
0000
1000
0000
0001
0000
0010
0000
0100
0000
,
2002
3003
0010
0000
0100
0000
1000
0000
0100
0000
0010
0000
1000
0000
0100
0000
0022
0033
0100
0000
0010
0000
0100
0000
1000
0000
0001
0000
0010
0000
0100
0000
,
2020
3030
0001
0000
0000
0000
0000
0000
1000
0000
0000
0000
0000
0000
0001
0000
0000
0000
0000
0000
0000
0100
0000
0000
0000
0000
0000
0000
0001
0000
0000
0000
,
0000
0100
0000
1000
0000
0002
0000
0000
,
0000
0000
0000
0003
0100
0000
0002
0000
0000
0000
0000
0000
0000
0000
0000
0000
0000
0000
0000
0000
0000
0000
0000
0000
0000
0000
0000
0000
0000
0000
0000
0000
,
0000
0000
0000
0000
,
0000
0000
0000
0000
,
0003
0000
0000
0000
;
