#TITLE:Roadrunner Death Race;
#SUBTITLE:;
#ARTIST:Annoying Ringtone;
#TITLETRANSLIT:;
#SUBTITLETRANSLIT:;
#ARTISTTRANSLIT:;
#CREDIT:;
#BANNER:../fthescorept1bn.png;
#BACKGROUND:../fthescorept1bg.png;
#LYRICSPATH:;
#CDTITLE:;
#MUSIC:Roadrunner Death Race.ogg;
#OFFSET:-0.081;
#SAMPLESTART:4.900;
#SAMPLELENGTH:12.710;
#SELECTABLE:YES;
#BPMS:0.000=300.000;
#STOPS:;
#BGCHANGES:;
// cache tags:
#FIRSTBEAT:0.000;
#LASTBEAT:215.000;
#SONGFILENAME:Songs/Fuck The Score Part I/Roadrunner Death Race [Dossar]/Roadrunner Death Race.sm;
#HASMUSIC:1;
#HASBANNER:1;
#MUSICLENGTH:44.773;
// end cache tags

//---------------dance-single - ----------------
#NOTES:
     dance-single:
     :
     Challenge:
     25:
     1.000,1.000,0.000,0.983,1.000,628.000,0.000,44.000,0.000,0.000:
1000
0010
1000
0001
1000
0001
0100
0010
0100
0001
1000
0010
0100
0001
0100
0010
,
2000
3000
0000
0000
,
0001
0100
0001
1000
0001
1000
0010
0100
0001
1000
0010
1000
0001
0100
0010
1000
,
0002
0003
0000
0000
,
1000
0010
0100
0001
1000
0100
1000
0001
,
0100
0010
0100
0000
0001
0000
1000
0100
1000
0000
0001
0100
0001
0000
1000
0000
,
0001
1000
0100
0010
0001
1000
0100
1000
0001
0010
0100
1000
0001
0010
0100
0010
,
0001
1000
0100
0010
0001
1000
0100
1000
0001
0010
0100
1000
0001
0010
0100
0010
,
0001
1000
0010
0100
0001
1000
0001
0100
0010
1000
0001
0100
0001
1000
0010
1000
,
0002
0003
0002
0003
2000
3000
2000
3000
,
0001
0100
0010
1000
0001
0100
0001
1000
0010
1000
0001
0100
0010
1000
0001
0100
,
0001
1000
0010
1000
0001
0100
0001
1000
0010
0100
0001
1000
0001
0100
0010
1000
,
0001
1000
0100
0010
0001
1000
0100
1000
0001
0010
0100
1000
0001
0010
0100
0010
,
0002
0003
0002
0003
2000
3000
2000
3001
,
1000
0100
0010
0001
1000
0100
1000
0001
0010
0100
1000
0001
0010
0001
1000
0100
,
1000
0001
0100
0001
1000
0010
1000
0001
0100
0010
1000
0001
0100
0010
0100
0001
,
1000
0010
0100
0001
1000
0001
0100
0010
1000
0001
1000
0010
0100
0001
0100
0010
,
2000
3000
2000
3000
0002
0003
0002
0003
,
1000
0010
0100
0001
1000
0010
1000
0001
0100
0001
1000
0010
0100
0001
1000
0010
,
1000
0001
0100
0001
1000
0010
1000
0001
0100
0010
1000
0001
1000
0010
0100
0001
,
2000
3000
0200
0300
0020
0030
0002
0003
,
1000
0100
0010
0001
1000
0100
0010
0001
,
1000
0010
0100
0001
1000
0010
1000
0001
0100
0001
1000
0010
0100
0001
1000
0010
,
1000
0001
0100
0001
1000
0010
1000
0001
0100
0010
1000
0001
1000
0010
0100
0001
,
1000
0001
0010
0100
1000
0001
0010
0001
1000
0100
0010
0001
1000
0100
0010
0100
,
2000
0000
3000
0000
2000
0000
3000
0000
0001
0010
0100
1000
0001
1000
0001
1000
,
0001
0010
0100
1000
0001
0010
0001
1000
0100
0010
0001
1000
0100
1000
0001
0010
,
0001
1000
0010
1000
0001
0100
0001
1000
0010
0100
0001
1000
0010
0100
0010
1000
,
0001
0100
0010
1000
0001
1000
0010
0100
0001
1000
0001
0100
0010
1000
0010
0100
,
0002
0003
0002
0003
0002
0003
0000
0000
,
0001
0100
0010
1000
0001
0100
0001
1000
0010
1000
0001
0100
0010
1000
0001
0100
,
0001
1000
0010
1000
0001
0100
0001
1000
0010
0100
0001
1000
0001
0100
0010
1000
,
0001
1000
0100
0010
0001
1000
0100
1000
0001
0010
0100
1000
0001
0010
0100
0010
,
0002
0003
0002
0003
2000
3000
2000
3000
,
0001
0010
0100
1000
0001
0010
0001
1000
0100
0010
0001
1000
0100
1000
0001
0010
,
0001
1000
0010
1000
0001
0100
0001
1000
0010
0100
0001
1000
0010
0100
0010
1000
,
0001
0100
0010
1000
0001
1000
0010
0100
0001
1000
0001
0100
0010
1000
0010
0100
,
0002
0003
0000
0000
0000
0000
0000
0000
,
1000
0000
0010
0000
0100
0001
0100
0000
0010
0000
1000
0000
0001
0100
0001
0000
,
1000
0000
0100
0000
0010
0001
0010
0000
0100
0000
1000
0000
0100
0010
0100
0000
,
1000
0000
0001
0000
0100
0010
0100
0000
0001
0000
1000
0000
0010
0100
0010
0000
,
2000
3000
2000
3000
0002
0003
0002
0003
,
1000
0000
0100
0000
0010
0001
0010
0000
0100
0000
1000
0000
0100
0010
0100
0000
,
1000
0000
0001
0000
0100
0010
0100
0000
0001
0000
1000
0000
0010
0100
0010
0000
,
1000
0000
0001
0000
0010
0100
0010
0000
0001
0000
1000
0000
0100
0010
0100
0000
,
2000
3000
0002
0003
0200
0300
0000
0000
,
0001
0100
0010
1000
0001
0100
0001
1000
0010
1000
0001
0100
0010
1000
0001
0100
,
0001
1000
0010
1000
0001
0100
0001
1000
0010
0100
0001
1000
0001
0100
0010
1000
,
0001
1000
0100
0010
0001
1000
0100
1000
0001
0010
0100
1000
0001
0010
0100
0010
,
0002
0000
0003
0000
0002
0000
0003
0000
1000
0100
0010
0001
1000
0001
1000
0001
,
1000
0100
0010
0001
1000
0100
1000
0001
0010
0100
1000
0001
0010
0001
1000
0100
,
1000
0001
0100
0001
1000
0010
1000
0001
0100
0010
1000
0001
0100
0010
0100
0001
,
2000
3000
0020
0030
0200
0300
0002
0003
,
0020
0030
0200
0300
2000
0000
3000
0000
;

//---------------dance-single - ----------------
#NOTES:
     dance-single:
     :
     Easy:
     14:
     1.000,1.000,0.000,1.000,1.000,451.000,0.000,47.000,0.000,0.000:
1000
0010
0100
0001
1000
0000
0000
0000
0001
0100
0010
1000
0001
0000
0000
0000
,
2000
3000
0000
0000
,
1000
0100
0010
0001
1000
0000
0000
0000
0001
0010
0100
1000
0001
0000
0000
0000
,
2000
3000
0000
0000
,
1000
0010
0100
0001
1000
0100
1000
0001
,
0100
0010
0100
0000
0001
0000
1000
0100
1000
0000
0001
0100
0001
0000
1000
0000
,
0001
0010
0100
1000
0001
0000
0000
0000
1000
0100
0010
0001
1000
0000
0000
0000
,
0001
0010
0100
1000
0100
0000
0000
0000
0010
0001
1000
0100
1000
0000
0000
0000
,
0001
0100
0001
1000
0010
0000
0000
0000
1000
0010
1000
0001
0100
0000
0000
0000
,
0002
0003
0002
0003
2000
3000
2000
3000
,
0001
0100
0010
1000
0001
0000
0000
0000
1000
0010
0100
0001
1000
0000
0000
0000
,
0001
0100
0001
1000
0100
0000
0000
0000
1000
0010
1000
0001
0010
0000
0000
0000
,
0100
1000
0100
0010
0001
0000
0000
0000
1000
0100
0010
0001
0010
0000
0000
0000
,
0200
0300
0200
0300
0020
0030
0020
0030
,
0001
0010
0100
1000
0001
0000
0000
0000
1000
0100
0010
0001
1000
0000
0000
0000
,
0001
0100
0001
1000
0100
0000
0000
0000
1000
0010
1000
0001
0010
0000
0000
0000
,
0001
1000
0001
0100
0001
0000
0000
0000
1000
0001
1000
0010
1000
0000
0000
0000
,
0002
0003
0002
0003
2000
3000
2000
3000
,
0001
0010
0100
1000
0001
0000
0000
0000
1000
0100
0010
0001
1000
0000
0000
0000
,
0001
0010
0100
1000
0001
0000
0000
0000
1000
0100
0010
0001
1000
0000
0000
0000
,
0002
0003
0002
0003
2000
3000
2000
3000
,
0002
0103
0010
1000
0001
0100
0010
1000
,
0001
0100
0001
1000
0010
0000
0000
0000
1000
0010
1000
0001
0100
0000
0000
0000
,
0001
1000
0100
1000
0001
0000
0000
0000
1000
0001
0010
0001
1000
0000
0000
0000
,
0001
0010
0100
1000
0001
0000
0000
0000
1000
0100
0010
0001
1000
0000
0000
0000
,
0200
0000
0300
0000
0200
0000
0300
0000
1000
0100
0010
0001
2000
0000
0000
0000
,
3001
0100
0001
1000
0010
0000
0000
0000
1000
0010
1000
0001
0100
0000
0000
0000
,
0001
1000
0010
1000
0001
0000
0000
0000
1000
0001
0100
0001
1000
0000
0000
0000
,
0001
0010
0100
1000
0001
0000
0000
0000
1000
0100
0010
0001
1000
0000
0000
0000
,
0200
0300
0200
0300
0200
0300
0000
0000
,
1000
0010
0100
0001
1000
0000
0000
0000
0001
0100
0010
1000
0001
0000
0000
0000
,
1000
0001
1000
0100
1000
0000
0000
0000
0001
1000
0001
0100
0001
0000
0000
0000
,
1000
0100
0010
0001
0010
0000
0000
0000
0100
1000
0100
0010
0001
0000
0000
0000
,
0020
0030
0020
0030
0002
0003
0002
0003
,
1000
0010
1000
0001
0100
0000
0000
0000
0001
0100
0001
1000
0010
0000
0000
0000
,
1000
0010
0100
0001
1000
0000
0000
0000
0001
0100
0010
1000
0001
0000
0000
0000
,
1000
0100
0010
0001
1000
0000
0000
0000
0001
0010
0100
1000
0001
0000
0000
0000
,
2000
3000
0000
0000
0000
0000
0000
0000
,
0001
0000
0100
0000
0001
1000
0001
0000
0100
0000
0010
0000
1000
0001
1000
0000
,
0001
0000
0010
0000
0100
1000
0100
0000
0010
0000
0001
0000
1000
0100
1000
0000
,
0001
0000
0010
0000
0100
1000
0100
0000
0010
0000
0001
0000
1000
0100
1000
0000
,
0002
0003
0020
0030
0200
0300
2000
3000
,
0001
0000
0100
0000
0010
1000
0010
0000
0100
0000
0001
0000
1000
0100
1000
0000
,
0001
0000
0100
0000
0010
1000
0010
0000
0100
0000
0001
0000
1000
0100
1000
0000
,
0001
0000
0010
0000
0100
1000
0100
0000
0010
0000
0001
0000
1000
0100
1000
0000
,
0200
0300
0020
0030
0002
0003
0000
0000
,
1000
0010
1000
0001
0100
0000
0001
0000
1000
0100
1000
0001
0100
0000
0010
0000
,
1000
0001
0100
0001
1000
0000
0010
0000
0100
0001
0100
0010
1000
0000
0001
0000
,
1000
0100
0010
0001
0010
0000
0100
0000
0010
0001
0010
0100
1000
0000
0001
0000
,
2000
0000
3000
0000
2000
0000
3000
0000
0001
0010
0100
1000
0002
0000
0000
0000
,
1003
0010
1000
0001
0100
0000
0010
0000
0100
0001
0100
0010
1000
0000
0001
0000
,
1000
0100
1000
0001
0100
0000
0001
0000
1000
0010
0100
0001
0100
0000
0010
0000
,
2000
3000
0200
0300
0020
0030
0002
0003
,
2000
3000
0020
0030
0200
0000
0300
0000
;

//---------------dance-single - ----------------
#NOTES:
     dance-single:
     :
     Medium:
     19:
     1.000,1.000,0.000,1.000,1.000,561.000,0.000,47.000,0.000,0.000:
1000
0010
0100
0001
1000
0100
1000
0000
0001
0100
0010
1000
0001
0100
0001
0000
,
2000
3000
0000
0000
,
1000
0100
0010
0001
1000
0100
1000
0000
0001
0010
0100
1000
0001
0010
0001
0000
,
2000
3000
0000
0000
,
1000
0010
0100
0001
1000
0100
1000
0001
,
0100
0010
0100
0000
0001
0000
1000
0100
1000
0000
0001
0100
0001
0000
1000
0000
,
0001
0010
0100
1000
0001
0010
0001
0000
1000
0100
0010
0001
1000
0100
1000
0000
,
0001
0010
0100
1000
0100
0010
0001
0000
1000
0100
0010
0001
1000
0100
1000
0000
,
0001
0100
0001
1000
0010
0100
0001
0000
1000
0010
0100
0001
1000
0010
1000
0000
,
0002
0003
0002
0003
2000
3000
2000
3000
,
0001
0100
0010
1000
0001
0100
0001
0000
1000
0010
0100
0001
1000
0100
1000
0000
,
0001
0100
0001
1000
0010
0100
0001
0000
1000
0010
1000
0001
0100
0010
1000
0000
,
0001
0010
0100
1000
0001
0010
0001
0000
1000
0100
0010
0001
1000
0100
1000
0000
,
0200
0300
0200
0300
0020
0030
0020
0030
,
0001
0010
0100
1000
0001
0010
0001
0000
1000
0100
0010
0001
1000
0100
1000
0000
,
0001
0100
0001
1000
0010
1000
0001
0000
1000
0010
1000
0001
0100
0001
1000
0000
,
0001
0100
0010
1000
0001
1000
0001
0000
1000
0010
0100
0001
1000
0001
1000
0000
,
0002
0003
0002
0003
2000
3000
2000
3000
,
0001
0010
0100
1000
0001
0010
0001
0000
1000
0100
0010
0001
1000
0100
1000
0000
,
0001
0010
0100
1000
0001
0010
0001
0000
1000
0100
0010
0001
1000
0100
1000
0000
,
0002
0003
0002
0003
2000
3000
2000
3000
,
0002
0103
0010
1000
0001
0100
0010
1000
,
0001
0100
0001
0100
0010
1000
0001
0000
1000
0010
1000
0010
0100
0001
1000
0000
,
0001
0100
0001
1000
0010
0100
0001
0000
1000
0010
1000
0001
0100
0010
1000
0000
,
0001
0010
0100
1000
0001
0010
0001
0000
1000
0100
0010
0001
1000
0100
1000
0000
,
0200
0000
0300
0000
0200
0000
0300
0000
1000
0100
0010
0001
2000
0000
0000
0000
,
3001
0100
0001
0100
0010
1000
0001
0000
1000
0010
1000
0010
0100
0001
1000
0000
,
0001
0100
0001
1000
0010
0100
0001
0000
1000
0010
1000
0001
0100
0010
1000
0000
,
0001
0010
0100
1000
0001
0010
0001
0000
1000
0100
0010
0001
1000
0100
1000
0000
,
0200
0300
0200
0300
0200
0300
0000
0000
,
1000
0010
0100
0001
1000
0010
1000
0000
0001
0100
0010
1000
0001
0100
0001
0000
,
1000
0010
1000
0001
0100
0010
1000
0000
0001
0100
0001
1000
0010
0100
0001
0000
,
1000
0100
0010
0001
1000
0100
1000
0000
0001
0010
0100
1000
0001
0010
0001
0000
,
0020
0030
0020
0030
0002
0003
0002
0003
,
1000
0010
1000
0001
0100
0010
1000
0000
0001
0100
0001
1000
0010
0100
0001
0000
,
1000
0010
0100
0001
1000
0001
1000
0000
0001
0100
0010
1000
0001
1000
0001
0000
,
1000
0100
0010
0001
1000
0100
1000
0000
0001
0010
0100
1000
0001
0010
0001
0000
,
2000
3000
0000
0000
0000
0000
0000
0000
,
0001
0000
0100
0000
0001
1000
0001
0000
0100
0000
0010
0000
1000
0001
1000
0000
,
0001
0000
0010
0000
0100
1000
0100
0000
0010
0000
0001
0000
1000
0100
1000
0000
,
0001
0000
0010
0000
0100
1000
0100
0000
0010
0000
0001
0000
1000
0100
1000
0000
,
0002
0003
0020
0030
0200
0300
2000
3000
,
0001
0000
0100
0000
0010
1000
0010
0000
0100
0000
0001
0000
1000
0100
1000
0000
,
0001
0000
0100
0000
0010
1000
0010
0000
0100
0000
0001
0000
1000
0100
1000
0000
,
0001
0000
0010
0000
0100
1000
0100
0000
0010
0000
0001
0000
1000
0100
1000
0000
,
0200
0300
0020
0030
0002
0003
0000
0000
,
1000
0010
1000
0001
0100
0001
1000
0000
0001
0100
0001
1000
0010
1000
0001
0000
,
1000
0010
0100
0001
1000
0010
1000
0000
0001
0100
0010
1000
0001
0100
0001
0000
,
1000
0100
0010
0001
1000
0100
1000
0000
0001
0010
0100
1000
0001
0010
0001
0000
,
2000
0000
3000
0000
2000
0000
3000
0000
0001
0010
0100
1000
0002
0000
0000
0000
,
1003
0010
0100
0001
1000
0010
1000
0000
0001
0100
0010
1000
0001
0100
0001
0000
,
1000
0010
1000
0001
0100
0001
1000
0000
0001
0100
0001
1000
0010
1000
0001
0000
,
2000
3000
0200
0300
0020
0030
0002
0003
,
2000
3000
0020
0030
0200
0000
0300
0000
;

//---------------dance-single - ----------------
#NOTES:
     dance-single:
     :
     Hard:
     19:
     1.000,1.000,0.000,1.000,1.000,585.000,0.000,47.000,0.000,0.000:
1000
0010
0100
0001
1000
0100
1000
0000
0001
0100
0010
1000
0001
0100
0001
0000
,
2000
3000
0000
0000
,
1000
0100
0010
0001
1000
0100
1000
0000
0001
0010
0100
1000
0001
0010
0001
0000
,
2000
3000
0000
0000
,
1000
0010
0100
0001
1000
0100
1000
0001
,
0100
0010
0100
0000
0001
0000
1000
0100
1000
0000
0001
0100
0001
0000
1000
0000
,
0001
0010
0100
1000
0001
0010
0001
0000
1000
0100
0010
0001
1000
0100
1000
0000
,
0001
0010
0100
1000
0100
0010
0001
0000
1000
0100
0010
0001
1000
0100
1000
0000
,
0001
0100
0001
1000
0010
0100
0001
0000
1000
0010
0100
0001
1000
0010
1000
0000
,
0002
0003
0002
0003
2000
3000
2000
3000
,
0001
0100
0010
1000
0001
0100
0001
0000
1000
0010
0100
0001
1000
0100
1000
0000
,
0001
0100
0001
1000
0010
0100
0001
0000
1000
0010
1000
0001
0100
0010
1000
0000
,
0001
0010
0100
1000
0001
0010
0001
0000
1000
0100
0010
0001
1000
0100
1000
0000
,
0200
0300
0200
0300
0020
0030
0020
0030
,
0001
0010
0100
1000
0001
0010
0001
0000
1000
0100
0010
0001
1000
0100
1000
0000
,
0001
0100
0001
1000
0010
1000
0001
0000
1000
0010
1000
0001
0100
0001
1000
0000
,
0001
0100
0010
1000
0001
1000
0001
0000
1000
0010
0100
0001
1000
0001
1000
0000
,
0002
0003
0002
0003
2000
3000
2000
3000
,
0001
0010
0100
1000
0001
0010
0001
0000
1000
0100
0010
0001
1000
0100
1000
0000
,
0001
0010
0100
1000
0001
0010
0001
0000
1000
0100
0010
0001
1000
0100
1000
0000
,
0002
0003
0002
0003
2000
3000
2000
3000
,
0002
0103
0010
1000
0001
0100
0010
1000
,
0001
0100
0001
0100
0010
1000
0001
0000
1000
0010
1000
0010
0100
0001
1000
0000
,
0001
0100
0001
1000
0010
0100
0001
0000
1000
0010
1000
0001
0100
0010
1000
0000
,
0001
0010
0100
1000
0001
0010
0001
0000
1000
0100
0010
0001
1000
0100
1000
0000
,
0200
0000
0300
0000
0200
0000
0300
0000
1000
0100
0010
0001
2000
0000
0000
0000
,
3001
0100
0001
0100
0010
1000
0001
0000
1000
0010
1000
0010
0100
0001
1000
0000
,
0001
0100
0001
1000
0010
0100
0001
0000
1000
0010
1000
0001
0100
0010
1000
0000
,
0001
0010
0100
1000
0001
0010
0001
0000
1000
0100
0010
0001
1000
0100
1000
0000
,
0200
0300
0200
0300
0200
0300
0000
0000
,
1000
0010
0100
0001
1000
0010
1000
0000
0001
0100
0010
1000
0001
0100
0001
0000
,
1000
0010
1000
0001
0100
0010
1000
0000
0001
0100
0001
1000
0010
0100
0001
0000
,
1000
0100
0010
0001
1000
0100
1000
0000
0001
0010
0100
1000
0001
0010
0001
0000
,
0020
0030
0020
0030
0002
0003
0002
0003
,
1000
0010
1000
0001
0100
0010
1000
0000
0001
0100
0001
1000
0010
0100
0001
0000
,
1000
0010
0100
0001
1000
0001
1000
0000
0001
0100
0010
1000
0001
1000
0001
0000
,
1000
0100
0010
0001
1000
0100
1000
0000
0001
0010
0100
1000
0001
0010
0001
0000
,
2000
3000
0000
0000
0000
0000
0000
0000
,
0001
0100
0010
1000
0001
0100
0001
0000
1000
0010
0100
0001
1000
0010
1000
0000
,
0001
0100
0010
1000
0001
1000
0001
0000
1000
0010
0100
0001
1000
0001
1000
0000
,
0001
0010
0100
1000
0001
0010
0001
0000
1000
0100
0010
0001
1000
0100
1000
0000
,
0002
0003
0020
0030
0200
0300
2000
3000
,
0001
0010
0100
1000
0001
0010
0001
0000
1000
0100
0010
0001
1000
0100
1000
0000
,
0001
0100
0010
1000
0010
0100
0001
0000
1000
0010
0100
0001
0100
0010
1000
0000
,
0001
0100
0010
0100
0001
1000
0001
0000
1000
0010
0100
0010
1000
0001
1000
0000
,
0200
0300
0020
0030
0002
0003
0000
0000
,
1000
0010
1000
0001
0100
0001
1000
0000
0001
0100
0001
1000
0010
1000
0001
0000
,
1000
0010
0100
0001
1000
0010
1000
0000
0001
0100
0010
1000
0001
0100
0001
0000
,
1000
0100
0010
0001
1000
0100
1000
0000
0001
0010
0100
1000
0001
0010
0001
0000
,
2000
0000
3000
0000
2000
0000
3000
0000
0001
0010
0100
1000
0002
0000
0000
0000
,
1003
0010
0100
0001
1000
0010
1000
0000
0001
0100
0010
1000
0001
0100
0001
0000
,
1000
0010
1000
0001
0100
0001
1000
0000
0001
0100
0001
1000
0010
1000
0001
0000
,
2000
3000
0200
0300
0020
0030
0002
0003
,
2000
3000
0020
0030
0200
0000
0300
0000
;
