#TITLE:Once In A Lifetime;
#SUBTITLE:Sonic Firestorm;
#ARTIST:Dragonforce;
#TITLETRANSLIT:;
#SUBTITLETRANSLIT:;
#ARTISTTRANSLIT:;
#CREDIT:;
#BANNER:Dragonforce-bn.PNG;
#BACKGROUND:Dragonforce-bg.png;
#LYRICSPATH:;
#CDTITLE:;
#MUSIC:Dragonforce - 08 - Once in a Lifetime.mp3;
#OFFSET:-2.200;
#SAMPLESTART:223.941;
#SAMPLELENGTH:15.000;
#SELECTABLE:YES;
#BPMS:0.000=98.500,8.000=99.240,15.000=100.000,16.000=100.080,48.000=200.000,1360.000=49.999,1364.000=200.000;
#STOPS:;
#BGCHANGES:;
// cache tags:
#FIRSTBEAT:0.000;
#LASTBEAT:1466.000;
#SONGFILENAME:Songs/CMDKDF Pack/Once In A Lifetime/OnceInALifetime.sm;
#HASMUSIC:1;
#HASBANNER:1;
#MUSICLENGTH:466.494;
// end cache tags

//---------------dance-single - ----------------
#NOTES:
     dance-single:
     :
     Hard:
     12:
     1.000,1.000,1.000,0.392,1.000,3906.000,608.000,183.000,0.000,0.000:

1010
0000
0000
1000
0000
0000
1000
0000
0010
0000
0000
0001
0000
0000
0010
0000
,
1010
0000
0000
1000
0000
0000
0100
0000
0200
0000
0000
0000
0010
0000
0000
0000
,
0310
0000
0000
0010
0000
0000
0010
0000
1000
0000
0000
1000
0000
0000
0100
0000
,
0101
0000
0000
0000
0000
0000
1000
0000
0000
0000
0000
0100
0000
0000
0000
0010
0000
0000
0000
0000
0000
0000
0000
0000
0011
0000
0000
0000
0100
0000
0000
0000
,
0101
0000
0000
0010
0000
0000
1000
0000
1000
0000
0000
0001
0000
0000
0100
0000
,
1001
0000
0000
0100
0000
0000
1000
0000
0200
0000
0000
0000
0001
0000
1000
0000
,
0301
0000
0000
1000
0000
0000
0010
0000
1000
0000
0000
0100
0000
0000
0010
0000
,
1001
0000
0000
0010
0000
0000
1000
0000
0010
0000
0000
0000
0101
0000
0010
0000
,
1010
0000
0000
0010
0000
0000
0010
0000
0010
0000
0000
0000
0001
0000
0001
0000
,
1001
0000
0000
0000
0000
0000
1000
0000
0000
0000
0000
0100
0000
0000
0000
0000
1001
0000
0000
0000
1010
0000
0000
0000
1010
0000
0000
0000
0101
0000
0000
0000
,
0101
0000
0000
0010
1100
0000
0100
0000
0110
0000
0000
0010
1100
0000
0001
0000
,
0011
0000
0000
0000
0000
0000
0000
0000
0000
0000
0000
0000
0000
0000
0000
0000
0001
0010
0001
0100
0001
0000
0000
0000
0010
1000
0100
1000
0010
0000
0000
0000
,
0001
1000
0010
1000
0001
0100
0001
0100
0010
1000
0100
0010
0001
0100
0001
1000
,
0100
0010
0001
1000
0100
1000
0001
0100
0001
0010
0100
1000
0001
0100
0010
1000
,
0001
0010
0100
1000
0001
0100
0010
0100
0001
0010
0100
1000
0001
0010
0100
1000
,
0001
0100
0010
1000
0001
0010
0100
1000
0100
0010
0100
0010
0001
1000
0001
1000
,
0001
0100
0001
0100
0001
0010
0001
0010
0100
0010
0100
0010
0001
0100
0001
0100
,
0001
1000
0001
1000
0010
0100
0010
1000
0100
0010
0100
0010
0001
1000
0001
1000
,
0010
0100
0010
1000
0001
0010
0001
0100
0010
1000
0010
0100
0001
0010
0001
0100
,
0010
1000
0001
0010
0100
1000
0100
0010
0001
1000
0001
0100
0001
0010
0001
0100
,
0001
1000
0100
0010
0001
0010
0100
1000
0010
0100
0001
1000
0001
0010
0100
1000
,
0010
1000
0010
1000
0001
0100
0001
0010
0100
1000
0010
0100
0010
1000
0100
0010
,
0001
0100
0010
0100
0001
0010
0100
1000
0010
1000
0001
0100
0001
0010
0100
0010
,
0001
1000
0100
0010
0100
1000
0010
0100
0001
0010
0001
0100
0010
0100
0010
1000
,
0100
0010
0100
0010
0001
1000
0001
0100
0010
1000
0100
0010
0001
1000
0010
0100
,
0001
0010
0100
1000
0010
0100
0001
0010
0100
1000
0010
0100
0001
1000
0010
1000
,
0001
0100
0001
1000
0010
1000
0010
0100
0001
0010
0001
1000
0100
1000
0001
0010
,
0001
1000
0100
0010
0100
1000
0010
0100
0010
1000
0001
0010
0100
0010
0001
0100
,
0010
0100
0001
1000
0001
0010
0100
0010
0001
1000
0001
1000
0010
0100
0010
1000
,
0100
0010
0001
0100
0001
0010
0001
1000
0010
0100
0001
0010
0001
0100
0001
1000
,
0100
0010
0100
1000
0010
1000
0001
1000
0010
1000
0100
0010
0001
0100
0010
0100
,
0001
0010
0100
1000
0001
0010
0100
0010
0100
1000
0001
0010
0100
0010
0100
0010
,
0100
1000
0010
0100
0001
0100
0010
1000
0100
1000
0010
1000
0001
0100
0010
1000
,
0010
0100
0001
0010
0100
0010
0001
0100
0010
0100
0010
0100
0001
1000
0100
0010
,
0001
1000
0001
0010
0100
1000
0001
1000
0100
0010
0001
1000
0001
0010
0100
1000
,
0010
0100
0001
1000
0001
0100
0010
1000
0001
1000
0010
0100
0001
1000
0001
0100
,
0010
1000
0010
0100
0001
0010
0100
1000
0100
0010
0001
0100
0010
1000
0100
0010
,
0001
0010
0100
1000
0010
0100
0001
1000
0010
1000
0001
0100
0010
0100
0001
1000
,
0010
0100
0001
0010
0001
1000
0100
0010
0001
1000
0001
0100
0010
1000
0100
0010
,
0001
1000
0010
0100
0010
1000
0100
0010
0001
0010
0001
0100
0010
1000
0100
0010
,
0001
1000
0010
1000
0010
0100
0001
1000
0001
0100
0001
0010
0100
1000
0010
0100
,
0001
1000
0001
0100
0001
0010
0100
1000
0010
0100
0010
1000
0100
1000
0010
1000
,
0001
0010
0001
0100
0001
1000
0100
1000
0001
0100
0001
0010
0001
0010
0100
1000
,
0010
1000
0010
0100
0001
0100
0010
1000
0100
0010
0001
1000
0010
0100
0001
0100
,
0010
1000
0100
0010
0001
0100
0001
1000
0100
1000
0010
0100
0001
1000
0100
0010
,
2002
0000
0000
0000
0000
0000
0000
3003
1010
0000
0010
0000
0011
0000
0010
0000
,
0101
0100
1100
0010
0101
0010
1100
1000
,
0011
0100
0101
1100
0010
1000
0001
0100
,
0001
1000
0101
0010
1100
1000
1001
0001
,
0011
1010
0100
1001
0001
0100
0010
1000
,
0001
0010
1100
1000
0101
0100
0011
0010
,
1100
0011
0001
1010
0100
0010
0101
1000
,
0110
0000
0010
0000
0100
0000
2002
0000
0000
0000
0000
0000
0000
0000
0000
3003
,
1000
0100
1000
0100
1000
0100
1000
0100
0010
0001
0010
0001
0010
0001
0010
0001
,
1010
0100
0011
0100
1010
0100
0011
0001
,
1100
0010
1010
0011
0100
0001
1000
0010
,
1000
0001
1010
0100
0011
0001
1001
1000
,
1100
0101
0010
1001
1000
0010
0100
0001
,
1000
0100
0011
0001
1010
0010
1100
0100
,
0011
1100
1000
0101
0010
0100
1010
0001
,
0110
0000
0100
0000
0010
0000
2002
0000
0000
0000
0000
0000
0000
0000
0000
3003
,
0001
0010
0001
0010
0001
0010
0001
0010
0100
1000
0100
1000
0100
1000
0100
1000
,
0101
0100
1010
0010
0101
0100
0011
1010
,
0101
0000
0000
0011
0000
0000
0101
0000
0110
0000
0100
0000
1100
0000
0101
0000
,
0011
0000
0000
1010
0000
0000
1100
0000
0101
0000
0010
0000
0100
0000
0010
0000
,
1000
0001
0100
0010
1000
0001
0010
0100
1000
0001
0100
0010
1000
0001
0010
0100
,
1000
0001
1010
0010
0101
0100
0011
0101
,
1100
0000
0000
1010
0000
0000
0011
0000
0101
0000
0010
0000
1100
0000
1010
0000
,
0101
0001
0010
1001
1000
0100
0011
0010
,
0202
0000
0000
0000
0000
0303
2020
0000
0000
0000
0000
0000
0000
0000
0000
3030
,
0101
0100
0011
0001
1100
1000
0101
0011
,
1100
0000
0000
0101
0000
0000
1100
0000
1001
0000
1000
0000
1010
0000
1100
0000
,
0101
0000
0000
0011
0000
0000
1010
0000
1100
0000
0010
0000
0100
0000
0010
0000
,
0100
1000
0010
0100
0001
1000
0100
0010
0001
1000
0010
0100
0001
1000
0100
0010
,
0001
0100
0101
1010
0101
0100
1010
0110
,
0101
0000
0000
1010
0000
0000
0101
0000
0110
0000
0010
0000
1001
0000
1000
0000
,
0022
0000
0000
0000
0000
0000
0000
0000
0000
0000
0000
0000
0000
0000
0000
0033
,
1000
0010
0100
0001
1000
0100
0010
0001
1000
0010
0100
0001
1000
0100
0010
0001
,
2000
0000
0000
3000
0011
0000
0010
0000
1100
0000
1000
0000
0101
0000
0110
0000
,
0100
1100
0011
0101
0110
0100
1020
1000
,
0100
0000
1000
0030
1100
0000
0010
0000
1001
0000
0010
0000
1010
0000
1100
0000
,
1000
0011
0110
1100
1001
0100
0201
1000
,
0001
0000
0001
0300
1010
0000
0001
0000
1010
0000
0100
0000
0101
0000
1200
0000
,
1000
0000
0010
0300
1010
0000
1020
0000
0100
0000
0001
0030
1001
0000
1000
0000
,
0201
0000
0010
0000
0001
0300
1020
0000
0100
0000
0001
0030
0011
0000
1000
0000
,
0120
0001
0100
1000
0100
0001
1000
0001
,
0100
0000
0100
0030
1100
0000
0100
0000
0011
0000
0001
0000
1010
0000
0110
0000
,
0010
0011
1100
1010
0110
0010
0201
0001
,
0010
0000
0001
0300
0011
0000
0100
0000
1001
0000
0100
0000
0101
0000
0011
0000
,
0001
1100
0110
0011
1001
0010
1020
0001
,
1000
0000
1000
0030
0101
0000
1000
0000
0101
0000
0010
0000
1010
0000
0021
0000
,
0001
0000
0100
0030
0101
0000
0201
0000
0010
0000
1000
0300
1001
0000
0001
0000
,
1020
0000
0100
0000
0001
0030
2100
0000
0001
0000
3010
0000
0101
0000
0010
0000
,
2001
0100
0001
0010
0100
0000
3000
0000
,
0101
0000
1000
0000
0010
0000
0001
0000
0010
0100
1010
0000
0001
0000
0100
0000
,
1010
0000
0010
0000
0010
0000
1000
0000
0100
0010
1001
0000
0010
0000
0100
0000
,
0011
0000
1000
0000
0010
0000
1000
0000
0100
0010
1100
0000
0100
0000
0010
0000
,
0101
0000
0100
0000
0010
0000
0100
0000
1000
0001
1010
0000
0001
0000
0010
0000
,
0011
0000
0100
0000
1000
0000
0001
0000
1000
0010
0101
0000
0100
0000
0010
0000
,
0101
0000
0010
0000
0001
0000
0100
0000
0010
1000
0101
0000
1000
0000
0100
0000
,
1100
0000
1000
0000
0001
0000
0100
0000
0010
1000
0110
0000
0010
0000
0100
0000
,
1000
1000
1000
1000
0100
0100
0100
0100
0010
0010
0010
0010
0001
0001
0001
0001
,
1010
0000
0001
0000
0100
0000
1000
0000
0100
0010
0101
0000
1000
0000
0010
0000
,
0101
0000
0100
0000
0100
0000
0001
0000
0010
0100
1001
0000
0100
0000
0010
0000
,
1100
0000
0001
0000
0100
0000
0001
0000
0010
0100
0011
0000
0010
0000
0100
0000
,
1010
0000
0010
0000
0100
0000
0010
0000
0001
1000
0101
0000
1000
0000
0100
0000
,
1100
0000
0010
0000
0001
0000
1000
0000
0001
0100
1010
0000
0010
0000
0100
0000
,
1010
0000
0100
0000
1000
0000
0010
0000
0100
0001
1010
0000
0001
0000
0010
0000
,
0011
0000
0001
0000
1000
0000
0010
0000
0100
0001
0110
0000
0100
0000
0010
0000
,
2002
0000
0000
0000
0000
0000
0000
3003
2002
0000
0000
0000
0000
0000
0000
3003
0220
0000
0000
0000
0000
0000
0000
0330
0220
0000
0000
0000
0000
0000
0000
0330
,
0000
0000
0000
0000
0000
0000
0010
0001
1000
0010
0000
0000
0100
0001
0100
0010
0000
0000
1000
0000
0000
0200
0000
0000
,
0000
0000
0000
0300
0000
0000
0010
0100
0001
1000
0000
0000
0010
1000
0001
0100
0000
0000
1000
0000
0000
0020
0000
0000
,
0000
0000
0000
0030
0000
0000
1000
0001
0100
0010
0000
0000
0100
0010
1000
0001
0000
0000
1000
0000
0000
0002
0000
0000
,
0000
0000
0000
0003
0000
0000
0100
1000
0001
0010
0000
0000
0010
0001
1000
0100
0000
0000
0010
0000
0000
2000
0000
0000
,
0000
0000
0000
3000
0000
0000
0100
1000
0010
0100
0000
0000
0010
1000
0001
0010
0000
0000
0100
0000
0000
0002
0000
0000
,
0000
0000
0000
0003
0000
0000
0010
1000
0001
0100
0000
0000
1000
0010
0100
0001
0000
0000
0100
0000
0000
2000
0000
0000
,
0000
0000
0000
3000
0000
0000
0100
0000
0000
0001
1000
0010
0100
0000
0000
0010
0100
1000
0001
0000
0000
0010
1000
0001
,
0100
0000
0000
1000
0001
0100
0010
0000
0000
1000
0100
0010
0001
0000
0000
0001
0010
0100
1000
0000
0000
0020
0000
0000
,
0000
0000
0000
0030
0000
0000
0001
0010
0100
1000
0000
0000
0001
1000
0010
0100
0000
0000
0010
0000
0000
2000
0000
0000
,
0000
0000
0000
3000
0000
0000
0001
1000
0010
0100
0000
0000
1000
0001
0100
0010
0000
0000
0100
0000
0000
0020
0000
0000
,
0000
0000
0000
0030
0000
0000
0001
1000
0100
0010
0000
0000
1000
0001
0010
0100
0000
0000
1000
0000
0000
0002
0000
0000
,
0000
0000
0000
0003
0000
0000
0010
1000
0100
0010
0000
0000
0100
0001
0010
0100
0000
0000
0001
0000
0000
0200
0000
0000
,
0000
0000
0000
0300
0000
0000
0100
0001
1000
0010
0000
0000
0100
1000
0001
0010
0000
0000
0100
0000
0000
0020
0000
0000
,
0000
0000
0000
0030
0000
0000
0100
0001
1000
0010
0000
0000
0001
1000
0100
0010
0000
0000
0100
0000
0000
0002
0000
0000
,
0000
0000
0000
0003
0000
0000
1000
0001
0100
0010
0000
0000
1000
0100
0010
0001
0000
0000
0010
0000
0000
0100
0000
0000
,
0022
0000
0000
0000
0000
0000
0000
0033
2020
0000
0000
0000
0000
0000
0000
3030
2200
0000
0000
0000
0000
0000
0000
3300
0202
0000
0000
0000
0000
0000
0000
0303
,
0000
0000
1010
0110
1000
0110
0001
1001
,
0101
1000
0110
0110
0100
0100
0001
1000
,
1000
0100
0110
0010
0001
1100
0010
1100
,
1001
1000
1010
1001
0001
1000
0010
0010
,
1000
0001
1100
1100
1000
0110
1000
0011
,
1010
1000
0010
0010
1000
0010
0100
1000
,
1010
0000
0010
0101
0000
1000
0101
0000
,
0001
1000
0100
0010
0001
0100
0010
1000
0010
0100
0001
0010
0001
1000
0100
0010
,
0001
0000
0101
0110
0001
0110
1000
1001
,
1010
0001
0110
0110
0001
0010
1000
0001
,
0001
0010
0110
0100
1000
0011
0100
0011
,
1001
0010
0101
1001
0010
0001
0100
0100
,
0001
1000
0011
0011
0100
0110
0001
1100
,
0101
0001
0100
0100
0001
0100
0010
0001
,
0101
0000
0100
1010
0000
0001
1010
0000
,
1000
0001
0010
0100
1000
0010
0100
0001
0100
0010
1000
0100
1000
0001
0010
0100
,
1000
0000
1010
0011
1001
0000
1100
0110
,
1010
0000
0000
1001
0000
0000
0101
0000
1001
0000
0000
0110
0000
0000
1100
0000
,
1001
0000
0000
0000
0000
0000
1100
0000
0000
0000
0000
0000
0101
0000
0000
0000
2020
0000
0000
0000
0000
0000
0000
0000
0000
0000
0000
0000
0000
0000
0000
3030
,
0001
1000
0010
0100
0001
0100
0010
1000
0001
1000
0100
0010
0100
1000
0001
0100
,
0010
0000
1001
1001
1100
0000
0101
0101
,
0110
0000
0000
0000
0000
0000
1010
0000
0000
0000
0000
0000
0101
0000
0000
0000
1001
0000
0000
0000
0000
0000
0000
0000
0220
0000
0000
0000
0000
0000
0000
0330
,
0202
0000
0000
0000
0000
0000
0000
0000
0000
0000
0000
0303
0022
0000
0000
0000
0000
0000
0000
0000
0000
0000
0000
0033
2200
0000
0000
0000
0000
0000
0000
3300
,
2020
0000
0000
0000
0000
0000
0000
0000
0000
0000
0000
3030
0202
0000
0000
0000
0000
0000
0000
0000
0000
0000
0000
0000
0000
0000
0000
0000
0000
0000
0000
0303
,
0000
0000
0110
1010
0110
0000
0110
0101
,
1010
0000
0000
1010
0000
0000
1010
0000
1001
0000
0000
0101
0000
0000
0110
0000
,
0011
0000
0000
0000
0000
0000
1001
0000
0000
0000
0000
0000
0011
0000
0000
0000
2002
0000
0000
0000
0000
0000
0000
0000
0000
0000
0000
0000
0000
0000
0000
3003
,
0100
0001
0100
0010
1000
0010
0100
0001
1000
0001
0010
0100
0010
0001
1000
0010
,
0100
0000
0000
0000
0110
0000
0110
0000
1100
0000
0000
0110
0000
0000
1100
0000
,
0101
0000
0000
0011
0000
0000
0101
0000
1100
0000
0000
0011
0000
0000
0110
0000
,
2020
0000
0000
0000
0000
0000
0000
0000
0000
0000
0000
0000
0000
0000
0000
0000
0000
0000
0000
0000
0000
0000
0000
0000
0000
0000
0000
0000
0000
0000
0000
3030
,
0010
0001
0100
0010
1000
0100
0010
0001
1000
0010
0100
0010
1000
0100
0010
0001
,
0100
0000
1100
0100
0011
0001
1010
0110
,
0010
0011
1100
1010
0110
0010
0201
0001
,
0010
0000
0001
0300
0011
0000
0100
0000
1001
0000
0100
0000
0101
0000
0011
0000
,
0001
1100
0110
0011
1001
0010
1020
0001
,
1000
0000
1000
0030
0101
0000
1000
0000
0101
0000
0010
0000
1010
0000
0021
0000
,
0001
0000
0100
0030
0101
0000
0201
0000
0010
0000
1000
0300
1001
0000
0001
0000
,
1020
0000
0100
0000
1000
0030
0201
0000
0010
0000
1000
0300
1100
0000
0001
0000
,
0210
1000
0010
0001
0010
1000
0001
1000
,
0010
0000
0010
0300
0011
0000
0010
0000
1100
0000
1000
0000
0101
0000
0110
0000
,
0100
1100
0011
0101
0110
0100
1020
1000
,
0100
0000
1000
0030
1100
0000
0010
0000
1001
0000
0010
0000
1010
0000
1100
0000
,
1000
0011
0110
1100
1001
0100
0201
1000
,
0001
0000
0001
0300
1010
0000
0001
0000
1010
0000
0100
0000
0101
0000
1200
0000
,
1000
0000
0010
0300
1010
0000
1020
0000
0100
0000
0001
0030
1001
0000
1000
0000
,
0201
0000
0010
0000
1000
0300
0012
0000
1000
0000
0103
0000
1010
0000
0100
0000
,
1002
0010
1000
0100
0010
0000
0003
0000
,
1001
0000
0100
0000
0010
0000
0001
0000
0010
1000
0110
0000
0001
0000
1000
0000
,
0110
0000
0010
0000
0010
0000
0100
0000
1000
0010
0101
0000
0010
0000
1000
0000
,
0011
0000
0100
0000
0010
0000
0100
0000
1000
0010
1100
0000
1000
0000
0010
0000
,
1001
0000
1000
0000
0010
0000
1000
0000
0100
0001
0110
0000
0001
0000
0010
0000
,
0011
0000
1000
0000
0100
0000
0001
0000
0100
0010
1001
0000
1000
0000
0010
0000
,
1001
0000
0010
0000
0001
0000
1000
0000
0010
0100
1001
0000
0100
0000
1000
0000
,
1100
0000
0100
0000
0001
0000
1000
0000
0010
0100
1010
0000
0010
0000
1000
0000
,
0010
0010
1000
1000
0001
0001
0010
0010
0100
0100
1000
1000
0001
0001
0010
0010
,
1100
0000
0001
0000
1000
0000
0100
0000
1000
0010
1001
0000
0100
0000
0010
0000
,
1001
0000
1000
0000
1000
0000
0001
0000
0010
1000
0101
0000
1000
0000
0010
0000
,
1100
0000
0001
0000
1000
0000
0001
0000
0010
1000
0011
0000
0010
0000
1000
0000
,
0110
0000
0010
0000
1000
0000
0010
0000
0001
0100
1001
0000
0100
0000
1000
0000
,
1100
0000
0010
0000
0001
0000
0100
0000
0001
1000
0110
0000
0010
0000
1000
0000
,
0110
0000
1000
0000
0100
0000
0010
0000
1000
0001
0110
0000
0001
0000
0010
0000
,
0011
0000
0001
0000
0100
0000
0010
0000
1000
0001
1010
0000
1000
0000
0010
0000
,
0220
0000
0000
0000
0000
0000
0000
0330
0220
0000
0000
0000
0000
0000
0000
0330
2002
0000
0000
0000
0000
0000
0000
3003
2002
0000
0000
0000
0000
0000
0000
3003
,
0000
0000
0000
0000
0000
0000
0100
1000
0001
0100
0000
0000
0010
1000
0010
0100
0000
0000
0001
0000
0000
0020
0000
0000
,
0000
0000
0000
0030
0000
0000
0100
0010
1000
0001
0000
0000
0100
0001
1000
0010
0000
0000
0001
0000
0000
0200
0000
0000
,
0000
0000
0000
0300
0000
0000
0001
1000
0010
0100
0000
0000
0010
0100
0001
1000
0000
0000
0001
0000
0000
2000
0000
0000
,
0000
0000
0000
3000
0000
0000
0010
0001
1000
0100
0000
0000
0100
1000
0001
0010
0000
0000
0100
0000
0000
0002
0000
0000
,
0000
0000
0000
0003
0000
0000
0010
0001
0100
0010
0000
0000
0100
0001
1000
0100
0000
0000
0010
0000
0000
2000
0000
0000
,
0000
0000
0000
3000
0000
0000
0100
0001
1000
0010
0000
0000
0001
0100
0010
1000
0000
0000
0010
0000
0000
0002
0000
0000
,
0000
0000
0000
0003
0000
0000
0010
0000
0000
1000
0001
0100
0010
0000
0000
0100
0010
0001
1000
0000
0000
0100
0001
1000
,
0010
0000
0000
0001
1000
0010
0100
0000
0000
0001
0010
0100
1000
0000
0000
1000
0100
0010
0001
0000
0000
0200
0000
0000
,
0000
0000
0000
0300
0000
0000
1000
0100
0010
0001
0000
0000
1000
0001
0100
0010
0000
0000
0100
0000
0000
0002
0000
0000
,
0000
0000
0000
0003
0000
0000
1000
0001
0100
0010
0000
0000
0001
1000
0010
0100
0000
0000
0010
0000
0000
0200
0000
0000
,
0000
0000
0000
0300
0000
0000
1000
0001
0010
0100
0000
0000
0001
1000
0100
0010
0000
0000
0001
0000
0000
2000
0000
0000
,
0000
0000
0000
3000
0000
0000
0100
0001
0010
0100
0000
0000
0010
1000
0100
0010
0000
0000
1000
0000
0000
0020
0000
0000
,
0000
0000
0000
0030
0000
0000
0010
1000
0001
0100
0000
0000
0010
0001
1000
0100
0000
0000
0010
0000
0000
0200
0000
0000
,
0000
0000
0000
0300
0000
0000
0010
1000
0001
0100
0000
0000
1000
0001
0010
0100
0000
0000
0010
0000
0000
2000
0000
0000
,
0000
0000
0000
3000
0000
0000
0001
1000
0010
0100
0000
0000
0001
0010
0100
1000
0000
0000
0100
0000
0000
0020
0000
0000
,
0000
0000
0000
0000
0000
0000
0000
0030
,
0001
1000
0010
1000
0001
0100
0001
1000
0010
1000
0100
0010
,
1001
0100
0001
1000
0100
0010
0101
1000
0100
1000
0001
0100
,
1001
0010
0100
1000
0001
0100
0010
1000
0001
0010
0100
1000
,
0011
0100
0010
0100
0001
0010
0101
1000
0001
0010
0100
1000
,
0011
0100
0010
1000
0001
0010
0100
1000
0100
0010
0100
0010
,
0101
1000
0001
1000
0001
0100
1001
0100
0001
0010
0001
0010
,
1001
0010
0100
0010
0100
0010
0001
0100
0001
0100
0001
1000
,
0101
1000
0001
0100
0010
1000
1001
0010
0100
0010
0001
1000
,
1000
0001
0010
0001
0100
0010
1000
0010
0100
0001
0010
0001
0100
0010
1000
0001
,
0010
0100
1000
0100
0010
0001
1000
0001
0100
0001
0010
0001
0100
0001
1000
0100
,
0010
0001
0010
0100
1000
0010
0100
0001
1000
0001
0010
0100
1000
0010
1000
0010
,
1000
0001
0100
0001
0010
0100
1000
0010
0100
0010
1000
0100
0010
0001
0100
0010
,
0100
0001
0010
0100
1000
0010
1000
0001
0100
0001
0010
0100
0010
0001
1000
0100
,
0010
0100
1000
0010
0100
0001
0010
0001
0100
0010
0100
0010
1000
0100
0010
0100
,
0010
0001
1000
0001
0100
0010
1000
0100
0010
0001
1000
0010
0100
0001
0010
0100
,
1000
0010
0100
0001
0010
0100
1000
0010
0100
0001
1000
0010
1000
0001
0100
0001
,
0010
0001
1000
0010
0001
0010
1000
0100
0011
0100
0010
0001
0010
0001
1000
0010
,
0100
0010
1000
0001
0100
0001
0100
0010
1001
0010
0100
0001
0010
0001
0100
0010
,
0100
0001
0010
0100
1000
0100
0010
0001
1010
0001
0100
0001
0010
0001
0100
0001
,
2020
0000
0000
0000
0000
0000
0000
3030
0202
0000
0000
0000
0000
0000
0000
0303
0022
0000
0000
0000
0000
0000
0000
0033
2200
0000
0000
0000
0000
0000
0000
3300
,
0110
0000
1100
0000
0110
0000
0110
0110
,
1010
1010
1010
1001
0000
1010
0000
0011
,
0010
1000
0100
0010
0001
1000
0001
0100
0001
0010
0001
0100
0001
1000
0100
0010
,
0001
0010
0100
1000
0010
0000
0010
0000
0000
0000
0000
0000
0000
0000
0000
0000
,
1000
0001
0100
0001
1000
0010
1000
0010
0100
0001
0010
0100
1000
0010
1000
0001
,
0010
0100
1000
0001
0010
0001
1000
0010
1000
0100
0010
0001
0200
0000
0000
0300
,
1000
0100
0010
0001
1000
0010
0100
0010
1000
0100
0010
0001
1000
0100
0010
0001
,
1000
0010
0100
0001
1000
0100
0010
0001
0010
0100
0010
0100
0020
0000
0000
0030
,
1000
0010
1000
0010
1000
0100
1000
0100
0010
0100
0010
0100
1000
0010
1000
0010
,
2000
0000
0000
3000
0100
0010
0100
0001
0010
0100
0010
0100
1000
0001
1000
0001
,
0100
0010
0100
0001
1000
0100
1000
0010
0100
0001
0100
0010
1000
0100
1000
0010
,
0100
0001
1000
0100
0010
0001
0010
0100
1000
0001
1000
0010
1000
0100
1000
0010
,
1000
0001
0010
0100
1000
0100
0010
0001
0100
0010
1000
0001
1000
0100
0010
0001
,
0100
0001
0100
0001
1000
0010
1000
0100
0010
0001
0100
0010
0002
0000
0000
0003
,
1000
0010
0100
0010
1000
0100
0010
0001
0100
0001
1000
0010
1000
0100
0010
0100
,
1000
0001
0010
0100
0010
0001
0100
0010
1000
0100
1000
0010
0100
0010
0100
0001
,
0010
0100
0010
0100
1000
0001
1000
0010
0100
0001
0010
0100
1000
0001
0100
0010
,
1000
0100
0010
0001
0100
0010
1000
0100
0010
0001
0100
0010
1000
0001
0100
0001
,
1000
0010
1000
0001
0100
0001
0100
0010
1000
0100
1000
0001
0010
0001
1000
0100
,
1000
0001
0010
0100
0010
0001
0100
0010
0200
0000
0000
0300
0010
0100
1000
0010
,
0100
0010
1000
0001
1000
0100
0010
0100
1000
0001
1000
0001
0100
0010
0100
0001
,
0010
0100
1000
0010
1000
0100
1000
0001
0100
0010
1000
0100
1000
0010
1000
0001
,
0010
0100
0010
0001
0100
0001
1000
0001
0100
0001
0010
0100
1000
0010
0100
0010
,
1000
0100
0010
0001
1000
0100
0010
0100
0010
0001
1000
0100
0010
0100
0010
0100
,
0010
0001
0100
0010
1000
0010
0100
0001
0010
0001
0100
0001
1000
0010
0100
0001
,
0100
0010
1000
0100
0010
0100
1000
0010
0100
0010
0100
0010
1000
0001
0010
0100
,
1000
0001
1000
0100
0010
0001
1000
0001
0010
0100
1000
0001
1000
0100
0010
0001
,
0100
0010
1000
0001
1000
0010
0100
0001
0020
0000
0000
0030
1000
0001
1000
0010
,
0100
0001
0100
0010
1000
0100
0010
0001
0010
0100
1000
0010
0100
0001
0010
0100
,
1000
0100
0010
0001
0100
0010
1000
0001
0100
0001
1000
0010
0100
0010
1000
0001
,
0100
0010
1000
0100
1000
0001
0010
0100
1000
0001
1000
0010
0100
0001
0010
0100
,
0010
0001
0100
0010
0100
0001
0010
0100
1000
0100
1000
0010
0100
0001
0010
0100
,
0010
0001
0100
0001
0100
0010
1000
0001
1000
0010
1000
0100
0010
0001
0100
0010
,
1000
0001
1000
0010
1000
0100
0010
0001
0100
0010
0100
0001
0010
0001
0100
0001
,
1000
0100
1000
0010
1000
0001
0010
0001
1000
0010
1000
0100
1000
0100
0010
0001
,
1000
0001
0100
0010
1000
0010
0100
0001
0010
0100
1000
0001
0100
0010
1000
0010
,
0100
0001
0010
0100
1000
0010
1000
0001
0010
0001
0100
0010
1000
0001
0010
0100
,
1000
0010
1000
0010
1000
0100
1000
0100
0010
0100
0010
0100
1000
0010
1000
0010
,
0100
0001
1000
0001
0100
0010
0100
0001
0010
0100
0010
0100
1000
0001
1000
0001
,
0100
0010
0100
0001
1000
0100
1000
0010
0100
0001
0100
0010
1000
0100
1000
0010
,
0100
0001
1000
0100
0010
0001
0010
0100
1000
0001
1000
0010
1000
0100
1000
0010
,
1000
0001
0010
0100
1000
0100
0010
0001
0100
0010
1000
0001
1000
0100
0010
0001
,
1000
0001
0100
0001
1000
0010
1000
0100
0010
0001
0100
0010
0100
0001
0010
0100
,
1000
0010
0100
0010
1000
0100
0010
0001
0100
0001
1000
0010
1000
0100
0010
0100
,
0010
0001
0010
0100
0010
0001
0100
0010
1000
0100
1000
0010
0100
0010
0100
0001
,
1000
0100
0010
0100
1000
0001
1000
0010
0100
0001
0010
0100
1000
0001
0100
0010
,
1000
0100
0010
0001
0100
0010
1000
0100
0010
0001
0100
0010
1000
0001
0100
0001
,
1001
0000
0020
0001
0100
0001
1000
0100
,
0230
0010
0010
0010
0010
1000
1000
1000
,
1000
0001
0001
0001
0001
0010
0010
0010
,
2300
0001
0001
0010
0010
0100
0100
0010
,
0010
0001
0001
0100
0100
0010
0010
0001
,
3002
0010
0100
0010
1000
0100
0010
1000
,
0203
0010
0001
1000
0001
0010
0001
0010
,
2300
0100
0010
0001
0010
0001
0100
0010
,
0100
0010
0001
0010
0001
0100
0010
0001
,
3020
0100
1000
0001
0100
0001
0100
0001
,
2030
0100
0010
0100
0001
0010
0001
0010
,
3200
0001
1000
0010
1000
0001
0010
0001
,
2300
0100
0010
0100
0010
0001
0100
0010
,
3001
0000
0100
0000
0001
0000
0100
0000
0000
0001
0000
0000
1000
0000
0000
0100
0000
0000
0010
0000
0000
0001
0000
0000
0010
0000
0000
0100
0000
0000
0010
0000
0000
0001
0000
0000
1000
0000
0000
0010
0000
0000
0100
0000
0000
0001
0000
0000
,
1000
0000
0010
0000
1000
0000
0010
0000
0000
1000
0000
0000
0001
0000
0000
0010
0000
0000
0100
0000
0000
1000
0000
0000
0100
0000
0000
0010
0000
0000
0100
0000
0000
1000
0000
0000
0001
0000
0000
0100
0000
0000
0010
0000
0000
1000
0000
0000
,
0001
0000
0010
0000
0001
0000
0010
0000
0000
0001
0000
0000
1000
0000
0000
0100
0000
0000
0001
0000
0000
0010
0000
0000
0001
0000
0000
1000
0000
0000
0100
0000
0000
1000
0000
0000
0001
0000
0000
0010
0000
0000
0100
0000
0000
0010
0000
0000
,
1000
0000
0100
0000
1000
0000
0100
0000
0000
1000
0000
0000
0001
0000
0000
0010
0000
0000
1000
0000
0000
0100
0000
0000
1000
0000
0000
0001
0000
0000
0010
0000
0000
0001
0000
0000
1000
0000
0000
0100
0000
0000
0010
0000
0000
0100
0000
0000
,
1001
0000
0000
0000
0022
0000
0000
0033
0220
0000
0000
0330
2200
0000
0000
3300
,
0110
0000
0000
0000
2200
0000
0000
3300
2002
0000
0000
3003
0022
0000
0000
0033
,
1001
0100
0010
0100
0001
1000
0100
0010
0001
1000
0001
0100
0010
1000
0100
0010
,
0100
1000
0010
0100
0010
1000
0100
0010
0001
0010
0001
0100
0010
1000
0100
0010
,
0100
1000
0010
1000
0010
0100
0001
1000
0001
0100
0001
0010
0100
1000
0010
0100
,
0001
1000
0001
0100
0001
0010
0100
1000
0010
0100
0010
1000
0100
1000
0010
1000
,
0001
0010
0001
0100
0001
1000
0100
1000
0001
0100
0001
0010
0001
0010
0100
1000
,
0001
1000
0010
0100
0001
0100
0010
1000
0100
0010
0001
1000
0010
0100
0001
0100
,
0010
1000
0100
0010
0001
0100
0001
1000
0100
1000
0010
0100
0001
1000
0100
0010
,
0001
0100
0001
0100
0001
0010
0001
0010
0100
0010
0100
0010
0001
0100
0001
0100
,
0010
1000
0001
1000
0010
0100
0010
1000
0100
0010
0100
0010
0001
1000
0001
1000
,
0010
0100
0010
1000
0001
0010
0001
0100
0010
1000
0010
0100
0001
0010
0001
0100
,
0010
1000
0001
0010
0100
1000
0100
0010
0001
1000
0001
0100
0001
0010
0001
0100
,
0001
1000
0100
0010
0001
0010
0100
1000
0010
0100
0001
1000
0001
0010
0100
1000
,
0001
1000
0010
1000
0001
0100
0001
0010
0100
1000
0010
0100
0010
1000
0100
0010
,
1000
0000
0001
0000
1000
0000
0001
0000
0000
0100
0000
0000
0010
0000
0000
0100
0000
0000
0001
0000
0000
0010
0000
0000
0100
0000
0000
1000
0000
0000
0100
0000
0010
0000
0001
0000
1000
0000
0000
0010
0000
0000
1000
0000
0000
0100
0000
0000
,
1010
0001
1010
0010
0101
0100
0011
0101
,
1100
0000
0000
1010
0000
0000
0011
0000
0101
0000
0010
0000
1100
0000
1010
0000
,
0101
0001
0010
1001
1000
0100
0011
0010
,
0001
1000
0010
0100
0001
1000
0100
0010
0001
1000
0010
0100
0001
1000
0100
0010
,
0001
1000
0101
0100
1010
0010
1100
1010
,
0011
0000
0000
0101
0000
0000
1100
0000
1010
0000
0100
0000
0011
0000
0101
0000
,
1010
1000
0100
1001
0001
0010
1100
0100
,
2020
0000
0000
0000
0000
3030
0202
0000
0000
0000
0000
0000
0000
0000
0000
0303
,
1010
0010
1100
1000
0011
0001
1010
1100
,
0011
0000
0000
1010
0000
0000
0011
0000
1001
0000
0001
0000
0101
0000
0011
0000
,
1010
0000
0000
1100
0000
0000
0101
0000
0011
0000
0100
0000
0010
0000
0100
0000
,
0010
0001
0100
0010
1000
0001
0010
0100
1000
0001
0100
0010
1000
0001
0010
0100
,
1000
0010
1010
0101
1010
0010
0101
0110
,
1010
0000
0000
0101
0000
0000
1010
0000
0110
0000
0100
0000
1001
0000
0001
0000
,
2200
0000
0000
0000
0000
0000
0000
0000
0000
0000
0000
0000
0000
0000
0000
3300
,
0001
0100
0010
1000
0001
0010
0100
1000
0001
0100
0010
1000
0001
0010
0100
1000
,
0002
0000
0000
0003
1100
0000
0100
0000
0011
0000
0001
0000
1010
0000
0110
0000
,
0010
0011
1100
1010
0110
0010
0201
0001
,
0010
0000
0001
0300
0011
0000
0100
0000
1001
0000
0100
0000
0101
0000
0011
0000
,
0001
1100
0110
0011
1001
0010
1020
0001
,
1000
0000
1000
0030
0101
0000
1000
0000
0101
0000
0010
0000
1010
0000
0021
0000
,
0001
0000
0100
0030
0101
0000
0201
0000
0010
0000
1000
0300
1001
0000
0001
0000
,
1020
0000
0100
0000
1000
0030
0201
0000
0010
0000
1000
0300
1100
0000
0001
0000
,
0210
1000
0010
0001
0010
1000
0001
1000
,
0010
0000
0010
0300
0011
0000
0010
0000
1100
0000
1000
0000
0101
0000
0110
0000
,
0100
1100
0011
0101
0110
0100
1020
1000
,
0100
0000
1000
0030
1100
0000
0010
0000
1001
0000
0010
0000
1010
0000
1100
0000
,
1000
0011
0110
1100
1001
0100
0201
1000
,
0001
0000
0001
0300
1010
0000
0001
0000
1010
0000
0100
0000
0101
0000
1200
0000
,
1000
0000
0010
0300
1010
0000
1020
0000
0100
0000
0001
0030
1001
0000
1000
0000
,
0201
0000
0010
0000
1000
0300
0012
0000
1000
0000
0103
0000
1010
0000
0100
0000
,
1002
0000
0010
0000
1000
0000
0100
0000
0010
0000
0100
0000
0010
0000
1000
0003
,
2020
0000
0000
0000
0000
0000
0000
0000
0000
0000
0000
0000
0000
0000
0000
3030
,
0202
0000
0000
0000
0000
0000
0000
0000
0000
0000
0000
0303
0022
0000
0000
0000
0000
0000
0000
0000
0000
0000
0000
0033
0220
0000
0000
0000
0000
0000
0000
0330
,
1010
0000
0000
0101
0000
0000
1100
0110
1010
0000
0000
1010
0000
0000
0110
0000
1010
0000
0000
0110
0000
0000
0101
0000
0011
0000
0000
0110
0000
0000
0110
0000
,
2002
0000
0000
0000
0000
0000
0000
0000
0000
0000
0000
0000
0000
0000
0000
0000
0000
0000
0000
0000
0000
0000
0000
0000
0000
0000
0000
0000
0000
0000
0000
3003
,
1001
0010
0100
0010
1001
0000
1001
0000
,
1001
0000
0100
0000
0010
0000
0001
0000
0010
1000
0110
0000
0001
0000
1000
0000
,
0110
0000
0010
0000
0010
0000
0100
0000
1000
0010
0101
0000
0010
0000
1000
0000
,
0011
0000
0100
0000
0010
0000
0100
0000
1000
0010
1100
0000
1000
0000
0010
0000
,
1001
0000
1000
0000
0010
0000
1000
0000
0100
0001
0110
0000
0001
0000
0010
0000
,
0011
0000
1000
0000
0100
0000
0001
0000
0100
0010
1001
0000
1000
0000
0010
0000
,
1001
0000
0010
0000
0001
0000
1000
0000
0010
0100
1001
0000
0100
0000
1000
0000
,
1100
0000
0100
0000
0001
0000
1000
0000
0010
0100
1010
0000
0010
0000
1000
0000
,
0010
0010
1000
1000
0001
0001
0010
0010
0100
0100
1000
1000
0001
0001
0010
0010
,
1100
0000
0001
0000
1000
0000
0100
0000
1000
0010
1001
0000
0100
0000
0010
0000
,
1001
0000
1000
0000
1000
0000
0001
0000
0010
1000
0101
0000
1000
0000
0010
0000
,
1100
0000
0001
0000
1000
0000
0001
0000
0010
1000
0011
0000
0010
0000
1000
0000
,
0110
0010
1000
0010
0110
0010
0110
0100
,
1000
0000
0010
0000
0100
0000
0001
0000
0000
1000
0000
0000
0001
0000
0000
0010
0000
0000
0001
0000
0000
0100
0000
0000
0010
0000
0000
1000
0000
0000
0001
0000
0000
0100
0000
0000
0001
0000
0000
0010
0000
0000
0001
0000
0000
0100
0000
0000
,
0010
0000
0100
0000
0001
0000
0100
0000
0000
0001
0000
0000
1000
0000
0000
0010
0000
0000
1000
0000
0000
0001
0000
0000
0100
0000
0000
0001
0000
0000
1000
0000
0000
0100
0000
0000
0010
0000
0000
0001
0000
0000
0100
0000
0000
0010
0000
0000
,
0100
0000
0010
0000
1000
0000
0001
0000
0000
1000
0000
0000
0100
0000
0000
1000
0000
0000
0001
0000
0000
1000
0000
0000
0010
0000
0000
0100
0000
0000
0001
0000
0000
0010
0000
0000
0100
0000
0000
1000
0000
0000
0001
0000
0000
0100
0000
0000
,
0001
0000
1000
0000
0100
0000
1000
0000
0000
0001
0000
0000
0010
0000
0000
0100
0000
0000
0010
0000
0000
0001
0000
0000
1000
0000
0000
0010
0000
0000
1000
0000
0000
0100
0000
0000
1000
0000
0000
0001
0000
0000
0100
0000
0000
0010
0000
0000
,
1000
0000
0001
0000
0010
0000
0100
0000
0000
1000
0000
0000
0100
0000
0000
1000
0000
0000
0010
0000
0000
0100
0000
0000
0001
0000
0000
1000
0000
0000
0010
0000
0000
1000
0000
0000
0100
0000
0000
1000
0000
0000
0010
0000
0000
0100
0000
0000
,
0010
0000
1000
0000
0010
0000
1000
0000
0000
0001
0000
0000
0100
0000
0000
0001
0000
0000
1000
0000
0000
0010
0000
0000
1000
0000
0000
0001
0000
0000
0010
0000
0000
0100
0000
0000
1000
0000
0000
0010
0000
0000
0100
0000
0000
0001
0000
0000
,
0010
0000
0100
0000
1000
0000
0010
0000
0000
1000
0000
0000
0100
0000
0000
1000
0000
0000
0001
0000
0000
1000
0000
0000
0010
0000
0000
0100
0000
0000
0001
0000
0000
0010
0000
0000
0100
0000
0000
1000
0000
0000
0001
0000
0000
0010
0000
0000
,
0001
0000
1000
0000
0100
0000
1000
0000
0000
0001
0000
0000
0010
0000
0000
0100
0000
0000
0010
0000
0000
0001
0000
0000
1000
0000
0000
0010
0000
0000
1000
0000
0000
0100
0000
0000
1000
0000
0000
0001
0000
0000
0010
0000
0000
0100
0000
0000
,
2002
0000
0000
0000
0000
0000
0000
3003
,
2020
0000
0000
0000
0000
0000
0000
3030
,
0110
0000
0011
0000
,
1010
1001
0101
0000
;
