#TITLE:L'erisia;
#SUBTITLE:(Primary Logic);
#ARTIST:Zektbach;
#TITLETRANSLIT:;
#SUBTITLETRANSLIT:;
#ARTISTTRANSLIT:;
#CREDIT:;
#BANNER:L'erisia.PNG;
#BACKGROUND:;
#LYRICSPATH:;
#CDTITLE:cdtitle.png;
#MUSIC:13 L'erisia(Primary Logic) -Akaki Tenshi-.ogg;
#OFFSET:-11.863;
#SAMPLESTART:30.410;
#SAMPLELENGTH:12.000;
#SELECTABLE:YES;
#BPMS:0.000=234.000,260.000=117.000,308.000=234.000,496.000=58.500;
#STOPS:;
#BGCHANGES:;
// cache tags:
#FIRSTBEAT:4.000;
#LASTBEAT:504.000;
#SONGFILENAME:Songs/SSSC Pack 2/L'erisia Primary Logic - [Patashu]/L'erisia.sm;
#HASMUSIC:1;
#HASBANNER:1;
#MUSICLENGTH:183.536;
// end cache tags

//---------------dance-single - Patashu 14th Nov 200----------------
#NOTES:
     dance-single:
     Patashu 14th Nov 200:
     Challenge:
     15:
     0.962,1.000,0.496,0.202,0.779,1108.000,91.000,37.000,24.000,3.000:



0000
0000
0000
0000
,
1000
0100
0001
0100
1000
0001
0010
0100
,
0010
0001
1000
0010
0100
1000
0100
0010
,
1000
0001
0100
0010
1000
0100
0010
0100
,
1000
0001
0100
0010
1000
0001
0010
0100
,
1000
0010
0001
0010
1000
0001
0010
0100
,
0010
0001
1000
0100
1000
0001
1000
0100
,
0010
0000
1000
0000
0010
0000
0100
0000
1000
0000
0001
1000
0100
0000
0010
0000
,
0001
0000
0100
0000
0010
0000
1000
0000
0001
1000
0001
1000
0001
0000
1000
0000
,
0001
0000
0101
0000
0000
0100
0001
0000
,
1000
0000
1010
0000
0000
0010
1000
0000
,
0100
0000
0110
0000
0000
0010
0100
0000
,
1000
0000
0000
0000
1001
0000
0000
0000
0000
0000
0001
0000
1000
0000
0001
1000
,
0001
0010
0100
0010
0001
0010
0100
1000
,
0100
0010
0001
0100
0010
1000
0001
1000
,
0010
1000
0100
0010
0001
0100
0001
1000
,
0001
0010
0100
0001
0100
1000
0010
1000
,
0001
0100
1000
0100
0001
1000
0010
0100
,
0010
0001
0010
1000
0100
0010
0001
1000
,
0010
0100
0001
0100
0010
1000
0001
1000
,
0100
0001
0100
1000
0001
0010
0100
0010
,
0001
0100
1000
0001
0010
1000
0100
0010
,
0001
1000
0100
0001
0100
1000
0010
1000
,
0100
0010
0100
0010
0001
1000
0001
0010
,
0001
0100
0010
0001
0010
0100
0001
1000
,
1001
0000
0101
0000
0000
1001
0001
0000
,
1010
0000
0110
0000
0000
1010
1000
0000
,
1100
0000
0110
0000
0000
1100
0100
0000
,
1001
0000
0110
0000
0000
1001
0010
0000
,
0101
0000
0110
0000
0000
0101
0100
0000
,
1010
0000
0011
0000
0000
1001
0001
0000
,
0110
0000
0011
0000
0000
0110
0010
0000
,
1010
0000
0101
0000
0000
1010
0001
0000
,
1000
0010
0001
0010
1000
0001
0010
0100
,
0010
0001
1000
0010
0100
1000
0100
0010
,
1000
0001
0100
0001
1000
0010
0100
0001
,
0010
0000
0001
0000
0100
0000
0010
0000
1000
0000
0001
0000
1000
0000
0001
1000
,
0001
0010
0100
0001
0100
1000
0010
0100
,
0001
1000
0100
0010
0100
1000
0010
1000
,
0001
0000
0010
0000
0100
0000
1000
0000
0100
0000
0010
0100
0010
0000
0001
0000
,
1000
0000
0010
0000
0001
0000
0010
0000
0100
0000
0001
0100
0001
0000
1000
0010
,
1000
0001
0100
0001
1000
0010
0100
0001
,
0010
0001
0100
0010
1000
0100
0001
0100
,
1000
0010
1000
0100
0010
0100
1000
0100
,
0010
0000
0001
0000
0100
0000
0010
0000
1000
0000
0001
0000
1000
0000
0001
1000
,
0100
0010
0001
1000
0010
0100
0001
1000
,
0100
1000
0010
0100
0001
1000
0010
1000
,
0100
0000
0010
0000
0001
0000
1000
0000
0001
0000
0010
0001
0010
0000
0001
0000
,
1000
0100
0010
1000
0010
0001
0100
0010
,
1001
0000
0110
0000
1000
1001
0001
0000
,
0101
0000
1010
0000
0001
0101
0100
0000
,
1100
0000
0011
0000
1000
1100
0100
0000
,
0011
0000
0000
0000
1100
0000
0000
0000
0001
0000
0011
0000
0010
0000
0100
0010
,
0100
0000
0110
0000
1000
1010
0010
0000
,
0101
0000
0110
0000
0010
1010
1000
0000
,
1100
0000
0000
0000
0110
0000
0000
0000
0010
0000
0001
1000
0001
0000
0000
0000
,
1001
0000
0110
0000
1000
1001
0001
0000
,
0000
0000
0000
0000
1000
0100
1000
0100
0010
0100
0010
0100
0010
0001
0010
0001
,
0000
0000
0000
0000
0001
0010
0001
0010
0100
0010
0100
0010
0100
1000
0100
1000
,
0000
0000
0000
0000
1000
0010
1000
0010
1000
0001
1000
0001
0100
0001
0100
0001
,
1000
0001
1000
0001
1000
0010
1000
0010
0100
0001
0100
0001
1000
0100
1000
0100
,
0000
0000
0000
0000
1000
0010
1000
0010
1000
0001
1000
0001
0100
0001
0100
0001
,
0000
0000
0000
0000
0010
0001
0010
0001
0010
0100
0010
0100
1000
0100
1000
0100
,
0000
0000
0000
0000
0100
1000
0100
1000
0100
0010
0100
0010
0001
0010
0001
0010
,
0001
1000
0001
1000
0010
0100
0001
0100
0010
1000
0001
0010
0100
1000
0001
1000
,
0001
0000
0000
0000
1000
0000
0010
0000
0100
0000
0001
0000
1000
0000
0000
0010
,
0000
1000
0001
0000
1000
0010
0000
0100
0000
0001
0010
0000
0100
0000
0000
0000
,
2000
0100
0000
0100
0000
0002
0003
0002
0003
0010
0000
0010
0000
0002
0003
0002
,
0003
0000
0000
0000
0010
0000
0000
0000
0000
0000
0000
0000
0010
0000
0000
0000
0000
0000
0000
0000
0002
0000
0000
0000
0003
0000
0000
0000
0002
0000
0000
0000
0003
0000
0000
0000
0100
0000
0000
0000
0000
0000
0000
0000
0100
0000
0000
0000
0000
0000
0000
0000
0020
0000
0000
0000
0030
0000
0000
0000
3020
0000
0000
0030
,
0002
0000
0000
0000
0100
0000
0000
0000
0000
0000
0000
0000
0100
0000
0000
0000
0000
0000
0000
0000
2000
0000
0000
0000
3000
0000
0000
0000
2000
0000
0000
0000
3000
0000
0000
0000
0100
0000
0000
0000
0000
0000
0000
0000
0100
0000
0000
0000
0000
0000
0000
0000
0020
0000
0000
0000
0030
0000
0000
0000
0023
0000
0000
0030
,
2000
0000
0000
0000
0100
0000
0000
0000
0000
0000
0000
0000
0100
0000
0000
0000
0000
0000
0000
0000
0020
0000
0000
0000
0030
0000
0000
0000
0020
0000
0000
0000
0030
0000
0000
0000
0001
0000
0000
0000
0000
0000
0000
0000
3001
0000
0000
0000
0200
0000
0000
0000
0020
0000
0000
0000
0030
0000
0000
0000
0020
0000
0000
0030
,
0301
1000
0000
1000
1000
0100
0100
0010
0001
1000
0000
1000
1000
0100
0100
0010
,
0001
1000
0000
1000
1000
0100
0100
0010
0001
1000
0000
1000
1000
0100
0100
0010
,
1002
0000
01M0
0000
0000
1M00
0000
0000
M100
0000
0000
0000
0000
0M10
0000
0000
,
01M0
0000
1M00
0000
0000
M100
0000
0000
0M10
0000
0000
0000
0000
M010
0003
0000
,
2M02
0000
0M10
0000
0000
0M10
0000
0000
0M10
0000
0000
0000
3000
0M10
0000
0000
,
M103
0000
0000
0000
001M
0000
0000
0000
1000
0000
00M1
0100
0000
0000
0000
0000
0M10
0000
0000
0000
1M00
0000
00M1
0000
0000
0000
0M01
0000
0000
0000
M001
0000
,
MM11
0010
0000
0110
0000
1100
0000
2002
,
0000
3003
0000
0202
0000
0303
0000
0011
,
0000
0101
0000
1010
0010
0100
0001
0010
,
0011
0001
1000
1100
0000
1001
0022
0000
,
0000
0033
0011
0110
0000
1100
0000
0000
,
1010
0000
0000
0101
0000
1000
0100
0010
,
0001
0000
1000
0000
0010
0000
1000
0000
0100
0000
0010
0001
1000
0000
0001
0000
,
0100
0010
1000
0000
0000
0110
2002
0000
,
3003
2020
3030
1000
1100
0100
0000
0220
,
0330
0010
0001
1001
1000
0010
0100
0010
,
1010
1001
0000
0011
0010
0110
0000
1100
,
1000
0010
0100
0101
0000
1001
0202
0000
,
0000
0303
0001
0010
0100
0010
0001
0010
,
0000
0100
1000
0100
0010
0100
1000
0100
,
0010
0000
0100
0000
0010
0000
0001
0000
1000
0001
1000
0001
1000
0010
0100
0001
,
0100
0010
1000
0001
0100
0010
1000
0001
0010
0100
1000
0100
0010
0100
1000
0001
,
0010
0001
0010
0100
0010
0100
1000
0100
0010
0001
1000
0001
0100
0010
1000
0001
,
1000
0100
1000
0001
0100
0001
0100
0001
1000
0010
1000
0001
0010
0100
0010
0001
,
0010
0100
1000
0100
0010
0100
1000
0001
0100
0001
1000
0010
1000
0001
0100
0010
,
1000
0100
1000
0001
1000
0010
1000
0100
0010
0100
0010
0001
0010
0001
1000
0001
,
0010
0001
0100
0010
0100
0010
1000
0010
1000
0001
1000
0100
1000
0001
0010
0100
,
1000
0100
0010
0001
1000
0001
0100
0010
1000
0010
0100
0001
1000
0100
0010
0001
,
1000
0001
0010
0100
1000
0100
1000
0001
1000
0001
0100
0001
1000
0010
1000
0001
,
0010
0001
1000
0010
1000
0001
0010
0100
1000
0001
0100
0010
1000
0010
0100
0001
,
1000
0100
0100
0010
0001
1000
1000
0001
,
0100
0001
1000
0001
1000
0010
1000
0100
,
1000
0010
0100
1000
0100
0010
1000
0001
,
0010
0100
0010
0001
1000
0001
1000
0010
,
0100
0001
1000
0100
0010
0001
1000
0001
,
0010
0100
1000
0001
0100
0010
1000
0010
,
0100
0001
1000
0010
0100
0010
1000
0010
,
0100
0001
1000
0001
1000
0010
1000
0100
,
1000
0010
0110
0100
0001
1000
1001
0001
,
0010
0001
1001
1000
0010
0100
0101
0001
,
1000
0001
0011
0010
0100
1000
1010
0010
,
0100
0000
0001
0000
0101
0000
0100
0000
0010
0000
1000
0000
1010
0000
0010
1000
,
0001
0010
0100
1000
0001
0100
1000
0100
,
0001
0100
0010
1000
0100
0010
0001
0001
,
0100
0001
1000
0001
0100
0010
1000
0010
,
0100
0010
1000
0001
0100
0010
1000
0001
,
1000
0001
1000
0001
0100
0010
0100
0010
1000
0010
1000
0010
0100
0001
0100
0001
,
1000
0100
0010
0100
0010
0001
1000
0001
1000
0010
1000
0001
0010
0001
1000
0010
,
0100
0001
0100
0001
1000
0100
0010
0001
0010
0100
1000
0001
0010
0100
1000
0100
,
0010
0001
1000
0001
1000
0100
0010
0100
0010
0001
1000
0100
0010
0001
0010
0001
,
1000
0010
0100
0001
1000
0010
0100
0001
0010
0100
0010
0001
0010
0100
0010
0001
,
1000
0010
1000
0001
1000
0010
1000
0001
0100
0010
1000
0010
0100
0010
1000
0010
,
0100
0001
0010
0100
1000
0001
0100
0010
1000
0100
0010
0001
0010
0100
1000
0001
,
0010
0000
1000
0100
0010
0000
1000
0100
0010
0000
0001
0000
0000
0000
0000
0000
0000
0000
1000
0100
0010
0000
1000
0100
0010
0100
1000
0100
0000
0000
0000
0000
,
0010
0000
1000
0100
0010
0000
1000
0100
0010
0000
0001
0000
0000
0000
0000
0000
0000
0000
1000
0100
0010
0000
1000
0100
0010
0100
1000
0100
0000
0000
0000
0000
,
0010
0000
0000
0000
;

//---------------dance-single - 12thz version----------------
#NOTES:
     dance-single:
     12thz version:
     Hard:
     13:
     0.890,1.000,0.496,0.202,0.779,1016.000,91.000,37.000,24.000,3.000:





0000
0000
0000
0000
,
1000
0100
0001
0100
1000
0001
0010
0100
,
0010
0001
1000
0010
0100
1000
0100
0010
,
1000
0001
0100
0010
1000
0100
0010
0100
,
1000
0001
0100
0010
1000
0001
0010
0100
,
1000
0010
0001
0010
1000
0001
0010
0100
,
0010
0001
1000
0100
1000
0001
1000
0100
,
0010
0000
1000
0000
0010
0000
0100
0000
1000
0000
0001
1000
0100
0000
0010
0000
,
0001
0000
0100
0000
0010
0000
1000
0000
0001
1000
0001
1000
0001
0000
1000
0000
,
0001
0000
0101
0000
0000
0100
0001
0000
,
1000
0000
1010
0000
0000
0010
1000
0000
,
0100
0000
0110
0000
0000
0010
0100
0000
,
0001
0000
0000
0000
1001
0000
0000
0000
0000
0000
0001
0000
1000
0000
0001
1000
,
0001
0010
0100
0010
0001
0010
0100
1000
,
0100
0010
0001
0100
0010
1000
0001
1000
,
0010
1000
0100
0010
0001
0100
0001
1000
,
0001
0010
0100
0001
0100
1000
0010
1000
,
0001
0100
1000
0100
0001
1000
0010
0100
,
0010
0001
0010
1000
0100
0010
0001
1000
,
0010
0100
0001
0100
0010
1000
0001
1000
,
0100
0001
0100
1000
0001
0010
0100
0010
,
0001
0100
1000
0001
0010
1000
0100
0010
,
0001
1000
0100
0001
0100
1000
0010
1000
,
0100
0010
0100
0010
0001
1000
0001
0010
,
0001
0100
0010
0001
0010
0100
0001
1000
,
1001
0000
0101
0000
0000
1001
0001
0000
,
1010
0000
0110
0000
0000
1010
1000
0000
,
1100
0000
0110
0000
0000
1100
0100
0000
,
1001
0000
0110
0000
0000
1001
0010
0000
,
0101
0000
0110
0000
0000
0101
0100
0000
,
1010
0000
0011
0000
0000
1010
0010
0000
,
0110
0000
0011
0000
0000
0110
0010
0000
,
1010
0000
0101
0000
0000
1010
0001
0000
,
1000
0010
0001
0010
1000
0001
0010
0100
,
0010
0001
1000
0010
0100
1000
0100
0010
,
1000
0001
0100
0001
1000
0010
0100
0001
,
0010
0000
0001
0000
0100
0000
0010
0000
1000
0000
0001
0000
1000
0000
0001
1000
,
0001
0010
0100
0001
0100
1000
0010
0100
,
0001
1000
0100
0010
0100
1000
0010
1000
,
0001
0000
0010
0000
0100
0000
1000
0000
0100
0000
0010
0100
0010
0000
0001
0000
,
1000
0000
0010
0000
0001
0000
0010
0000
0100
0000
0001
0100
0001
0000
1000
0010
,
1000
0001
0100
0001
1000
0010
0100
0001
,
0010
0001
0100
0010
1000
0100
0001
0100
,
1000
0010
1000
0100
0010
0100
1000
0100
,
0010
0000
0001
0000
0100
0000
0010
0000
1000
0000
0001
0000
1000
0000
0001
1000
,
0100
0010
0001
1000
0010
0100
0001
1000
,
0100
1000
0010
0100
0001
1000
0010
1000
,
0100
0000
0010
0000
0001
0000
1000
0000
0001
0000
0010
0001
0010
0000
0001
0000
,
1000
0100
0010
1000
0010
0001
0100
0010
,
1001
0000
0110
0000
1000
1001
0001
0000
,
0101
0000
1010
0000
0001
0101
0100
0000
,
1100
0000
0011
0000
1000
1100
0100
0000
,
0011
0000
0000
0000
1100
0000
0000
0000
0001
0000
0011
0000
0010
0000
0100
0010
,
0100
0000
0110
0000
1000
1010
0010
0000
,
0101
0000
0110
0000
0010
1010
1000
0000
,
1100
0000
0000
0000
0110
0000
0000
0000
0010
0000
0001
1000
0001
0000
0000
0000
,
1001
0000
0110
0000
1000
1001
0001
0000
,
0000
0000
0000
1000
0100
1000
0100
0010
0100
0010
0001
0010
,
0000
0000
0000
0001
0010
0001
0010
0100
0010
0100
1000
0100
,
0000
0000
0000
1000
0010
1000
0001
1000
0001
0100
0001
0100
,
0001
0010
0100
1000
0001
0100
0010
1000
0001
0010
0100
1000
,
0000
0000
0000
1000
0010
1000
0001
1000
0001
0100
0001
0100
,
0000
0000
0000
0010
0001
0010
0100
0010
0100
1000
0100
1000
,
0000
0000
0000
0100
1000
0100
0010
0100
0010
0001
0010
0001
,
1000
0010
0100
0001
0010
0100
1000
0010
0100
0001
0100
0010
,
1000
0000
0000
0000
0001
0000
0100
0000
0010
0000
1000
0000
0001
0000
0000
0100
,
0000
0001
1000
0000
0001
0100
0000
0010
0000
1000
0100
0000
0010
0000
0000
0000
,
2000
0100
0000
0100
0000
0002
0003
0002
0003
0010
0000
0010
0000
0002
0003
0002
,
0003
0000
0000
0000
0010
0000
0000
0000
0000
0000
0000
0000
0010
0000
0000
0000
0000
0000
0000
0000
0002
0000
0000
0000
0003
0000
0000
0000
0002
0000
0000
0000
0003
0000
0000
0000
0100
0000
0000
0000
0000
0000
0000
0000
0100
0000
0000
0000
0000
0000
0000
0000
0020
0000
0000
0000
0030
0000
0000
0000
3020
0000
0000
0030
,
0002
0000
0000
0000
0100
0000
0000
0000
0000
0000
0000
0000
0100
0000
0000
0000
0000
0000
0000
0000
2000
0000
0000
0000
3000
0000
0000
0000
2000
0000
0000
0000
3000
0000
0000
0000
0100
0000
0000
0000
0000
0000
0000
0000
0100
0000
0000
0000
0000
0000
0000
0000
0020
0000
0000
0000
0030
0000
0000
0000
0023
0000
0000
0030
,
2000
0000
0000
0000
0100
0000
0000
0000
0000
0000
0000
0000
0100
0000
0000
0000
0000
0000
0000
0000
0020
0000
0000
0000
0030
0000
0000
0000
0020
0000
0000
0000
0030
0000
0000
0000
0001
0000
0000
0000
0000
0000
0000
0000
3001
0000
0000
0000
0200
0000
0000
0000
0020
0000
0000
0000
0030
0000
0000
0000
0020
0000
0000
0030
,
0301
1000
0000
1000
1000
0100
0100
0010
0001
1000
0000
1000
1000
0100
0100
0010
,
0001
1000
0000
1000
1000
0100
0100
0010
0001
1000
0000
1000
1000
0100
0100
0010
,
1002
0000
01M0
0000
0000
1M00
0000
0000
M100
0000
0000
0000
0000
0M10
0000
0000
,
01M0
0000
1M00
0000
0000
M100
0000
0000
0M10
0000
0000
0000
0000
M010
0003
0000
,
2M02
0000
0M10
0000
0000
0M10
0000
0000
0M10
0000
0000
0000
3000
0M10
0000
0000
,
M103
0000
0000
0000
001M
0000
0000
0000
1000
0000
00M1
0100
0000
0000
0000
0000
0M10
0000
0000
0000
1M00
0000
00M1
0000
0000
0000
0M01
0000
0000
0000
M001
0000
,
MM11
0010
0000
0110
0000
1100
0000
2002
,
0000
3003
0000
0202
0000
0303
0000
0011
,
0000
0101
0000
1010
0010
0100
0001
0010
,
0011
0001
1000
1100
0000
1001
0022
0000
,
0000
0033
0011
0110
0000
1100
0000
0000
,
1010
0000
0000
0101
0000
1000
0100
0010
,
0001
0000
1000
0000
0010
0000
1000
0000
0100
0000
0010
0001
1000
0000
0001
0000
,
0100
0010
1000
0000
0000
0110
2002
0000
,
3003
2020
3030
1000
1001
0001
0000
0220
,
0330
0010
0001
1001
1000
0010
0100
0010
,
1010
1001
0000
0011
0010
0110
0000
1100
,
1000
0010
0100
0101
0000
1001
0202
0000
,
0000
0303
0001
0010
0100
0010
0001
0010
,
0000
0100
1000
0100
0010
0100
1000
0100
,
0010
0000
0000
0100
0000
0000
0010
0000
0000
0001
0000
0000
1000
0000
0001
0000
1000
0000
0001
0000
0100
0000
0010
0000
,
1000
0100
0010
0100
1000
0100
0010
0001
0100
0010
1000
0001
,
0010
0001
0100
0010
0100
0010
1000
0010
1000
0100
1000
0010
,
0100
0001
0010
0001
0100
0001
0100
0010
1000
0010
0100
0001
,
0010
0001
0100
0010
1000
0001
0010
0100
0010
0100
1000
0010
,
1000
0100
0010
0100
0010
0001
1000
0010
0100
0001
1000
0001
,
0010
0001
0100
0010
1000
0010
0100
0001
0010
0100
1000
0100
,
1000
0010
1000
0001
0100
0010
0100
0001
0010
0001
0100
0001
,
1000
0001
0100
0010
1000
0001
0010
0100
1000
0001
1000
0010
,
1000
0100
0010
0001
0010
0100
0010
0001
1000
0100
0010
0001
,
1000
0100
0100
0010
0001
1000
1000
0001
,
0100
0001
1000
0001
1000
0010
1000
0100
,
1000
0010
0100
1000
0100
0010
1000
0001
,
0010
0100
0010
0001
1000
0001
1000
0010
,
0100
0001
1000
0100
0010
0001
1000
0001
,
0010
0100
1000
0001
0100
0010
1000
0010
,
0100
0001
1000
0010
0100
0010
1000
0010
,
0100
0001
1000
0001
1000
0010
1000
0100
,
1000
0010
0110
0100
0001
1000
1001
0001
,
0010
0001
1001
1000
0010
0100
0101
0001
,
1000
0001
0011
0010
0100
1000
1010
0010
,
0100
0000
0001
0000
0101
0000
0100
0000
0010
0000
1000
0000
1010
0000
0010
1000
,
0001
0010
0100
1000
0001
0100
1000
0100
,
0001
0100
0010
1000
0100
0010
1000
0010
,
0100
0001
1000
0001
0100
0010
1000
0010
,
0100
0010
1000
0001
0100
0010
1000
0010
,
1000
0001
1000
0010
0100
0010
1000
0010
1000
0001
0100
0001
,
1000
0010
0100
0001
1000
0100
1000
0010
0100
0001
0010
0001
,
0100
0010
0100
0001
0010
0100
1000
0010
1000
0100
0010
0100
,
0010
0001
1000
0010
0100
0001
1000
0100
0010
0001
1000
0001
,
0100
0010
0100
0001
0100
0010
1000
0100
1000
0001
1000
0100
,
1000
0001
0010
0001
1000
0001
0010
0100
0010
0001
0010
0100
,
0010
0001
1000
0100
1000
0010
0100
0001
1000
0100
0010
0001
,
0010
0000
1000
0100
0010
0000
1000
0100
0010
0000
0001
0000
0000
0000
0000
0000
0000
0000
1000
0100
0010
0000
1000
0100
0010
0100
1000
0100
0000
0000
0000
0000
,
0010
0000
1000
0100
0010
0000
1000
0100
0010
0000
0001
0000
0000
0000
0000
0000
0000
0000
1000
0100
0010
0000
1000
0100
0010
0100
1000
0100
0000
0000
0000
0000
,
0010
0000
0000
0000
;
