#TITLE:Stronger;
#SUBTITLE:Sexuality Violation;
#ARTIST:Kelly Clarkson;
#TITLETRANSLIT:;
#SUBTITLETRANSLIT:;
#ARTISTTRANSLIT:;
#CREDIT:;
#BANNER:Stronger-bn.png;
#BACKGROUND:Stronger-bg.png;
#LYRICSPATH:;
#CDTITLE:GazeboCD.png;
#MUSIC:Stronger.ogg;
#OFFSET:-0.809;
#SAMPLESTART:42.217;
#SAMPLELENGTH:16.555;
#SELECTABLE:YES;
#BPMS:0.000=232.000;
#STOPS:;
#BGCHANGES:;
// cache tags:
#FIRSTBEAT:32.000;
#LASTBEAT:839.500;
#SONGFILENAME:Songs/Sexuality Violation 2/Stronger - [Gazebo]/Stronger.sm;
#HASMUSIC:1;
#HASBANNER:1;
#MUSICLENGTH:220.839;
// end cache tags

//---------------dance-single - Gazebo----------------
#NOTES:
     dance-single:
     Gazebo:
     Challenge:
     20:
     1.000,1.000,0.000,0.312,1.000,2594.000,0.000,69.000,0.000,0.000:
0000
0000
0000
0000
,
0000
0000
0000
0000
,
0000
0000
0000
0000
,
0000
0000
0000
0000
,
0000
0000
0000
0000
,
0000
0000
0000
0000
,
0000
0000
0000
0000
,
0000
0000
0000
0000
,
1000
0100
1000
0001
1000
0100
1000
0001
,
1000
0100
1000
0001
1000
0100
1000
0001
,
0100
0010
0100
0001
0100
0010
0100
0001
,
0100
0010
0100
0001
0010
0100
0010
0001
,
1000
0010
1000
0001
1000
0010
1000
0001
,
1000
0010
1000
0001
1000
0010
1000
0001
,
0010
0100
0010
0001
0010
0100
0010
0001
,
0010
0100
0010
0001
0010
0100
0010
0001
,
1000
0010
1000
0001
1000
0010
1000
0001
,
1000
0010
1000
0001
1000
0010
1000
0001
,
0010
0100
0010
0001
0010
0100
0010
0001
,
0010
0100
0010
0001
0100
0010
0100
0001
,
1000
0100
1000
0001
1000
0100
1000
0001
,
1000
0100
1000
0001
1000
0100
1000
0001
,
0100
0010
0100
0001
0100
0010
0100
0001
,
0100
0010
0100
0001
0100
0010
0100
0001
,
1000
0100
0010
0001
0100
0001
0010
0001
,
0100
0010
1000
0100
1000
0001
1000
0100
,
0010
0001
0100
0010
1000
0100
0010
0100
,
1000
0010
0100
0001
0010
0001
1000
0001
,
0100
0010
1000
0100
0010
0100
1000
0010
,
0100
0001
0010
0001
0100
0001
1000
0001
,
0010
0100
1000
0100
0010
0001
0100
0001
,
1000
0010
1000
0100
0010
0001
0100
0001
,
1000
0010
0100
0001
0010
0001
0100
0001
,
0010
0100
1000
0010
1000
0001
1000
0010
,
0100
0001
0010
0100
1000
0010
0100
0010
,
1000
0100
0010
0001
0100
0001
1000
0001
,
0010
0100
1000
0010
0100
0010
1000
0100
,
0010
0001
0100
0001
0010
0001
1000
0001
,
0100
0010
1000
0010
0100
0001
0010
0001
,
1000
0100
1000
0010
0100
0001
0010
0001
,
0100
0000
0000
0000
0000
0000
0000
0000
0000
0000
0000
0000
0000
0000
0000
0000
0002
0000
0000
0000
0000
0000
0000
0000
0000
0000
0000
0000
0000
0000
0000
0003
0002
0000
0000
0000
0000
0000
0000
0000
0000
0000
0000
0000
0000
0000
0000
0003
0002
0000
0000
0000
0000
0000
0000
0000
0000
0000
0000
0000
0000
0000
0000
0000
,
2003
3200
0320
0032
,
1003
0100
1000
0100
0010
0001
1000
0001
0100
0010
0100
0010
1000
0001
0100
0001
,
1000
0100
0010
0001
0010
0001
1000
0001
0100
0010
0100
0001
1000
0010
0100
0001
,
1000
0100
1000
0100
0010
0001
1000
0001
0100
0010
0100
0010
1000
0001
0100
0001
,
1000
0100
0010
0001
0010
0001
1000
0001
0100
0010
0100
0001
1000
0010
0100
0001
,
1000
0100
1000
0100
0010
0001
1000
0001
0100
0001
0100
0010
1000
0100
0010
0001
,
1000
0001
0010
0001
0010
0100
1000
0001
1000
0001
0100
0010
1000
0001
0100
0001
,
1000
0100
1000
0100
0010
0001
1000
0001
1000
0100
1000
0100
0010
0001
1000
0001
,
0100
0010
0100
0001
1000
0010
0100
0001
0010
0100
0010
0001
1000
0100
0010
0001
,
1000
0010
1000
0010
0100
0001
1000
0001
0010
0100
0010
0100
1000
0001
0010
0001
,
1000
0010
0100
0001
0100
0001
1000
0001
0010
0100
0010
0001
1000
0100
0010
0001
,
1000
0010
1000
0010
0100
0001
1000
0001
0010
0100
0010
0100
1000
0001
0010
0001
,
1000
0010
0100
0001
0100
0001
1000
0001
0010
0100
0010
0001
1000
0100
0010
0001
,
1000
0010
1000
0010
0100
0001
1000
0001
0010
0001
0010
0100
1000
0010
0100
0001
,
1000
0001
0100
0001
0100
0010
1000
0001
1000
0001
0010
0100
1000
0001
0010
0001
,
1000
0010
1000
0010
0100
0001
1000
0001
1000
0010
1000
0010
0100
0001
1000
0001
,
0010
0100
0010
0001
1000
0100
0010
0001
0100
0010
0100
0001
1000
0010
0100
0001
,
1000
0100
1000
0100
0010
0001
0010
0001
0100
0010
1000
0010
1000
0001
0100
0010
,
1000
0001
0010
0100
0010
0001
1000
0100
1000
0100
0010
0001
0100
0010
1000
0010
,
1000
0001
0100
0001
1000
0001
1000
0010
1000
0001
0010
0100
0010
0001
1000
0001
,
1000
0100
0010
0001
0010
0001
1000
0001
0100
0010
0100
0001
1000
0010
1000
0001
,
1000
0001
0010
0100
1000
0100
1000
0001
0100
0010
0100
0001
1000
0010
0100
0010
,
1000
0001
1000
0001
0010
0100
0010
0001
1000
0001
1000
0100
0010
0001
1000
0001
,
1000
0010
1000
0010
0100
0001
1000
0001
1000
0010
1000
0010
0100
0001
1000
0001
,
0010
0100
0010
0001
1000
0100
0010
0001
0100
0010
0100
0001
1000
0010
0100
0001
,
1000
0010
1000
0010
0100
0001
1000
0001
0010
0100
0010
0100
1000
0001
0010
0001
,
1000
0010
0100
0001
0100
0001
1000
0001
0010
0100
0010
0001
1000
0100
0010
0001
,
1000
0010
1000
0010
0100
0001
1000
0001
0010
0100
0010
0100
1000
0001
0010
0001
,
1000
0010
0100
0001
0100
0001
1000
0001
0010
0100
0010
0001
1000
0100
0010
0001
,
1000
0010
1000
0010
0100
0001
1000
0001
0010
0001
0010
0100
1000
0010
0100
0001
,
1000
0001
0100
0001
0100
0010
1000
0001
1000
0001
0010
0100
1000
0001
0010
0001
,
1000
0010
1000
0010
0100
0001
1000
0001
1000
0010
1000
0010
0100
0001
1000
0001
,
1000
0000
0010
0000
0010
0000
0010
0100
,
0001
0010
0100
1000
0010
1000
0100
1000
,
0010
0100
0001
0010
0001
1000
0001
0010
,
0100
1000
0010
0100
0001
0010
0100
0010
,
0001
0100
0010
1000
0100
1000
0001
1000
,
0010
0100
0001
0010
0100
0010
0001
0100
,
0010
1000
0100
1000
0010
1000
0001
1000
,
0100
0010
0001
0010
0100
1000
0010
1000
,
0001
0100
0001
0010
0100
1000
0010
1000
,
0001
0100
0010
1000
0100
1000
0010
1000
,
0100
0010
0001
0100
0001
1000
0001
0100
,
0010
1000
0100
0010
0001
0100
0010
0100
,
0001
0010
0100
1000
0010
1000
0001
1000
,
0100
0010
0001
0100
0010
0100
0001
0010
,
0100
1000
0010
1000
0100
1000
0001
1000
,
0010
0100
0001
0100
0010
1000
0100
1000
,
0001
0010
0001
0100
0010
1000
0100
1000
,
0001
0100
0010
1000
0100
1000
0010
1000
,
0100
0010
0001
0100
0001
1000
0001
0100
,
0010
1000
0100
0010
0001
0100
0010
0100
,
0001
0010
0100
1000
0010
1000
0001
1000
,
0100
0010
0001
0100
0010
0100
0001
0010
,
0100
1000
0010
1000
0001
1000
0100
1000
,
0001
0000
0000
0000
0000
0000
0000
0000
0000
0000
0000
0000
0000
0000
0000
0000
2000
0000
0000
0000
0000
0000
0000
0000
0000
0000
0000
0000
0000
0000
0000
3000
2000
0000
0000
0000
0000
0000
0000
0000
0000
0000
0000
0000
0000
0000
0000
3000
2000
0000
0000
0000
0000
0000
0000
0000
0000
0000
0000
0000
0000
0000
0000
0000
,
3002
0203
0320
2030
,
3001
0100
0001
0100
0010
1000
0001
1000
0100
0010
0100
0010
0001
1000
0100
1000
,
0001
0100
0010
1000
0010
1000
0001
1000
0100
0010
0100
1000
0001
0010
0100
1000
,
0001
0100
0001
0100
0010
1000
0001
1000
0100
0010
0100
0010
0001
1000
0100
1000
,
0001
0100
0010
1000
0010
1000
0001
1000
0100
0010
0100
1000
0001
0010
0100
1000
,
0001
0100
0001
0100
0010
1000
0001
1000
0100
1000
0100
0010
0001
0100
0010
1000
,
0001
1000
0010
1000
0010
0100
0001
1000
0001
1000
0100
0010
0001
1000
0100
1000
,
0001
0100
0001
0100
0010
1000
0001
1000
0001
0100
0001
0100
0010
1000
0001
1000
,
0100
0010
0100
1000
0001
0010
0100
1000
0010
0100
0010
1000
0001
0100
0010
1000
,
0001
0010
0001
0010
0100
1000
0001
1000
0010
0100
0010
0100
0001
1000
0010
1000
,
0001
0010
0100
1000
0100
1000
0001
1000
0010
0100
0010
1000
0001
0100
0010
1000
,
0001
0010
0001
0010
0100
1000
0001
1000
0010
0100
0010
0100
0001
1000
0010
1000
,
0001
0010
0100
1000
0100
1000
0001
1000
0010
0100
0010
1000
0001
0100
0010
1000
,
0001
0010
0001
0010
0100
1000
0001
1000
0010
1000
0010
0100
0001
0010
0100
1000
,
0001
1000
0100
1000
0100
0010
0001
1000
0001
1000
0010
0100
0001
1000
0010
1000
,
0001
0010
0001
0010
0100
1000
0001
1000
0001
0010
0001
0010
0100
1000
0001
1000
,
0010
0100
0010
1000
0001
0100
0010
1000
0100
0010
0100
1000
0001
0010
0100
1000
,
0001
0100
0001
0100
0010
1000
0010
1000
0100
0010
0001
0010
0001
1000
0100
0010
,
0001
1000
0010
0100
0010
1000
0001
0100
0001
0100
0010
1000
0100
0010
0001
0010
,
0001
1000
0100
1000
0001
1000
0001
0010
0001
1000
0010
0100
0010
1000
0001
1000
,
0001
0100
0010
1000
0010
1000
0001
1000
0100
0010
0100
1000
0001
0010
0001
1000
,
0001
1000
0010
0100
0001
0100
0001
1000
0100
0010
0100
1000
0001
0010
0100
0010
,
0001
1000
0001
1000
0010
0100
0010
1000
0001
1000
0001
0100
0010
1000
0001
1000
,
0001
0010
0001
0010
0100
1000
0001
1000
0001
0010
0001
0010
0100
1000
0001
1000
,
0010
0100
0010
1000
0001
0100
0010
1000
0100
0010
0100
1000
0001
0010
0100
1000
,
0001
0010
0001
0010
0100
1000
0001
1000
0010
0100
0010
0100
0001
1000
0010
1000
,
0001
0010
0100
1000
0100
1000
0001
1000
0010
0100
0010
1000
0001
0100
0010
1000
,
0001
0010
0001
0010
0100
1000
0001
1000
0010
0100
0010
0100
0001
1000
0010
1000
,
0001
0010
0100
1000
0100
1000
0001
1000
0010
0100
0010
1000
0001
0100
0010
1000
,
0001
0010
0001
0010
0100
1000
0001
1000
0010
1000
0010
0100
0001
0010
0100
1000
,
0001
1000
0100
1000
0100
0010
0001
1000
0001
1000
0010
0100
0001
1000
0010
1000
,
0001
0010
0001
0010
0100
1000
0001
1000
0001
0010
0001
0010
0100
1000
0001
1000
,
0001
0000
0010
0000
0010
0000
0010
0001
,
1000
0100
1000
0100
0010
0001
1000
0001
0100
0010
1000
0001
0100
0001
0100
0010
,
1000
0100
1000
0001
0010
0001
1000
0100
1000
0001
0100
0001
0100
0010
1000
0001
,
1000
0100
1000
0100
0010
0001
1000
0001
0100
0010
1000
0001
0100
0001
0100
0010
,
1000
0100
1000
0001
0010
0001
1000
0100
1000
0001
0100
0001
0100
0010
1000
0001
,
0010
0001
0010
0100
1000
0001
1000
0001
0100
0010
1000
0001
0100
0001
0100
0010
,
1000
0001
1000
0100
0010
0001
0010
0001
1000
0010
0100
0001
0100
0001
1000
0001
,
1000
0100
0010
0001
0010
0001
1000
0001
1000
0010
0100
0001
0100
0001
1000
0001
,
1000
0100
0010
0001
0010
0001
1000
0001
1000
0010
0100
0001
0100
0001
1000
0001
,
0010
0001
0010
0100
1000
0001
1000
0001
0100
0010
1000
0001
0100
0001
0100
0010
,
1000
0001
1000
0100
0010
0001
0010
0001
1000
0010
0100
0001
0100
0001
1000
0001
,
1000
0100
0010
0001
0010
0001
1000
0001
1000
0010
0100
0001
0100
0001
1000
0001
,
1000
0100
1000
0100
0010
0001
1000
0100
1000
0001
0010
0001
1000
0100
0010
0001
,
0100
0001
1000
0010
1000
0001
0100
0001
0100
0010
1000
0001
1000
0001
0100
0010
,
1000
0001
0010
0001
1000
0100
0010
0100
1000
0001
0010
0001
0010
0100
1000
0001
,
1000
0001
0100
0010
1000
0010
1000
0001
0100
0010
0100
0001
1000
0010
0100
0001
,
1000
0001
0010
0001
1000
0100
1000
0100
0010
0001
1000
0001
1000
0100
0010
0001
,
2000
3200
0320
0032
2003
3200
0320
0032
,
2003
3200
0320
0032
2003
3200
0320
0032
,
2003
3020
0230
0302
2003
3020
0230
0302
,
2003
3020
0230
0302
2003
3020
0230
0302
,
2003
3200
2300
3020
2030
3200
2300
3020
,
0230
0302
0023
0032
0203
0302
0023
0230
,
1300
0000
0000
0000
0000
0000
0000
0000
0000
0000
0000
0000
0000
0000
0000
0000
0002
0000
0000
0000
0000
0000
0000
0000
0000
0000
0000
0000
0000
0000
0000
0003
0002
0000
0000
0000
0000
0000
0000
0000
0000
0000
0000
0000
0000
0000
0000
0003
0002
0000
0000
0000
0000
0000
0000
0000
0000
0000
0000
0000
0000
0000
0000
0000
,
2003
3200
0320
0032
,
1003
0100
1000
0100
0010
0001
1000
0001
0100
0010
0100
0010
1000
0001
0100
0001
,
1000
0100
0010
0001
0010
0001
1000
0001
0100
0010
0100
0001
1000
0010
0100
0001
,
1000
0100
1000
0100
0010
0001
1000
0001
0100
0010
0100
0010
1000
0001
0100
0001
,
1000
0100
0010
0001
0010
0001
1000
0001
0100
0010
0100
0001
1000
0010
0100
0001
,
1000
0100
1000
0100
0010
0001
1000
0001
0100
0001
0100
0010
1000
0100
0010
0001
,
1000
0001
0010
0001
0010
0100
1000
0001
1000
0001
0100
0010
1000
0001
0100
0001
,
1000
0100
1000
0100
0010
0001
1000
0001
1000
0100
1000
0100
0010
0001
1000
0001
,
0100
0010
0100
0001
1000
0010
0100
0001
0010
0100
0010
0001
1000
0100
0010
0001
,
1000
0010
1000
0010
0100
0001
1000
0001
0010
0100
0010
0100
1000
0001
0010
0001
,
1000
0010
0100
0001
0100
0001
1000
0001
0010
0100
0010
0001
1000
0100
0010
0001
,
1000
0010
1000
0010
0100
0001
1000
0001
0010
0100
0010
0100
1000
0001
0010
0001
,
1000
0010
0100
0001
0100
0001
1000
0001
0010
0100
0010
0001
1000
0100
0010
0001
,
1000
0010
1000
0010
0100
0001
1000
0001
0010
0001
0010
0100
1000
0010
0100
0001
,
1000
0001
0100
0001
0100
0010
1000
0001
1000
0001
0010
0100
1000
0001
0010
0001
,
1000
0010
1000
0010
0100
0001
1000
0001
1000
0010
1000
0010
0100
0001
1000
0001
,
0010
0100
0010
0001
1000
0100
0010
0001
0100
0010
0100
0001
1000
0010
0100
0001
,
1000
0100
1000
0100
0010
0001
0010
0001
0100
0010
1000
0010
1000
0001
0100
0010
,
1000
0001
0010
0100
0010
0001
1000
0100
1000
0100
0010
0001
0100
0010
1000
0010
,
1000
0001
0100
0001
1000
0001
1000
0010
1000
0001
0010
0100
0010
0001
1000
0001
,
1000
0100
0010
0001
0010
0001
1000
0001
0100
0010
0100
0001
1000
0010
1000
0001
,
1000
0001
0010
0100
1000
0100
1000
0001
0100
0010
0100
0001
1000
0010
0100
0010
,
1000
0001
1000
0001
0010
0100
0010
0001
1000
0001
1000
0100
0010
0001
1000
0001
,
1000
0010
1000
0010
0100
0001
1000
0001
1000
0010
1000
0010
0100
0001
1000
0001
,
0010
0100
0010
0001
1000
0100
0010
0001
0100
0010
0100
0001
1000
0010
0100
0001
,
1000
0010
1000
0010
0100
0001
1000
0001
0010
0100
0010
0100
1000
0001
0010
0001
,
1000
0010
0100
0001
0100
0001
1000
0001
0010
0100
0010
0001
1000
0100
0010
0001
,
1000
0010
1000
0010
0100
0001
1000
0001
0010
0100
0010
0100
1000
0001
0010
0001
,
1000
0010
0100
0001
0100
0001
1000
0001
0010
0100
0010
0001
1000
0100
0010
0001
,
1000
0010
1000
0010
0100
0001
1000
0001
0010
0001
0010
0100
1000
0010
0100
0001
,
1000
0001
0100
0001
0100
0010
1000
0001
1000
0001
0010
0100
1000
0001
0010
0001
,
1000
0010
1000
0010
0100
0001
1000
0001
1000
0010
1000
0010
0100
0001
1000
0001
,
0010
0100
0010
0001
1000
0100
0010
0001
0100
0010
0100
0001
1000
0010
0100
0001
,
1000
0100
1000
0100
0010
0001
1000
0001
0100
0010
0100
0010
1000
0001
0100
0001
,
1000
0100
0010
0001
0010
0001
1000
0001
0100
0010
0100
0001
1000
0100
0010
0001
,
1000
0100
1000
0100
0010
0001
1000
0001
0100
0010
0100
0010
1000
0001
0100
0001
,
1000
0100
0010
0001
0010
0001
1000
0001
0100
0010
0100
0001
1000
0010
0100
0001
,
1000
0100
1000
0100
0010
0001
1000
0001
0100
0001
0100
0010
1000
0100
0010
0001
,
1000
0001
0010
0001
0010
0100
1000
0001
1000
0001
0100
0010
1000
0001
0100
0001
,
1000
0100
1000
0100
0010
0001
1000
0001
1000
0100
1000
0100
0010
0001
1000
0001
,
0100
0010
0100
0001
1000
0010
0100
0001
0010
0100
0010
0001
1000
0100
0010
0001
,
1000
0010
1000
0010
0100
0001
1000
0001
0010
0100
0010
0100
1000
0001
0010
0001
,
1000
0010
0100
0001
0100
0001
1000
0001
0010
0100
0010
0001
1000
0100
0010
0001
,
1000
0010
1000
0010
0100
0001
1000
0001
0010
0100
0010
0100
1000
0001
0010
0001
,
1000
0010
0100
0001
0100
0001
1000
0001
0010
0100
0010
0001
1000
0100
0010
0001
,
1000
0010
1000
0010
0100
0001
1000
0001
0010
0001
0010
0100
1000
0010
0100
0001
,
1000
0001
0100
0001
0100
0010
1000
0001
1000
0001
0010
0100
1000
0001
0010
0001
,
1000
0010
1000
0010
0100
0001
1000
0001
1000
0010
1000
0010
0100
0001
1000
0001
,
0010
0100
0010
0001
1000
0100
0010
0001
1000
0010
1000
0010
0100
0001
0100
0001
,
1000
0010
1000
0001
1000
0010
1000
0001
,
1000
0010
1000
0001
1000
0010
1000
0001
,
0010
0100
0010
0001
0010
0100
0010
0001
,
0010
0100
0010
0001
0010
0100
0010
0001
,
0100
0010
0100
0001
0100
0010
0100
0001
,
0100
0010
0100
0001
0100
0010
0100
0001
,
1000
0100
1000
0001
1000
0100
1000
0001
,
1000
0100
1000
0001
1000
0100
1000
0001
;

//---------------dance-single - Gazebo----------------
#NOTES:
     dance-single:
     Gazebo:
     Hard:
     19:
     1.000,1.000,0.000,0.475,1.000,2390.000,0.000,105.000,0.000,0.000:
0000
0000
0000
0000
,
0000
0000
0000
0000
,
0000
0000
0000
0000
,
0000
0000
0000
0000
,
0000
0000
0000
0000
,
0000
0000
0000
0000
,
0000
0000
0000
0000
,
0000
0000
0000
0000
,
1000
0100
1000
0001
1000
0100
1000
0001
,
1000
0100
1000
0001
1000
0100
1000
0001
,
0100
0010
0100
0001
0100
0010
0100
0001
,
0100
0010
0100
0001
0010
0100
0010
0001
,
1000
0010
1000
0001
1000
0010
1000
0001
,
1000
0010
1000
0001
1000
0010
1000
0001
,
0010
0100
0010
0001
0010
0100
0010
0001
,
0010
0100
0010
0001
0010
0100
0010
0001
,
1000
0010
1000
0001
1000
0010
1000
0001
,
1000
0010
1000
0001
1000
0010
1000
0001
,
0010
0100
0010
0001
0010
0100
0010
0001
,
0010
0100
0010
0001
0100
0010
0100
0001
,
1000
0100
1000
0001
1000
0100
1000
0001
,
1000
0100
1000
0001
1000
0100
1000
0001
,
0100
0010
0100
0001
0100
0010
0100
0001
,
0100
0010
0100
0001
0100
0010
0100
0001
,
1000
0100
0010
0001
0100
0001
0010
0001
,
0100
0010
1000
0100
1000
0001
1000
0100
,
0010
0001
0100
0010
1000
0100
0010
0100
,
1000
0010
0100
0001
0010
0001
1000
0001
,
0100
0010
1000
0100
0010
0100
1000
0010
,
0100
0001
0010
0001
0100
0001
1000
0001
,
0010
0100
1000
0100
0010
0001
0100
0001
,
1000
0010
1000
0100
0010
0001
0100
0001
,
1000
0010
0100
0001
0010
0001
0100
0001
,
0010
0100
1000
0010
1000
0001
1000
0010
,
0100
0001
0010
0100
1000
0010
0100
0010
,
1000
0100
0010
0001
0100
0001
1000
0001
,
0010
0100
1000
0010
0100
0010
1000
0100
,
0010
0001
0100
0001
0010
0001
1000
0001
,
0100
0010
1000
0010
0100
0001
0010
0001
,
1000
0100
1000
0010
0100
0001
0010
0001
,
0100
0000
0000
0000
0000
0000
0000
0000
0000
0000
0000
0000
0000
0000
0000
0000
0002
0000
0000
0000
0000
0000
0000
0000
0000
0000
0000
0000
0000
0000
0000
0003
0002
0000
0000
0000
0000
0000
0000
0000
0000
0000
0000
0000
0000
0000
0000
0003
0002
0000
0000
0000
0000
0000
0000
0000
0000
0000
0000
0000
0000
0000
0000
0000
,
2003
3200
0320
0032
,
1003
0100
1000
0100
0010
0001
1000
0001
0100
0010
0100
0010
1000
0001
0100
0001
,
1000
0100
0010
0001
0010
0001
1000
0001
0100
0010
0100
0001
1000
0010
0100
0001
,
1000
0100
1000
0100
0010
0001
1000
0001
0100
0010
0100
0010
1000
0001
0100
0001
,
1000
0100
0010
0001
0010
0001
1000
0001
0100
0010
0100
0001
1000
0010
0100
0001
,
1000
0100
1000
0100
0010
0001
1000
0001
0100
0001
0100
0010
1000
0100
0010
0001
,
1000
0001
0010
0001
0010
0100
1000
0001
1000
0001
0100
0010
1000
0001
0100
0001
,
1000
0100
1000
0100
0010
0001
1000
0001
1000
0100
1000
0100
0010
0001
1000
0001
,
0100
0010
0100
0001
1000
0010
0100
0001
0010
0100
0010
0001
1000
0100
0010
0001
,
1000
0010
1000
0010
0100
0001
1000
0001
0010
0100
0010
0100
1000
0001
0010
0001
,
1000
0010
0100
0001
0100
0001
1000
0001
0010
0100
0010
0001
1000
0100
0010
0001
,
1000
0010
1000
0010
0100
0001
1000
0001
0010
0100
0010
0100
1000
0001
0010
0001
,
1000
0010
0100
0001
0100
0001
1000
0001
0010
0100
0010
0001
1000
0100
0010
0001
,
1000
0010
1000
0010
0100
0001
1000
0001
0010
0001
0010
0100
1000
0010
0100
0001
,
1000
0001
0100
0001
0100
0010
1000
0001
1000
0001
0010
0100
1000
0001
0010
0001
,
1000
0010
1000
0010
0100
0001
1000
0001
1000
0010
1000
0010
0100
0001
1000
0001
,
0010
0100
0010
0001
1000
0100
0010
0001
0100
0010
0100
0001
1000
0010
0100
0001
,
1000
0100
1000
0100
0010
0001
0010
0001
0100
0010
1000
0010
1000
0001
0100
0010
,
1000
0001
0010
0100
0010
0001
1000
0100
1000
0100
0010
0001
0100
0010
1000
0010
,
1000
0001
0100
0001
1000
0001
1000
0010
1000
0001
0010
0100
0010
0001
1000
0001
,
1000
0100
0010
0001
0010
0001
1000
0001
0100
0010
0100
0001
1000
0010
1000
0001
,
1000
0001
0010
0100
1000
0100
1000
0001
0100
0010
0100
0001
1000
0010
0100
0010
,
1000
0001
1000
0001
0010
0100
0010
0001
1000
0001
1000
0100
0010
0001
1000
0001
,
1000
0010
1000
0010
0100
0001
1000
0001
1000
0010
1000
0010
0100
0001
1000
0001
,
0010
0100
0010
0001
1000
0100
0010
0001
0100
0010
0100
0001
1000
0010
0100
0001
,
1000
0010
1000
0010
0100
0001
1000
0001
0010
0100
0010
0100
1000
0001
0010
0001
,
1000
0010
0100
0001
0100
0001
1000
0001
0010
0100
0010
0001
1000
0100
0010
0001
,
1000
0010
1000
0010
0100
0001
1000
0001
0010
0100
0010
0100
1000
0001
0010
0001
,
1000
0010
0100
0001
0100
0001
1000
0001
0010
0100
0010
0001
1000
0100
0010
0001
,
1000
0010
1000
0010
0100
0001
1000
0001
0010
0001
0010
0100
1000
0010
0100
0001
,
1000
0001
0100
0001
0100
0010
1000
0001
1000
0001
0010
0100
1000
0001
0010
0001
,
1000
0010
1000
0010
0100
0001
1000
0001
1000
0010
1000
0010
0100
0001
1000
0001
,
1000
0000
0010
0000
0010
0000
0010
0100
,
0001
0010
0100
1000
0010
1000
0100
1000
,
0010
0100
0001
0010
0001
1000
0001
0010
,
0100
1000
0010
0100
0001
0010
0100
0010
,
0001
0100
0010
1000
0100
1000
0001
1000
,
0010
0100
0001
0010
0100
0010
0001
0100
,
0010
1000
0100
1000
0010
1000
0001
1000
,
0100
0010
0001
0010
0100
1000
0010
1000
,
0001
0100
0001
0010
0100
1000
0010
1000
,
0001
0100
0010
1000
0100
1000
0010
1000
,
0100
0010
0001
0100
0001
1000
0001
0100
,
0010
1000
0100
0010
0001
0100
0010
0100
,
0001
0010
0100
1000
0010
1000
0001
1000
,
0100
0010
0001
0100
0010
0100
0001
0010
,
0100
1000
0010
1000
0100
1000
0001
1000
,
0010
0100
0001
0100
0010
1000
0100
1000
,
0001
0010
0001
0100
0010
1000
0100
1000
,
0001
0100
0010
1000
0100
1000
0010
1000
,
0100
0010
0001
0100
0001
1000
0001
0100
,
0010
1000
0100
0010
0001
0100
0010
0100
,
0001
0010
0100
1000
0010
1000
0001
1000
,
0100
0010
0001
0100
0010
0100
0001
0010
,
0100
1000
0010
1000
0001
1000
0100
1000
,
0001
0000
0000
0000
0000
0000
0000
0000
0000
0000
0000
0000
0000
0000
0000
0000
2000
0000
0000
0000
0000
0000
0000
0000
0000
0000
0000
0000
0000
0000
0000
3000
2000
0000
0000
0000
0000
0000
0000
0000
0000
0000
0000
0000
0000
0000
0000
3000
2000
0000
0000
0000
0000
0000
0000
0000
0000
0000
0000
0000
0000
0000
0000
0000
,
3002
0203
0320
2030
,
3001
0100
0001
0100
0010
1000
0001
1000
0100
0010
0100
0010
0001
1000
0100
1000
,
0001
0100
0010
1000
0010
1000
0001
1000
0100
0010
0100
1000
0001
0010
0100
1000
,
0001
0100
0001
0100
0010
1000
0001
1000
0100
0010
0100
0010
0001
1000
0100
1000
,
0001
0100
0010
1000
0010
1000
0001
1000
0100
0010
0100
1000
0001
0010
0100
1000
,
0001
0100
0001
0100
0010
1000
0001
1000
0100
1000
0100
0010
0001
0100
0010
1000
,
0001
1000
0010
1000
0010
0100
0001
1000
0001
1000
0100
0010
0001
1000
0100
1000
,
0001
0100
0001
0100
0010
1000
0001
1000
0001
0100
0001
0100
0010
1000
0001
1000
,
0100
0010
0100
1000
0001
0010
0100
1000
0010
0100
0010
1000
0001
0100
0010
1000
,
0001
0010
0001
0010
0100
1000
0001
1000
0010
0100
0010
0100
0001
1000
0010
1000
,
0001
0010
0100
1000
0100
1000
0001
1000
0010
0100
0010
1000
0001
0100
0010
1000
,
0001
0010
0001
0010
0100
1000
0001
1000
0010
0100
0010
0100
0001
1000
0010
1000
,
0001
0010
0100
1000
0100
1000
0001
1000
0010
0100
0010
1000
0001
0100
0010
1000
,
0001
0010
0001
0010
0100
1000
0001
1000
0010
1000
0010
0100
0001
0010
0100
1000
,
0001
1000
0100
1000
0100
0010
0001
1000
0001
1000
0010
0100
0001
1000
0010
1000
,
0001
0010
0001
0010
0100
1000
0001
1000
0001
0010
0001
0010
0100
1000
0001
1000
,
0010
0100
0010
1000
0001
0100
0010
1000
0100
0010
0100
1000
0001
0010
0100
1000
,
0001
0100
0001
0100
0010
1000
0010
1000
0100
0010
0001
0010
0001
1000
0100
0010
,
0001
1000
0010
0100
0010
1000
0001
0100
0001
0100
0010
1000
0100
0010
0001
0010
,
0001
1000
0100
1000
0001
1000
0001
0010
0001
1000
0010
0100
0010
1000
0001
1000
,
0001
0100
0010
1000
0010
1000
0001
1000
0100
0010
0100
1000
0001
0010
0001
1000
,
0001
1000
0010
0100
0001
0100
0001
1000
0100
0010
0100
1000
0001
0010
0100
0010
,
0001
1000
0001
1000
0010
0100
0010
1000
0001
1000
0001
0100
0010
1000
0001
1000
,
0001
0010
0001
0010
0100
1000
0001
1000
0001
0010
0001
0010
0100
1000
0001
1000
,
0010
0100
0010
1000
0001
0100
0010
1000
0100
0010
0100
1000
0001
0010
0100
1000
,
0001
0010
0001
0010
0100
1000
0001
1000
0010
0100
0010
0100
0001
1000
0010
1000
,
0001
0010
0100
1000
0100
1000
0001
1000
0010
0100
0010
1000
0001
0100
0010
1000
,
0001
0010
0001
0010
0100
1000
0001
1000
0010
0100
0010
0100
0001
1000
0010
1000
,
0001
0010
0100
1000
0100
1000
0001
1000
0010
0100
0010
1000
0001
0100
0010
1000
,
0001
0010
0001
0010
0100
1000
0001
1000
0010
1000
0010
0100
0001
0010
0100
1000
,
0001
1000
0100
1000
0100
0010
0001
1000
0001
1000
0010
0100
0001
1000
0010
1000
,
0001
0010
0001
0010
0100
1000
0001
1000
0001
0010
0001
0010
0100
1000
0001
1000
,
0001
0000
0010
0000
0010
0000
0010
0001
,
1000
0010
0200
0302
,
0203
0302
0203
0302
,
2003
3000
2000
3000
,
0200
0000
0320
0000
,
0031
1000
0020
2030
,
3020
2030
3020
2030
,
3002
0003
0002
0003
,
0002
0000
0023
0000
,
0130
1000
0002
0203
,
0302
0203
0302
0203
,
0302
0203
0302
0000
,
2003
3000
0001
2000
,
3200
0320
0032
0023
,
0030
0001
0001
1000
,
0001
0100
0100
0010
,
0020
0000
1030
0001
,
2000
3200
0320
0032
2003
3200
0320
0032
,
2003
3200
0320
0032
2003
3200
0320
0032
,
2003
3020
0230
0302
2003
3020
0230
0302
,
2003
3020
0230
0302
2003
3020
0230
0302
,
2003
3200
2300
3020
2030
3200
2300
3020
,
0230
0302
0023
0032
0203
0302
0023
0230
,
1300
0000
0000
0000
0000
0000
0000
0000
0000
0000
0000
0000
0000
0000
0000
0000
0002
0000
0000
0000
0000
0000
0000
0000
0000
0000
0000
0000
0000
0000
0000
0003
0002
0000
0000
0000
0000
0000
0000
0000
0000
0000
0000
0000
0000
0000
0000
0003
0002
0000
0000
0000
0000
0000
0000
0000
0000
0000
0000
0000
0000
0000
0000
0000
,
2003
3200
0320
0032
,
1003
0100
1000
0100
0010
0001
1000
0001
0100
0010
0100
0010
1000
0001
0100
0001
,
1000
0100
0010
0001
0010
0001
1000
0001
0100
0010
0100
0001
1000
0010
0100
0001
,
1000
0100
1000
0100
0010
0001
1000
0001
0100
0010
0100
0010
1000
0001
0100
0001
,
1000
0100
0010
0001
0010
0001
1000
0001
0100
0010
0100
0001
1000
0010
0100
0001
,
1000
0100
1000
0100
0010
0001
1000
0001
0100
0001
0100
0010
1000
0100
0010
0001
,
1000
0001
0010
0001
0010
0100
1000
0001
1000
0001
0100
0010
1000
0001
0100
0001
,
1000
0100
1000
0100
0010
0001
1000
0001
1000
0100
1000
0100
0010
0001
1000
0001
,
0100
0010
0100
0001
1000
0010
0100
0001
0010
0100
0010
0001
1000
0100
0010
0001
,
1000
0010
1000
0010
0100
0001
1000
0001
0010
0100
0010
0100
1000
0001
0010
0001
,
1000
0010
0100
0001
0100
0001
1000
0001
0010
0100
0010
0001
1000
0100
0010
0001
,
1000
0010
1000
0010
0100
0001
1000
0001
0010
0100
0010
0100
1000
0001
0010
0001
,
1000
0010
0100
0001
0100
0001
1000
0001
0010
0100
0010
0001
1000
0100
0010
0001
,
1000
0010
1000
0010
0100
0001
1000
0001
0010
0001
0010
0100
1000
0010
0100
0001
,
1000
0001
0100
0001
0100
0010
1000
0001
1000
0001
0010
0100
1000
0001
0010
0001
,
1000
0010
1000
0010
0100
0001
1000
0001
1000
0010
1000
0010
0100
0001
1000
0001
,
0010
0100
0010
0001
1000
0100
0010
0001
0100
0010
0100
0001
1000
0010
0100
0001
,
1000
0100
1000
0100
0010
0001
0010
0001
0100
0010
1000
0010
1000
0001
0100
0010
,
1000
0001
0010
0100
0010
0001
1000
0100
1000
0100
0010
0001
0100
0010
1000
0010
,
1000
0001
0100
0001
1000
0001
1000
0010
1000
0001
0010
0100
0010
0001
1000
0001
,
1000
0100
0010
0001
0010
0001
1000
0001
0100
0010
0100
0001
1000
0010
1000
0001
,
1000
0001
0010
0100
1000
0100
1000
0001
0100
0010
0100
0001
1000
0010
0100
0010
,
1000
0001
1000
0001
0010
0100
0010
0001
1000
0001
1000
0100
0010
0001
1000
0001
,
1000
0010
1000
0010
0100
0001
1000
0001
1000
0010
1000
0010
0100
0001
1000
0001
,
0010
0100
0010
0001
1000
0100
0010
0001
0100
0010
0100
0001
1000
0010
0100
0001
,
1000
0010
1000
0010
0100
0001
1000
0001
0010
0100
0010
0100
1000
0001
0010
0001
,
1000
0010
0100
0001
0100
0001
1000
0001
0010
0100
0010
0001
1000
0100
0010
0001
,
1000
0010
1000
0010
0100
0001
1000
0001
0010
0100
0010
0100
1000
0001
0010
0001
,
1000
0010
0100
0001
0100
0001
1000
0001
0010
0100
0010
0001
1000
0100
0010
0001
,
1000
0010
1000
0010
0100
0001
1000
0001
0010
0001
0010
0100
1000
0010
0100
0001
,
1000
0001
0100
0001
0100
0010
1000
0001
1000
0001
0010
0100
1000
0001
0010
0001
,
1000
0010
1000
0010
0100
0001
1000
0001
1000
0010
1000
0010
0100
0001
1000
0001
,
0010
0100
0010
0001
1000
0100
0010
0001
0100
0010
0100
0001
1000
0010
0100
0001
,
1000
0100
1000
0100
0010
0001
1000
0001
0100
0010
0100
0010
1000
0001
0100
0001
,
1000
0100
0010
0001
0010
0001
1000
0001
0100
0010
0100
0001
1000
0100
0010
0001
,
1000
0100
1000
0100
0010
0001
1000
0001
0100
0010
0100
0010
1000
0001
0100
0001
,
1000
0100
0010
0001
0010
0001
1000
0001
0100
0010
0100
0001
1000
0010
0100
0001
,
1000
0100
1000
0100
0010
0001
1000
0001
0100
0001
0100
0010
1000
0100
0010
0001
,
1000
0001
0010
0001
0010
0100
1000
0001
1000
0001
0100
0010
1000
0001
0100
0001
,
1000
0100
1000
0100
0010
0001
1000
0001
1000
0100
1000
0100
0010
0001
1000
0001
,
0100
0010
0100
0001
1000
0010
0100
0001
0010
0100
0010
0001
1000
0100
0010
0001
,
1000
0010
1000
0010
0100
0001
1000
0001
0010
0100
0010
0100
1000
0001
0010
0001
,
1000
0010
0100
0001
0100
0001
1000
0001
0010
0100
0010
0001
1000
0100
0010
0001
,
1000
0010
1000
0010
0100
0001
1000
0001
0010
0100
0010
0100
1000
0001
0010
0001
,
1000
0010
0100
0001
0100
0001
1000
0001
0010
0100
0010
0001
1000
0100
0010
0001
,
1000
0010
1000
0010
0100
0001
1000
0001
0010
0001
0010
0100
1000
0010
0100
0001
,
1000
0001
0100
0001
0100
0010
1000
0001
1000
0001
0010
0100
1000
0001
0010
0001
,
1000
0010
1000
0010
0100
0001
1000
0001
1000
0010
1000
0010
0100
0001
1000
0001
,
0010
0100
0010
0001
1000
0100
0010
0001
1000
0010
1000
0010
0100
0001
0100
0001
,
1000
0010
1000
0001
1000
0010
1000
0001
,
1000
0010
1000
0001
1000
0010
1000
0001
,
0010
0100
0010
0001
0010
0100
0010
0001
,
0010
0100
0010
0001
0010
0100
0010
0001
,
0100
0010
0100
0001
0100
0010
0100
0001
,
0100
0010
0100
0001
0100
0010
0100
0001
,
1000
0100
1000
0001
1000
0100
1000
0001
,
1000
0100
1000
0001
1000
0100
1000
0001
;

//---------------dance-single - Gazebo----------------
#NOTES:
     dance-single:
     Gazebo:
     Medium:
     15:
     1.000,1.000,0.000,0.312,1.000,2090.000,0.000,69.000,0.000,0.000:

0000
0000
0000
0000
,
0000
0000
0000
0000
,
0000
0000
0000
0000
,
0000
0000
0000
0000
,
0000
0000
0000
0000
,
0000
0000
0000
0000
,
0000
0000
0000
0000
,
0000
0000
0000
0000
,
1000
0100
1000
0001
1000
0100
1000
0001
,
1000
0100
1000
0001
1000
0100
1000
0001
,
0100
0010
0100
0001
0100
0010
0100
0001
,
0100
0010
0100
0001
0010
0100
0010
0001
,
1000
0010
1000
0001
1000
0010
1000
0001
,
1000
0010
1000
0001
1000
0010
1000
0001
,
0010
0100
0010
0001
0010
0100
0010
0001
,
0010
0100
0010
0001
0010
0100
0010
0001
,
1000
0010
1000
0001
1000
0010
1000
0001
,
1000
0010
1000
0001
1000
0010
1000
0001
,
0010
0100
0010
0001
0010
0100
0010
0001
,
0010
0100
0010
0001
0100
0010
0100
0001
,
1000
0100
1000
0001
1000
0100
1000
0001
,
1000
0100
1000
0001
1000
0100
1000
0001
,
0100
0010
0100
0001
0100
0010
0100
0001
,
0100
0010
0100
0001
0100
0010
0100
0001
,
1000
0100
0010
0001
0100
0001
0010
0001
,
0100
0010
1000
0100
1000
0001
1000
0100
,
0010
0001
0100
0010
1000
0100
0010
0100
,
1000
0010
0100
0001
0010
0001
1000
0001
,
0100
0010
1000
0100
0010
0100
1000
0010
,
0100
0001
0010
0001
0100
0001
1000
0001
,
0010
0100
1000
0100
0010
0001
0100
0001
,
1000
0010
1000
0100
0010
0001
0100
0001
,
1000
0010
0100
0001
0010
0001
0100
0001
,
0010
0100
1000
0010
1000
0001
1000
0010
,
0100
0001
0010
0100
1000
0010
0100
0010
,
1000
0100
0010
0001
0100
0001
1000
0001
,
0010
0100
1000
0010
0100
0010
1000
0100
,
0010
0001
0100
0001
0010
0001
1000
0001
,
0100
0010
1000
0010
0100
0001
0010
0001
,
1000
0100
1000
0010
0100
0001
0010
0001
,
0100
0000
0000
0000
0000
0000
0000
0000
0000
0000
0000
0000
0000
0000
0000
0000
0002
0000
0000
0000
0000
0000
0000
0000
0000
0000
0000
0000
0000
0000
0000
0003
0002
0000
0000
0000
0000
0000
0000
0000
0000
0000
0000
0000
0000
0000
0000
0003
0002
0000
0000
0000
0000
0000
0000
0000
0000
0000
0000
0000
0000
0000
0000
0000
,
2003
3200
0320
0032
,
1003
0010
1000
0010
0100
0001
1000
0100
1000
0100
0010
0001
,
1000
0100
1000
0001
0010
0001
1000
0010
1000
0001
0100
0001
,
1000
0100
1000
0100
0010
0001
1000
0010
1000
0010
0100
0001
,
1000
0010
1000
0001
0100
0001
1000
0100
1000
0001
0010
0001
,
1000
0010
1000
0010
0100
0001
1000
0001
1000
0100
0010
0001
,
1000
0100
1000
0001
0100
0001
1000
0010
0100
0010
1000
0010
,
0100
0001
1000
0100
1000
0001
0010
0001
1000
0001
1000
0010
,
1000
0001
0100
0001
0010
0100
1000
0010
1000
0001
0100
0001
,
1000
0100
1000
0100
0010
0001
1000
0010
1000
0010
0100
0001
,
1000
0010
1000
0001
0100
0001
1000
0100
1000
0001
0010
0001
,
0100
0010
0100
0010
1000
0001
1000
0100
1000
0100
0010
0001
,
1000
0100
1000
0001
0010
0001
1000
0010
1000
0001
0100
0001
,
1000
0100
1000
0100
0010
0001
1000
0010
1000
0010
0100
0001
,
1000
0100
1000
0001
0010
0001
1000
0010
0100
0010
1000
0010
,
0100
0001
1000
0100
1000
0001
0010
0001
1000
0001
1000
0010
,
1000
0001
0100
0001
0010
0100
1000
0010
1000
0001
0100
0001
,
1000
0001
1000
0010
1000
0001
0010
0100
0010
0100
1000
0001
,
0100
0001
0100
0010
1000
0010
0100
0001
1000
0100
0010
0100
,
0010
0001
1000
0010
1000
0010
0100
0001
0100
0010
1000
0001
,
1000
0100
1000
0001
0010
0001
1000
0010
0100
0010
0100
0001
,
1000
0010
1000
0001
1000
0001
0010
0100
1000
0100
0010
0001
,
1000
0100
1000
0001
0100
0001
1000
0010
1000
0100
0010
0001
,
0010
0100
1000
0001
1000
0001
0010
0001
1000
0001
1000
0010
,
1000
0001
0100
0001
0010
0100
1000
0010
1000
0001
0100
0001
,
1000
0010
1000
0010
0100
0001
1000
0100
1000
0100
0010
0001
,
1000
0100
1000
0001
0010
0001
1000
0010
1000
0001
0100
0001
,
1000
0100
1000
0100
0010
0001
1000
0010
1000
0010
0100
0001
,
1000
0010
1000
0001
0100
0001
1000
0100
1000
0001
0010
0001
,
1000
0010
1000
0010
0100
0001
1000
0001
1000
0100
0010
0001
,
1000
0100
1000
0001
0100
0001
1000
0010
0100
0001
0010
0100
,
0010
0001
1000
0100
1000
0001
0010
0001
1000
0001
1000
0010
,
1000
0000
0010
0000
0010
0000
0010
0100
,
0001
0010
0100
1000
0010
1000
0100
1000
,
0010
0100
0001
0010
0001
1000
0001
0010
,
0100
1000
0010
0100
0001
0010
0100
0010
,
0001
0100
0010
1000
0100
1000
0001
1000
,
0010
0100
0001
0010
0100
0010
0001
0100
,
0010
1000
0100
1000
0010
1000
0001
1000
,
0100
0010
0001
0010
0100
1000
0010
1000
,
0001
0100
0001
0010
0100
1000
0010
1000
,
0001
0100
0010
1000
0100
1000
0010
1000
,
0100
0010
0001
0100
0001
1000
0001
0100
,
0010
1000
0100
0010
0001
0100
0010
0100
,
0001
0010
0100
1000
0010
1000
0001
1000
,
0100
0010
0001
0100
0010
0100
0001
0010
,
0100
1000
0010
1000
0100
1000
0001
1000
,
0010
0100
0001
0100
0010
1000
0100
1000
,
0001
0010
0001
0100
0010
1000
0100
1000
,
0001
0100
0010
1000
0100
1000
0010
1000
,
0100
0010
0001
0100
0001
1000
0001
0100
,
0010
1000
0100
0010
0001
0100
0010
0100
,
0001
0010
0100
1000
0010
1000
0001
1000
,
0100
0010
0001
0100
0010
0100
0001
0010
,
0100
1000
0010
1000
0001
1000
0100
1000
,
0001
0000
0000
0000
0000
0000
0000
0000
0000
0000
0000
0000
0000
0000
0000
0000
2000
0000
0000
0000
0000
0000
0000
0000
0000
0000
0000
0000
0000
0000
0000
3000
2000
0000
0000
0000
0000
0000
0000
0000
0000
0000
0000
0000
0000
0000
0000
3000
2000
0000
0000
0000
0000
0000
0000
0000
0000
0000
0000
0000
0000
0000
0000
0000
,
3002
0203
0320
2030
,
3001
0010
0001
0010
0100
1000
0001
0100
0001
0100
0010
1000
,
0001
0100
0001
1000
0010
1000
0001
0010
0001
1000
0100
1000
,
0001
0100
0001
0100
0010
1000
0001
0010
0001
0010
0100
1000
,
0001
0010
0001
1000
0100
1000
0001
0100
0001
1000
0010
1000
,
0001
0010
0001
0010
0100
1000
0001
1000
0001
0100
0010
1000
,
0001
0100
0001
1000
0100
1000
0001
0010
0100
0010
0001
0010
,
0100
1000
0001
0100
0001
1000
0010
1000
0001
1000
0001
0010
,
0001
1000
0100
1000
0010
0100
0001
0010
0001
1000
0100
1000
,
0001
0100
0001
0100
0010
1000
0001
0010
0001
0010
0100
1000
,
0001
0010
0001
1000
0100
1000
0001
0100
0001
1000
0010
1000
,
0100
0010
0100
0010
0001
1000
0001
0100
0001
0100
0010
1000
,
0001
0100
0001
1000
0010
1000
0001
0010
0001
1000
0100
1000
,
0001
0100
0001
0100
0010
1000
0001
0010
0001
0010
0100
1000
,
0001
0100
0001
1000
0010
1000
0001
0010
0100
0010
0001
0010
,
0100
1000
0001
0100
0001
1000
0010
1000
0001
1000
0001
0010
,
0001
1000
0100
1000
0010
0100
0001
0010
0001
1000
0100
1000
,
0001
1000
0001
0010
0001
1000
0010
0100
0010
0100
0001
1000
,
0100
1000
0100
0010
0001
0010
0100
1000
0001
0100
0010
0100
,
0010
1000
0001
0010
0001
0010
0100
1000
0100
0010
0001
1000
,
0001
0100
0001
1000
0010
1000
0001
0010
0100
0010
0100
1000
,
0001
0010
0001
1000
0001
1000
0010
0100
0001
0100
0010
1000
,
0001
0100
0001
1000
0100
1000
0001
0010
0001
0100
0010
1000
,
0010
0100
0001
1000
0001
1000
0010
1000
0001
1000
0001
0010
,
0001
1000
0100
1000
0010
0100
0001
0010
0001
1000
0100
1000
,
0001
0010
0001
0010
0100
1000
0001
0100
0001
0100
0010
1000
,
0001
0100
0001
1000
0010
1000
0001
0010
0001
1000
0100
1000
,
0001
0100
0001
0100
0010
1000
0001
0010
0001
0010
0100
1000
,
0001
0010
0001
1000
0100
1000
0001
0100
0001
1000
0010
1000
,
0001
0010
0001
0010
0100
1000
0001
1000
0001
0100
0010
1000
,
0001
0100
0001
1000
0100
1000
0001
0010
0100
1000
0010
0100
,
0010
1000
0001
0100
0001
1000
0010
1000
0001
1000
0001
0010
,
0001
0000
0010
0000
0010
0000
0010
0001
,
1000
0010
1000
0001
0100
0001
1000
0010
1000
0100
0010
0001
,
1000
0010
1000
0100
0010
0001
1000
0010
1000
0100
0010
0001
,
1000
0010
1000
0010
0100
0001
1000
0010
1000
0010
0100
0001
,
0010
0100
0010
0100
1000
0001
0100
0001
0100
0010
1000
0001
,
1000
0100
1000
0001
0010
0001
1000
0100
1000
0010
0100
0001
,
1000
0100
1000
0010
0100
0001
1000
0100
1000
0010
0100
0001
,
1000
0100
1000
0100
0010
0001
1000
0100
1000
0100
0010
0001
,
1000
0001
1000
0100
1000
0001
0100
0001
0100
0010
1000
0100
,
1000
0100
1000
0001
0010
0001
1000
0100
1000
0010
0100
0001
,
1000
0100
1000
0010
0100
0001
1000
0100
1000
0010
0100
0001
,
1000
0100
1000
0010
0100
0001
1000
0100
1000
0100
0010
0001
,
1000
0010
1000
0001
1000
0010
1000
0001
0100
0001
1000
0010
,
1000
0100
0010
0100
1000
0001
0010
0001
1000
0010
1000
0010
,
0100
0001
1000
0001
0010
0001
1000
0100
1000
0001
1000
0001
,
0010
0001
1000
0010
1000
0001
1000
0001
0010
0001
1000
0100
,
1000
0001
0010
0100
0010
0001
1000
0010
1000
0001
0100
0001
,
2000
3200
0320
0032
2003
3200
0320
0032
,
2003
3200
0320
0032
2003
3200
0320
0032
,
2003
3020
0230
0302
2003
3020
0230
0302
,
2003
3020
0230
0302
2003
3020
0230
0302
,
2003
3200
2300
3020
2030
3200
2300
3020
,
0230
0302
0023
0032
0203
0302
0023
0230
,
1300
0000
0000
0000
0000
0000
0000
0000
0000
0000
0000
0000
0000
0000
0000
0000
0002
0000
0000
0000
0000
0000
0000
0000
0000
0000
0000
0000
0000
0000
0000
0003
0002
0000
0000
0000
0000
0000
0000
0000
0000
0000
0000
0000
0000
0000
0000
0003
0002
0000
0000
0000
0000
0000
0000
0000
0000
0000
0000
0000
0000
0000
0000
0000
,
2003
3200
0320
0032
,
1003
0010
1000
0010
0100
0001
1000
0100
1000
0100
0010
0001
,
1000
0100
1000
0001
0010
0001
1000
0010
1000
0001
0100
0001
,
1000
0100
1000
0100
0010
0001
1000
0010
1000
0010
0100
0001
,
1000
0010
1000
0001
0100
0001
1000
0100
1000
0001
0010
0001
,
1000
0010
1000
0010
0100
0001
1000
0001
1000
0100
0010
0001
,
1000
0100
1000
0001
0100
0001
1000
0010
0100
0010
1000
0010
,
0100
0001
1000
0100
1000
0001
0010
0001
1000
0001
1000
0010
,
1000
0001
0100
0001
0010
0100
1000
0010
1000
0001
0100
0001
,
1000
0100
1000
0100
0010
0001
1000
0010
1000
0010
0100
0001
,
1000
0010
1000
0001
0100
0001
1000
0100
1000
0001
0010
0001
,
0100
0010
0100
0010
1000
0001
1000
0100
1000
0100
0010
0001
,
1000
0100
1000
0001
0010
0001
1000
0010
1000
0001
0100
0001
,
1000
0100
1000
0100
0010
0001
1000
0010
1000
0010
0100
0001
,
1000
0100
1000
0001
0010
0001
1000
0010
0100
0010
1000
0010
,
0100
0001
1000
0100
1000
0001
0010
0001
1000
0001
1000
0010
,
1000
0001
0100
0001
0010
0100
1000
0010
1000
0001
0100
0001
,
1000
0001
1000
0010
1000
0001
0010
0100
0010
0100
1000
0001
,
0100
0001
0100
0010
1000
0010
0100
0001
1000
0100
0010
0100
,
0010
0001
1000
0010
1000
0010
0100
0001
0100
0010
1000
0001
,
1000
0100
1000
0001
0010
0001
1000
0010
0100
0010
0100
0001
,
1000
0010
1000
0001
1000
0001
0010
0100
1000
0100
0010
0001
,
1000
0100
1000
0001
0100
0001
1000
0010
1000
0100
0010
0001
,
0010
0100
1000
0001
1000
0001
0010
0001
1000
0001
1000
0010
,
1000
0001
0100
0001
0010
0100
1000
0010
1000
0001
0100
0001
,
1000
0010
1000
0010
0100
0001
1000
0100
1000
0100
0010
0001
,
1000
0100
1000
0001
0010
0001
1000
0010
1000
0001
0100
0001
,
1000
0100
1000
0100
0010
0001
1000
0010
1000
0010
0100
0001
,
1000
0010
1000
0001
0100
0001
1000
0100
1000
0001
0010
0001
,
1000
0010
1000
0010
0100
0001
1000
0001
1000
0100
0010
0001
,
1000
0100
1000
0001
0100
0001
1000
0010
0100
0001
0010
0100
,
1000
0001
1000
0010
1000
0001
0100
0001
1000
0001
1000
0100
,
1000
0001
0010
0001
0100
0010
1000
0100
1000
0001
0010
0001
,
1000
0001
1000
0100
1000
0001
0100
0010
0100
0010
1000
0001
,
0010
0001
0010
0100
1000
0100
0010
0001
1000
0010
0100
0010
,
0100
0001
1000
0100
1000
0100
0010
0001
0010
0100
1000
0001
,
1000
0010
1000
0001
0100
0001
1000
0100
0010
0100
0010
0001
,
1000
0100
1000
0001
1000
0001
0100
0010
1000
0010
0100
0001
,
1000
0010
1000
0001
0010
0001
1000
0100
1000
0010
0100
0001
,
0100
0010
1000
0001
1000
0001
0100
0001
1000
0001
1000
0100
,
1000
0001
0010
0001
0100
0010
1000
0100
1000
0001
0010
0001
,
1000
0100
1000
0100
0010
0001
1000
0010
1000
0010
0100
0001
,
1000
0010
1000
0001
0100
0001
1000
0100
1000
0001
0010
0001
,
1000
0010
1000
0010
0100
0001
1000
0100
1000
0100
0010
0001
,
1000
0100
1000
0001
0010
0001
1000
0010
1000
0001
0100
0001
,
1000
0100
1000
0100
0010
0001
1000
0001
1000
0010
0100
0001
,
1000
0010
1000
0001
0010
0001
1000
0100
0010
0001
0100
0010
,
0100
0001
1000
0010
1000
0001
0100
0001
1000
0001
1000
0100
,
0010
0001
1000
0001
1000
0010
1000
0001
0100
0001
0010
0100
,
1000
0100
1000
0001
1000
0100
1000
0001
,
1000
0100
1000
0001
1000
0100
1000
0001
,
0100
0010
0100
0001
0100
0010
0100
0001
,
0100
0010
0100
0001
0100
0010
0100
0001
,
0010
0100
0010
0001
0010
0100
0010
0001
,
0010
0100
0010
0001
0010
0100
0010
0001
,
1000
0010
1000
0001
1000
0010
1000
0001
,
1000
0010
1000
0001
1000
0010
1000
0001
;

//---------------dance-single - Gazebo----------------
#NOTES:
     dance-single:
     Gazebo:
     Easy:
     13:
     1.000,1.000,0.005,0.475,1.000,1647.000,1.000,105.000,0.000,0.000:
0000
0000
0000
0000
,
0000
0000
0000
0000
,
0000
0000
0000
0000
,
0000
0000
0000
0000
,
0000
0000
0000
0000
,
0000
0000
0000
0000
,
0000
0000
0000
0000
,
0000
0000
0000
0000
,
0000
0001
0100
0001
,
0100
0020
0000
2030
,
0000
3020
0000
0000
,
0030
0000
0000
0000
,
1000
0002
0000
0023
,
0000
0130
0000
0200
,
0000
0000
0000
0000
,
0300
0000
0000
0000
,
0000
1000
0001
1000
,
0001
0200
0000
0320
,
0000
0230
0000
0300
,
0000
0000
0000
0010
,
2000
0000
3001
0002
,
0000
0013
0000
0020
,
0031
0010
0100
1000
0001
0010
0100
1000
,
0001
0100
0010
1000
0001
0100
0010
1000
,
0001
0010
0001
0010
0001
0000
1000
0000
,
1000
0010
0020
0000
,
0030
0000
1000
0010
1000
0000
0001
0000
,
0002
0003
0022
0033
,
0000
0000
1000
0100
1000
0000
0001
0000
,
0001
0100
0200
0000
,
0310
1000
2000
0000
,
0000
0000
3000
0001
,
1000
0000
0001
0100
0001
0000
1000
0000
,
1000
0100
0200
0010
,
0310
0000
0001
0010
0001
0000
1000
0000
,
1000
0010
0200
0010
,
0310
0000
1000
0001
1000
0000
0100
0000
,
0100
0010
0010
0001
,
1000
0100
0010
0001
1000
0100
0010
0001
,
1000
0010
0100
0001
1000
0010
0100
0001
,
1000
0001
0001
0001
,
2000
3200
0320
0032
,
1003
0010
1000
0010
0100
0001
1000
0100
1000
0100
0010
0001
,
1000
0100
1000
0001
0010
0001
1000
0010
1000
0001
0100
0001
,
1000
0100
1000
0100
0010
0001
1000
0010
1000
0010
0100
0001
,
1000
0010
1000
0001
0100
0001
1000
0100
1000
0001
0010
0001
,
1000
0010
1000
0010
0100
0001
1000
0001
1000
0100
0010
0001
,
1000
0100
1000
0001
0100
0001
1000
0010
0100
0010
1000
0010
,
0100
0001
1000
0100
1000
0001
0010
0001
1000
0001
1000
0010
,
1000
0001
0100
0001
0010
0100
1000
0010
1000
0001
0100
0001
,
1000
0100
1000
0100
0010
0001
1000
0010
1000
0010
0100
0001
,
1000
0010
1000
0001
0100
0001
1000
0100
1000
0001
0010
0001
,
0100
0010
0100
0010
1000
0001
1000
0100
1000
0100
0010
0001
,
1000
0100
1000
0001
0010
0001
1000
0010
1000
0001
0100
0001
,
1000
0100
1000
0100
0010
0001
1000
0010
1000
0010
0100
0001
,
1000
0100
1000
0001
0010
0001
1000
0010
0100
0010
1000
0010
,
0100
0001
1000
0100
1000
0001
0010
0001
1000
0001
1000
0010
,
1000
0001
0100
0001
0010
0100
1000
0010
1000
0001
0100
0001
,
1000
0001
1000
0010
1000
0001
0010
0100
0010
0100
1000
0001
,
0100
0001
0100
0010
1000
0010
0100
0001
1000
0100
0010
0100
,
0010
0001
1000
0010
1000
0010
0100
0001
0100
0010
1000
0001
,
1000
0100
1000
0001
0010
0001
1000
0010
0100
0010
0100
0001
,
1000
0010
1000
0001
1000
0001
0010
0100
1000
0100
0010
0001
,
1000
0100
1000
0001
0100
0001
1000
0010
1000
0100
0010
0001
,
0010
0100
1000
0001
1000
0001
0010
0001
1000
0001
1000
0010
,
1000
0001
0100
0001
0010
0100
1000
0010
1000
0001
0100
0001
,
1000
0010
1000
0010
0100
0001
1000
0100
1000
0100
0010
0001
,
1000
0100
1000
0001
0010
0001
1000
0010
1000
0001
0100
0001
,
1000
0100
1000
0100
0010
0001
1000
0010
1000
0010
0100
0001
,
1000
0010
1000
0001
0100
0001
1000
0100
1000
0001
0010
0001
,
1000
0010
1000
0010
0100
0001
1000
0001
1000
0100
0010
0001
,
1000
0100
1000
0001
0100
0001
1000
0010
0100
0001
0010
0100
,
0010
0001
1000
0100
1000
0001
0010
0001
1000
0001
1000
0010
,
1000
0000
0010
0000
0010
0000
0010
0100
,
0001
1000
0100
1000
,
0100
0200
0000
2300
,
0000
3002
0000
2003
,
0000
3010
0100
0000
,
0020
0000
0000
2030
,
0000
0000
3002
0000
,
1003
0100
0010
0001
1000
0100
0010
0001
,
1000
0010
0100
0001
1000
0010
0100
0001
,
1000
0100
0010
0001
,
0001
0001
1000
0020
,
0000
0230
0000
0302
,
0000
0000
0003
0000
,
2000
0000
0000
3200
,
0000
0000
2300
0000
,
3001
0100
0010
1000
0001
0100
0010
1000
,
0001
0010
0100
1000
0001
0010
0100
1000
,
0001
0100
0100
0010
,
0010
1000
2000
0001
,
3001
0010
0010
0100
,
0100
0010
0002
1000
,
1003
0010
0010
0100
,
0100
0001
0001
0010
,
0100
1000
1000
1000
,
0002
0203
0320
2030
,
3001
0010
0001
0010
0100
1000
0001
0100
0001
0100
0010
1000
,
0001
0100
0001
1000
0010
1000
0001
0010
0001
1000
0100
1000
,
0001
0100
0001
0100
0010
1000
0001
0010
0001
0010
0100
1000
,
0001
0010
0001
1000
0100
1000
0001
0100
0001
1000
0010
1000
,
0001
0010
0001
0010
0100
1000
0001
1000
0001
0100
0010
1000
,
0001
0100
0001
1000
0100
1000
0001
0010
0100
0010
0001
0010
,
0100
1000
0001
0100
0001
1000
0010
1000
0001
1000
0001
0010
,
0001
1000
0100
1000
0010
0100
0001
0010
0001
1000
0100
1000
,
0001
0100
0001
0100
0010
1000
0001
0010
0001
0010
0100
1000
,
0001
0010
0001
1000
0100
1000
0001
0100
0001
1000
0010
1000
,
0100
0010
0100
0010
0001
1000
0001
0100
0001
0100
0010
1000
,
0001
0100
0001
1000
0010
1000
0001
0010
0001
1000
0100
1000
,
0001
0100
0001
0100
0010
1000
0001
0010
0001
0010
0100
1000
,
0001
0100
0001
1000
0010
1000
0001
0010
0100
0010
0001
0010
,
0100
1000
0001
0100
0001
1000
0010
1000
0001
1000
0001
0010
,
0001
1000
0100
1000
0010
0100
0001
0010
0001
1000
0100
1000
,
0001
1000
0001
0010
0001
1000
0010
0100
0010
0100
0001
1000
,
0100
1000
0100
0010
0001
0010
0100
1000
0001
0100
0010
0100
,
0010
1000
0001
0010
0001
0010
0100
1000
0100
0010
0001
1000
,
0001
0100
0001
1000
0010
1000
0001
0010
0100
0010
0100
1000
,
0001
0010
0001
1000
0001
1000
0010
0100
0001
0100
0010
1000
,
0001
0100
0001
1000
0100
1000
0001
0010
0001
0100
0010
1000
,
0010
0100
0001
1000
0001
1000
0010
1000
0001
1000
0001
0010
,
0001
1000
0100
1000
0010
0100
0001
0010
0001
1000
0100
1000
,
0001
0010
0001
0010
0100
1000
0001
0100
0001
0100
0010
1000
,
0001
0100
0001
1000
0010
1000
0001
0010
0001
1000
0100
1000
,
0001
0100
0001
0100
0010
1000
0001
0010
0001
0010
0100
1000
,
0001
0010
0001
1000
0100
1000
0001
0100
0001
1000
0010
1000
,
0001
0010
0001
0010
0100
1000
0001
1000
0001
0100
0010
1000
,
0001
0100
0001
1000
0100
1000
0001
0010
0100
1000
0010
0100
,
0010
1000
0001
0100
0001
1000
0010
1000
0001
1000
0001
0010
,
0001
0000
0010
0000
0010
0000
0010
0001
,
1000
0010
0100
0001
,
0100
0001
0100
0001
,
2000
3000
2000
3000
,
0200
0000
0320
0000
,
0031
1000
0010
1000
,
0010
1000
0010
1000
,
0002
0003
0002
0003
,
0002
0000
0023
0000
,
0130
1000
0001
0100
,
0001
0100
0001
0100
,
0001
0100
0002
0000
,
1003
0000
0001
1000
,
0100
0010
0001
0010
,
0000
0001
0001
1000
,
0001
0100
0100
0010
,
0020
0000
1030
0001
,
2000
3200
0320
0032
2003
3200
0320
0032
,
2003
3200
0320
0032
2003
3200
0320
0032
,
2003
3020
0230
0302
2003
3020
0230
0302
,
2003
3020
0230
0302
2003
3020
0230
0302
,
2003
3200
2300
3020
2030
3200
2300
3020
,
0230
0302
0023
0032
0203
0302
0023
0230
,
1300
0001
0001
0001
,
2000
3200
0320
0032
,
1003
0010
1000
0010
0100
0001
1000
0100
1000
0100
0010
0001
,
1000
0100
1000
0001
0010
0001
1000
0010
1000
0001
0100
0001
,
1000
0100
1000
0100
0010
0001
1000
0010
1000
0010
0100
0001
,
1000
0010
1000
0001
0100
0001
1000
0100
1000
0001
0010
0001
,
1000
0010
1000
0010
0100
0001
1000
0001
1000
0100
0010
0001
,
1000
0100
1000
0001
0100
0001
1000
0010
0100
0010
1000
0010
,
0100
0001
1000
0100
1000
0001
0010
0001
1000
0001
1000
0010
,
1000
0001
0100
0001
0010
0100
1000
0010
1000
0001
0100
0001
,
1000
0100
1000
0100
0010
0001
1000
0010
1000
0010
0100
0001
,
1000
0010
1000
0001
0100
0001
1000
0100
1000
0001
0010
0001
,
0100
0010
0100
0010
1000
0001
1000
0100
1000
0100
0010
0001
,
1000
0100
1000
0001
0010
0001
1000
0010
1000
0001
0100
0001
,
1000
0100
1000
0100
0010
0001
1000
0010
1000
0010
0100
0001
,
1000
0100
1000
0001
0010
0001
1000
0010
0100
0010
1000
0010
,
0100
0001
1000
0100
1000
0001
0010
0001
1000
0001
1000
0010
,
1000
0001
0100
0001
0010
0100
1000
0010
1000
0001
0100
0001
,
1000
0001
1000
0010
1000
0001
0010
0100
0010
0100
1000
0001
,
0100
0001
0100
0010
1000
0010
0100
0001
1000
0100
0010
0100
,
0010
0001
1000
0010
1000
0010
0100
0001
0100
0010
1000
0001
,
1000
0100
1000
0001
0010
0001
1000
0010
0100
0010
0100
0001
,
1000
0010
1000
0001
1000
0001
0010
0100
1000
0100
0010
0001
,
1000
0100
1000
0001
0100
0001
1000
0010
1000
0100
0010
0001
,
0010
0100
1000
0001
1000
0001
0010
0001
1000
0001
1000
0010
,
1000
0001
0100
0001
0010
0100
1000
0010
1000
0001
0100
0001
,
1000
0010
1000
0010
0100
0001
1000
0100
1000
0100
0010
0001
,
1000
0100
1000
0001
0010
0001
1000
0010
1000
0001
0100
0001
,
1000
0100
1000
0100
0010
0001
1000
0010
1000
0010
0100
0001
,
1000
0010
1000
0001
0100
0001
1000
0100
1000
0001
0010
0001
,
1000
0010
1000
0010
0100
0001
1000
0001
1000
0100
0010
0001
,
1000
0100
1000
0001
0100
0001
1000
0010
0100
0001
0010
0100
,
1000
0001
1000
0010
1000
0001
0100
0001
1000
0001
1000
0100
,
1000
0001
0010
0001
0100
0010
1000
0100
1000
0001
0010
0001
,
1000
0001
1000
0100
1000
0001
0100
0010
0100
0010
1000
0001
,
0010
0001
0010
0100
1000
0100
0010
0001
1000
0010
0100
0010
,
0100
0001
1000
0100
1000
0100
0010
0001
0010
0100
1000
0001
,
1000
0010
1000
0001
0100
0001
1000
0100
0010
0100
0010
0001
,
1000
0100
1000
0001
1000
0001
0100
0010
1000
0010
0100
0001
,
1000
0010
1000
0001
0010
0001
1000
0100
1000
0010
0100
0001
,
0100
0010
1000
0001
1000
0001
0100
0001
1000
0001
1000
0100
,
1000
0001
0010
0001
0100
0010
1000
0100
1000
0001
0010
0001
,
1000
0100
1000
0100
0010
0001
1000
0010
1000
0010
0100
0001
,
1000
0010
1000
0001
0100
0001
1000
0100
1000
0001
0010
0001
,
1000
0010
1000
0010
0100
0001
1000
0100
1000
0100
0010
0001
,
1000
0100
1000
0001
0010
0001
1000
0010
1000
0001
0100
0001
,
1000
0100
1000
0100
0010
0001
1000
0001
1000
0010
0100
0001
,
1000
0010
1000
0001
0010
0001
1000
0100
0010
0001
0100
0010
,
0100
0001
1000
0010
1000
0001
0100
0001
1000
0001
1000
0100
,
0010
0001
1000
0001
1000
0010
1000
0001
0100
0001
0010
0100
,
4000
0000
0000
0000
,
0000
0000
0000
0000
,
3004
0000
0000
0000
,
0000
0000
0403
0000
,
0340
0000
0000
0000
,
0000
0000
0000
0000
,
4030
0000
0000
0000
,
0000
0000
0000
0000
0000
0000
0000
3000
;
