#TITLE:connecting people nokia 2006 (dj aligator remix);
#SUBTITLE:;
#ARTIST:Dancing Monkeys Project;
#TITLETRANSLIT:;
#SUBTITLETRANSLIT:;
#ARTISTTRANSLIT:;
#CREDIT:Gorilla v1.0.1 (Dancing Monkeys v1.06);
#BANNER:;
#BACKGROUND:;
#LYRICSPATH:;
#CDTITLE:;
#MUSIC:connecting people nokia 2006 (dj aligator remix).mp3;
#OFFSET:-0.437;
#SAMPLESTART:87.880;
#SAMPLELENGTH:12.000;
#SELECTABLE:YES;
#BPMS:0.000=139.978;
#STOPS:31.000=1.715
,31.000=1.715
,31.000=1.715
,31.000=1.715
,31.000=1.715
,31.000=1.715
,31.000=1.715
,31.000=1.715
,59.000=1.715
,91.000=1.715
,91.000=1.715
,91.000=1.715
,91.000=1.715
,91.000=1.715
,91.000=1.715
,91.000=1.715
,91.000=1.715
,91.000=1.715
,91.000=1.715
,91.000=1.715
,91.000=1.715
,91.000=1.715
,91.000=1.715
,91.000=1.715
,91.000=1.715
,91.000=1.715
;
#BGCHANGES:;
// cache tags:
#FIRSTBEAT:0.000;
#LASTBEAT:143.500;
#SONGFILENAME:Songs/dragon force/connecting people nokia 2006 (dj aligator remix)/connecting people nokia 2006 (dj aligator remix).sm;
#HASMUSIC:1;
#HASBANNER:0;
#MUSICLENGTH:105.098;
// end cache tags

//---------------dance-single - Basic----------------
#NOTES:
     dance-single:
     Basic:
     Easy:
     2:
     0.169,0.200,0.228,0.000,0.000,100.000,24.000,0.000,0.000,0.000:
0000
0000
0000
0000
0000
0000
0000
0000
,
0000
0000
0000
0000
0000
0000
0000
0000
,
0001
0000
0000
0000
0000
0000
0000
0000
,
0000
0000
0000
0000
0000
0000
0000
0000
,
0000
0000
0000
0000
0000
0000
0000
0000
,
1000
0000
0000
0000
0000
0000
0000
0000
,
0000
0000
0000
0000
0000
0000
0000
0000
,
0000
0000
0000
0000
0000
0000
0000
0000
,
0000
,
1010
0000
1000
0000
0010
0000
0001
0000
,
1010
0000
1000
0000
0010
0000
0001
0000
,
0101
0000
0001
0000
0100
0000
1000
0000
,
0101
0000
0001
0000
0100
0000
1000
0000
,
1100
0000
1000
0000
0100
0000
0001
0000
,
1100
0000
1000
0000
0100
0000
0001
0000
,
1100
0000
1000
0000
0100
0000
0001
0000
,
0000
,
1010
0000
0001
0000
0100
0000
0010
0000
,
1100
0000
0001
0000
0010
0000
0100
0000
,
1010
0000
0001
0000
0100
0000
0010
0000
,
1010
0000
0001
0000
0100
0000
0010
0000
,
1100
0000
0001
0000
0010
0000
0100
0000
,
0101
0000
1000
0000
0010
0000
0100
0000
,
1010
0000
0001
0000
0100
0000
0010
0000
,
0011
0000
1000
0000
0100
0000
0010
0000
,
0000
0000
0000
0000
1000
0000
0000
0000
,
1010
0000
0001
0000
0100
0000
0010
0000
,
0011
0000
1000
0000
0100
0000
0010
0000
,
1010
0000
0001
0000
0100
0000
0010
0000
,
1010
0000
0001
0000
0100
0000
0010
0000
,
1100
0000
0001
0000
0010
0000
0100
0000
,
1100
0000
0001
0000
0010
0000
0100
0000
,
0011
0000
1000
0000
0100
0000
0010
0000
,
1100
0000
0001
0000
0010
0000
0100
0000
,
0110
0000
0001
0000
0010
0000
0001
0000
,
1000
0000
0000
0000
0000
0000
0000
0000
,;

//---------------dance-single - Standard----------------
#NOTES:
     dance-single:
     Standard:
     Medium:
     3:
     0.241,0.268,0.228,0.000,0.000,153.000,24.000,0.000,0.000,0.000:
0000
0000
0000
0000
0000
0000
0000
0000
,
0000
0000
0000
0000
0000
0000
0000
0000
,
1000
0000
0000
0000
0000
0000
0000
0000
,
0000
0000
0000
0000
0000
0000
0000
0000
,
0000
0000
0000
0000
0000
0000
0000
0000
,
0001
0000
0000
0000
0000
0000
0000
0000
,
0000
0000
0000
0000
0000
0000
0000
0000
,
1000
0000
0000
0000
0000
0000
0000
0000
,
0000
,
0011
0000
0010
0100
1000
0010
1000
0000
,
1100
0000
0100
0010
0001
0100
0001
0000
,
1010
0000
0010
0100
0001
0010
0001
0000
,
1100
0000
0100
0010
0001
0100
0001
0000
,
0011
0000
0010
0100
1000
0010
1000
0000
,
0101
0000
0100
0010
1000
0100
1000
0000
,
1100
0000
0100
0010
0001
0100
0001
1000
,
0000
,
1100
0000
0100
0001
1000
0010
0100
0000
,
1100
0000
0100
0001
1000
0010
0100
0000
,
1010
0000
0010
0001
1000
0100
0010
0000
,
1010
0000
0010
0001
1000
0100
0010
0000
,
0101
0000
0100
1000
0001
0010
0100
0000
,
1010
0000
0010
0001
1000
0100
0010
0000
,
0101
0000
0100
1000
0001
0010
0100
0000
,
0101
0000
0100
1000
0001
0010
0100
0010
,
0000
0000
0000
0000
1000
0010
1000
0000
,
1100
0000
0100
0001
1000
0010
0100
0000
,
0101
0000
0100
1000
0001
0010
0100
0000
,
0101
0000
0100
1000
0001
0010
0100
0000
,
0011
0000
0010
1000
0001
0100
0010
0000
,
1010
0000
0010
0001
1000
0100
0010
0000
,
0011
0000
0010
1000
0001
0100
0010
0000
,
0011
0000
0010
1000
0001
0100
0010
0000
,
1010
0000
0010
0001
1000
0100
0010
0000
,
1001
0000
1000
0100
0010
0000
0100
0000
,
0001
0000
1000
0000
0000
0000
0000
0000
,;

//---------------dance-single - Heavy----------------
#NOTES:
     dance-single:
     Heavy:
     Hard:
     5:
     0.295,0.290,0.228,0.000,0.000,193.000,24.000,0.000,0.000,0.000:
0001
1000
0000
0000
1000
1000
1000
1000
,
0000
0000
0000
0001
0001
0001
0001
0000
,
0000
0000
0000
0000
0000
0000
0000
0000
,
1000
0010
0000
0000
0010
0010
0010
0010
,
0000
0000
0000
0001
0001
0001
0001
0000
,
0001
0000
0001
0000
0001
0000
0001
0001
,
0001
0000
0001
0000
0001
0001
0001
0001
,
1000
0001
0001
0010
0010
0010
0010
0010
,
0000
,
1010
0000
0010
0100
0010
0000
0100
0000
,
0101
0000
0100
0010
0100
0000
0010
0000
,
1010
0000
0010
0100
0010
0000
0100
0000
,
0101
0000
0100
0010
0100
0000
0010
0000
,
1100
0000
0100
0010
0100
0000
0010
0000
,
1010
0000
0010
0100
0010
0000
0100
0000
,
1100
0000
0100
0010
0100
0000
0010
1000
,
0000
,
1001
0000
0001
1000
0001
0100
1000
0000
,
1001
0000
0001
1000
0001
0010
1000
0000
,
1001
0000
1000
0001
1000
0010
0001
0000
,
1001
0000
1000
0001
1000
0100
0001
0000
,
1001
0000
0001
1000
0001
0010
1000
0000
,
1001
0000
0001
1000
0001
0010
1000
0000
,
1001
0000
0001
1000
0001
0100
1000
0000
,
1001
0000
1000
0001
1000
0100
0001
0100
,
1000
0010
0100
0010
0100
0010
0100
0000
,
1001
0000
0001
1000
0001
0100
1000
0000
,
1001
0000
1000
0001
1000
0010
0001
0000
,
1001
0000
1000
0001
1000
0010
0001
0000
,
1001
0000
0001
1000
0001
0010
1000
0000
,
1001
0000
1000
0001
1000
0100
0001
0000
,
1001
0000
1000
0001
1000
0100
0001
0000
,
1001
0000
1000
0001
1000
0100
0001
0000
,
1001
0000
0001
1000
0001
0010
1000
0000
,
1010
0000
0100
0001
1000
0010
1000
0001
,
1000
0010
0100
0000
0001
0010
0010
0010
,
;
