#TITLE:Click Clock Wood Winter;
#SUBTITLE:Banjo-Kazooie;
#ARTIST:Rareware;
#TITLETRANSLIT:;
#SUBTITLETRANSLIT:;
#ARTISTTRANSLIT:;
#CREDIT:;
#BANNER:ccww.PNG;
#BACKGROUND:ccww-bg.png;
#LYRICSPATH:;
#CDTITLE:kyka06.png;
#MUSIC:ClickClockWoodsWinter.mp3;
#OFFSET:-0.360;
#SAMPLESTART:59.647;
#SAMPLELENGTH:12.500;
#SELECTABLE:YES;
#BPMS:0.000=119.950;
#STOPS:;
#BGCHANGES:;
// cache tags:
#FIRSTBEAT:0.000;
#LASTBEAT:272.000;
#SONGFILENAME:Songs/new/BK - CCW winter/ccww.sm;
#HASMUSIC:1;
#HASBANNER:1;
#MUSICLENGTH:144.013;
// end cache tags

//---------------dance-single - ----------------
#NOTES:
     dance-single:
     :
     Hard:
     9:
     0.391,0.449,0.187,0.000,0.507,367.000,27.000,0.000,0.000,0.000:
1001
0011
0110
1100
,
0110
0000
0000
1001
0000
0000
1100
0000
0000
0010
0100
0001
,
0010
0000
0001
1000
0000
0100
0010
0000
0001
0100
0000
0010
,
1000
0000
0100
0010
0000
0001
0000
0000
0000
0110
0000
0000
,
1001
0000
0000
0100
0000
0000
0010
0000
0001
0100
0000
0010
,
1000
0000
0000
0000
0000
0000
0000
0000
0000
0001
1000
0001
,
1000
0000
0010
0100
0000
0001
0010
0000
0100
1000
0000
0010
,
0100
0000
0001
0010
0000
0100
0000
0000
0000
1100
0000
0000
,
0011
0000
0000
0110
0000
0000
0001
0000
1000
0100
0000
0010
,
0001
0000
0000
0000
0000
0000
0000
0000
0000
0001
0010
0100
,
1000
0000
0010
0100
0000
0001
0010
0000
0100
1000
0000
0100
,
1000
0000
0010
0100
0000
0001
0000
0000
0000
0010
0000
0000
,
0100
0000
0000
1000
0000
0000
0010
0000
0100
0001
0000
0010
,
0001
0000
0000
0000
0000
0000
0000
0000
0000
0001
1000
0001
,
0100
0000
0010
1000
0000
0100
0010
0000
0001
0100
0000
0010
,
1000
0000
0001
0010
0000
0100
0000
0000
0000
1001
0000
0000
,
0011
0000
0000
0110
0000
0000
1100
0000
0010
0001
0000
0110
,
0000
0000
0000
0000
,
0001
0000
0000
0000
0000
0000
0100
0000
1000
0010
0000
0000
,
0100
0000
0000
0001
0000
0000
1000
0000
0000
0000
0000
0100
,
0010
0000
0000
0000
0000
0000
0001
0000
0100
0010
0000
0000
,
1000
0000
0000
0001
0010
0100
1000
0000
0000
0010
0000
0000
,
0100
0000
0000
0000
0000
0000
0001
0000
1000
0100
0000
0000
,
0010
0000
0000
0001
0000
0000
0100
0000
0000
0000
0000
1000
,
0010
0000
0000
0100
0000
0000
0010
0000
0000
0001
0000
0100
,
0010
0001
1000
0001
0010
0100
1000
0001
0010
0100
1000
0001
,
0010
0000
1000
0010
0000
0100
0001
0000
0010
1000
0000
0001
,
0010
0000
0100
1000
0000
0010
0000
0000
0000
0100
0000
0000
,
0001
0000
0000
0010
0000
0000
0100
0000
1000
0010
0000
0100
,
0000
0000
0000
0000
0000
0000
0011
0000
0000
1000
0100
1000
,
0100
0000
1000
0010
0000
0100
0001
0000
1000
0010
0000
0100
,
0001
0000
0010
0100
0000
1000
0000
0000
0000
0001
0000
0000
,
0010
0000
0000
0100
0000
0000
1000
0000
0010
0100
0000
0001
,
0000
0000
0000
0000
0000
0000
0000
0000
0000
1000
0100
0010
,
0001
0000
0100
0010
0000
1000
0100
0000
0010
1000
0000
0001
,
0100
0000
0001
0100
0000
0010
0000
0000
0000
1000
0000
0000
,
0001
0000
0000
0100
0000
0000
0010
0000
1000
0100
0000
0010
,
0000
0000
0000
0000
0000
0000
0000
0000
0000
0100
1000
0010
,
0001
0000
0010
0100
0000
0001
1000
0000
0010
0100
0000
0001
,
0010
0000
0100
1000
0000
0010
0000
0000
0000
1000
0000
0000
,
0100
0000
0000
0010
0000
0000
0001
0000
0100
0010
0000
1000
,
0000
0000
1001
0000
,
0001
0000
0000
0000
0000
0000
0010
0000
1000
0100
0000
0000
,
1000
0000
0000
0001
0000
0000
0100
0000
0000
0000
0000
0010
,
1000
0000
0000
0000
0000
0000
0100
0000
0010
0001
0000
0000
,
0100
0000
0000
0010
1000
0100
1000
0000
0000
0010
0000
0000
,
0100
0000
0000
0000
0000
0000
0001
0000
0010
0100
0000
0000
,
1000
0000
0000
0010
0000
0000
0100
0000
0000
0000
0000
0001
,
0010
0000
0000
0100
0000
0000
1000
0000
0000
0010
0000
0100
,
0001
0010
0001
0010
0001
0010
0001
0010
0001
0010
0001
0100
,
0001
0000
0100
0010
0000
1000
0001
0000
0100
0010
0000
1000
,
0100
0000
0010
0001
0000
0100
0000
0000
0000
0010
0000
0000
,
1000
0000
0000
0100
0000
0000
0010
0000
0001
0100
0000
0010
,
0000
0000
0000
0000
0000
0000
0000
0000
0000
0001
1000
0001
,
1000
0000
0010
0100
0000
0001
0010
0000
0100
1000
0000
0010
,
1000
0000
0100
1000
0000
0010
0000
0000
0000
0100
0000
0000
,
0001
0000
0000
0010
0000
0000
0100
0000
1000
0010
0000
0100
,
0000
0000
1001
0000
,
0001
0000
0000
0000
0000
0000
0010
0000
0100
1000
0000
0000
,
0010
0000
0000
0100
0000
0000
0001
0000
0000
0000
0000
0010
,
0100
0000
0000
0000
0000
0000
1000
0000
0010
0100
0000
0000
,
0001
0000
0000
0010
0001
0010
0001
0000
0000
1000
0000
0000
,
0100
0000
0000
0000
0000
0000
0001
0000
1000
0010
0000
0000
,
0100
0000
0000
0001
0000
0000
0010
0000
0000
0000
0000
0100
,
1000
0000
0000
0010
0000
0000
0100
0000
0000
0001
0000
0010
,
0100
1000
0100
1000
0100
1000
0010
0100
0010
0100
0010
0100
,
1001
0011
1100
1010
,
0110
0000
0000
0101
0000
0000
1001
0000
0000
0001
1000
0001
,
1000
0000
0000
0000
;

//---------------dance-single - ----------------
#NOTES:
     dance-single:
     :
     Medium:
     5:
     0.224,0.260,0.021,0.000,0.076,223.000,3.000,0.000,0.000,0.000:
1000
0001
1000
0010
,
0100
0001
0010
0001
,
1000
0010
0100
0001
,
0010
0000
0000
0000
0001
0000
0000
0000
0000
1000
0000
0000
,
0010
0000
0000
0100
0000
0000
0001
0000
0000
0010
0000
0100
,
0000
0000
0000
0000
,
1000
0100
0010
0001
,
0100
0000
0000
0000
0000
0010
0000
0000
0000
1000
0000
0000
,
0100
0000
0000
0010
0000
0000
0001
0000
0000
0000
0000
0010
,
0000
0000
0000
0000
,
1000
0100
0010
0001
,
0100
0000
0000
0000
0000
0010
0000
0000
0000
0000
0000
0000
,
0001
0000
0000
1000
0000
0000
0010
0000
0000
0100
0000
0010
,
0000
0000
0000
0000
,
1000
0100
0010
0001
,
0010
0000
0000
0000
0000
0001
0000
0000
0000
0000
0000
0000
,
1000
0000
0000
0010
0000
0000
0100
0000
0000
0001
0000
0010
,
0000
0000
0000
0000
,
1001
0000
0100
0010
,
1000
0100
0010
0000
,
0011
0000
1000
0100
,
0010
0001
0100
0010
,
1010
0000
0100
0001
,
0010
0100
1000
0000
,
1000
0001
0100
0010
,
1000
0100
0010
0001
,
0100
0010
1000
0100
,
0010
0000
0000
0001
0000
0100
0000
0000
0000
0010
0000
0000
,
1000
0000
0000
0100
0000
0000
0010
0000
0000
0001
0000
1000
,
0000
0000
0000
0000
,
1000
0010
0100
0001
,
0010
0000
0000
0001
0000
0100
0000
0000
0000
0010
0000
0000
,
1000
0000
0000
0100
0000
0000
0010
0000
0000
0001
0000
0010
,
0000
0000
0000
0000
,
1000
0010
1000
0100
,
1000
0000
0000
0010
0000
0100
0000
0000
0000
0001
0000
0000
,
0010
0000
0000
0100
0000
0000
1000
0000
0000
0010
0000
0100
,
0000
0000
0000
0000
,
0001
0010
0100
1000
,
0010
0000
0000
0100
0000
0001
0000
0000
0000
0010
0000
0000
,
0001
0000
0000
1000
0000
0000
0010
0000
0000
0100
0000
0001
,
0000
0000
0000
0000
,
1000
0000
0100
0010
,
0001
0100
0010
0000
,
1000
0000
0001
0010
,
0100
1000
0010
0100
,
0001
0000
0010
0001
,
1000
0010
0100
0000
,
0001
0010
0100
1000
,
0010
0100
0001
0010
,
0001
1000
0010
0100
,
0001
0000
0000
0010
0000
0001
0000
0000
0000
1000
0000
0000
,
0010
0000
0000
0100
0000
0000
0001
0000
0000
1000
0000
0100
,
0000
0000
0000
0000
,
0010
0001
0100
0010
,
1000
0000
0000
0100
0000
0010
0000
0000
0000
0001
0000
0000
,
0100
0000
0000
0010
0000
0000
1000
0000
0000
0100
0000
0010
,
0000
0000
0000
0000
,
1000
0000
0010
0100
,
0001
0010
0100
0000
,
1000
0000
0001
0100
,
0010
1000
0100
0010
,
0001
0000
0100
0010
,
1000
0100
0010
0000
,
0001
0100
0010
1000
,
0100
0010
0001
0100
,
0010
0010
0010
0010
,
1000
0000
0000
1000
0000
0000
1000
0000
0000
1000
0001
1000
,
0001
0000
0000
0000
;

//---------------dance-single - ----------------
#NOTES:
     dance-single:
     :
     Challenge:
     10:
     0.405,0.519,0.271,0.000,0.510,369.000,39.000,0.000,0.000,0.000:
1001
1100
0110
0011
,
0110
0000
0000
1001
0000
0000
0011
0000
0000
0100
0010
1000
,
0110
0000
1000
0001
0000
0010
0100
0000
1000
0010
0000
0100
,
0001
0000
0010
0100
0000
1000
0000
0000
0000
0110
0000
0000
,
1001
0000
0000
0010
0000
0000
0100
0000
1000
0010
0000
0100
,
0001
0000
0000
0000
0000
0000
0000
0000
0000
1000
1000
1000
,
1001
0000
0100
0110
0000
1000
1100
0000
0010
0011
0000
0100
,
0110
0000
1000
0100
0000
0010
0000
0000
0000
0011
0000
0000
,
1100
0000
0000
0110
0000
0000
1000
0000
0001
0010
0000
0100
,
1000
0000
0000
0000
0000
0000
0000
0000
0000
1000
0100
0010
,
0001
0000
0100
0010
0000
1000
0100
0000
0010
0001
0000
0010
,
0001
0000
0100
0010
0000
1000
0000
0000
0000
0100
0000
0000
,
0010
0000
0000
0001
0000
0000
0100
0000
0010
1000
0000
0100
,
1100
0000
0000
0000
0000
0000
0000
0000
0000
1000
0001
1000
,
1010
0000
0100
0001
0000
0010
0100
0000
1000
0010
0000
0100
,
0001
0000
1000
0100
0000
0010
0000
0000
0000
1001
0000
0000
,
1100
0000
0000
0110
0000
0000
0011
0000
0100
1000
0000
0110
,
1000
0000
0000
0000
,
1000
0000
0000
0000
0000
0000
0010
0000
0001
0100
0000
0000
,
0010
0000
0000
1000
0000
0000
0001
0000
0000
0000
0000
0010
,
0100
0000
0000
0000
0000
0000
1000
0000
0010
0100
0000
0000
,
0001
0000
0000
1000
0100
0010
0001
0000
0000
0100
0000
0000
,
0010
0000
0000
0000
0000
0000
1000
0000
0001
0010
0000
0000
,
0100
0000
0000
0000
0000
0000
1000
0000
0000
0000
0000
0000
0010
0000
0000
0000
0000
0000
0000
0000
0000
0000
0001
0010
,
0100
0000
0000
0010
0000
0000
0100
0000
0000
1000
0000
0010
,
0100
1000
0001
1000
0100
0010
0001
1000
0100
0010
0001
1000
,
0010
0000
0001
0100
0000
0010
1000
0000
0100
0001
0000
1000
,
0100
0000
0010
0001
0000
0100
0000
0000
0000
0010
0000
0000
,
1000
0000
0000
0100
0000
0000
0010
0000
0001
0100
0000
0010
,
0000
0000
0000
0000
0000
0000
1100
0000
0000
0001
0010
0001
,
0010
0000
0001
0100
0000
0010
1000
0000
0001
0100
0000
0010
,
1000
0000
0100
0010
0000
0001
0000
0000
0000
1000
0000
0000
,
0100
0000
0000
0010
0000
0000
0001
0000
0100
0010
0000
1000
,
0000
0000
0000
0000
0000
0000
0000
0000
0000
0001
0010
0100
,
1000
0000
0010
0100
0000
0001
0010
0000
0100
0001
0000
1000
,
0010
0000
1000
0010
0000
0100
0000
0000
0000
0001
0000
0000
,
1000
0000
0000
0010
0000
0000
0100
0000
0001
0010
0000
0100
,
0000
0000
0000
0000
0000
0000
0000
0000
0000
0010
0001
0100
,
1000
0000
0100
0010
0000
1000
0001
0000
0100
0010
0000
1000
,
0100
0000
0010
0001
0000
0100
0000
0000
0000
0001
0000
0000
,
0010
0000
0000
0100
0000
0000
1000
0000
0010
0100
0000
0001
,
0000
0000
1001
0000
,
1000
0000
0000
0000
0000
0000
0100
0000
0001
0010
0000
0000
,
0001
0000
0000
1000
0000
0000
0010
0000
0000
0000
0000
0100
,
0001
0000
0000
0000
0000
0000
0010
0000
0100
1000
0000
0000
,
0010
0000
0000
0100
0001
0010
0001
0000
0000
0100
0000
0000
,
0010
0000
0000
0000
0000
0000
1000
0000
0100
0010
0000
0000
,
0001
0000
0000
0100
0000
0000
0010
0000
0000
0000
0000
1000
,
0100
0000
0000
0010
0000
0000
0001
0000
0000
0100
0000
0010
,
1000
0100
1000
0100
1000
0100
1000
0100
1000
0100
1000
0010
,
1000
0000
0010
0100
0000
0001
1000
0000
0010
0100
0000
0001
,
0010
0000
0100
1000
0000
0010
0000
0000
0000
0100
0000
0000
,
0001
0000
0000
0010
0000
0000
0100
0000
1000
0010
0000
0100
,
0000
0000
0000
0000
0000
0000
0000
0000
0000
1000
0001
1000
,
0001
0000
0100
0010
0000
1000
0100
0000
0010
0001
0000
0100
,
0001
0000
0010
0001
0000
0100
0000
0000
0000
0010
0000
0000
,
1000
0000
0000
0100
0000
0000
0010
0000
0001
0100
0000
0010
,
0000
0000
1001
0000
,
1000
0000
0000
0000
0000
0000
0100
0000
0010
0001
0000
0000
,
0100
0000
0000
0010
0000
0000
1000
0000
0000
0000
0000
0100
,
0010
0000
0000
0000
0000
0000
0001
0000
0100
0010
0000
0000
,
1000
0000
0000
0100
1000
0100
1000
0000
0000
0001
0000
0000
,
0010
0000
0000
0000
0000
0000
1000
0000
0001
0100
0000
0000
,
0010
0000
0000
1000
0000
0000
0100
0000
0000
0000
0000
0010
,
0001
0000
0000
0100
0000
0000
0010
0000
0000
1000
0000
0100
,
0010
0001
0010
0001
0010
0001
0100
0010
0100
0010
0100
0010
,
1001
1100
0011
0101
,
0110
0000
0000
1010
0000
0000
1001
0000
0000
1001
1001
1001
,
1001
0000
0000
0000
;

//---------------dance-single - ----------------
#NOTES:
     dance-single:
     :
     Easy:
     2:
     0.117,0.212,0.139,0.014,0.000,96.000,20.000,2.000,0.000,0.000:
1000
0000
0000
0000
,
0100
0000
0000
0000
,
1000
0000
0001
0000
,
0010
0000
0000
0000
,
0100
0000
0010
0000
,
1000
0000
0000
0000
,
1000
0000
0010
0000
,
0100
0000
0000
0000
,
0001
0000
0100
0000
,
0010
0000
0000
0000
,
1000
0000
0001
0000
,
0100
0000
0000
0000
,
0010
0000
1000
0000
,
0100
0000
0000
0000
,
0010
0000
0001
0000
,
1000
0000
0000
0000
,
0100
0000
0010
0000
,
0001
0000
0000
0000
,
1001
0000
0000
0000
,
0110
0000
0000
0000
,
1100
0000
0000
0000
,
0011
0000
0010
0000
,
0101
0000
0000
0000
,
0110
0000
0000
0000
,
1001
0000
1000
0000
,
1100
0000
0010
0000
,
0011
0000
0000
0000
,
1001
0000
0000
0000
,
1000
0000
0010
0000
,
0100
0000
0000
0000
,
0001
0000
0010
0000
,
0100
0000
0000
0000
,
1001
0000
0000
0000
,
0110
0000
0000
0000
,
1000
0000
0100
0000
,
0010
0000
0001
0000
,
1000
0000
0010
0000
,
0100
0200
0000
0000
,
0301
0000
0010
0000
,
0100
0000
1000
0000
,
0010
0000
0100
0000
,
1001
0000
0000
0000
,
0010
0000
0000
0000
,
1001
0000
0000
0000
,
1000
0000
0000
0000
,
1010
0000
0000
0000
,
0100
0000
0000
0000
,
0011
0000
0000
0000
,
1001
0000
0110
0000
,
1001
0000
0110
0000
,
1000
0000
0000
0000
,
0100
0000
0000
0000
,
0010
0000
0001
0000
,
1000
0000
0000
0000
,
0010
0000
1000
0000
,
0100
0000
0000
0000
,
0001
0000
0100
0000
,
0010
0000
0000
0000
,
1000
0000
0000
0000
,
0001
0000
0000
0000
,
0010
0000
0000
0000
,
0100
0000
0000
0000
,
1000
0000
0000
0000
,
0010
0000
0000
0000
,
0100
0000
0000
0000
,
0001
0002
0000
0000
,
1003
0000
0000
0000
,
0010
0000
0000
0001
,
1000
0000
0000
0000
;
