#TITLE:THE SHINING POLARIS;
#SUBTITLE:(kors k mix);
#ARTIST:LED ft. Sana;
#TITLETRANSLIT:;
#SUBTITLETRANSLIT:;
#ARTISTTRANSLIT:;
#CREDIT:;
#BANNER:shining polaris bn.png;
#BACKGROUND:shining polaris bg.png;
#LYRICSPATH:;
#CDTITLE:zim cdtitle.png;
#MUSIC:THE SHINING POLARIS (kors k mix).ogg;
#OFFSET:-0.013;
#SAMPLESTART:100.040;
#SAMPLELENGTH:12.000;
#SELECTABLE:YES;
#BPMS:0.000=172.000,136.000=86.000,167.000=172.000,260.000=688.000,264.000=172.000;
#STOPS:167.000=0.349
,260.000=0.065
,260.250=0.065
,260.500=0.065
,260.750=0.065
,261.000=0.065
,261.250=0.065
,261.500=0.065
,261.750=0.065
,262.000=0.065
,262.250=0.065
,262.500=0.065
,262.750=0.065
,263.000=0.065
,263.250=0.065
,263.500=0.065
,263.750=0.065
;
#BGCHANGES:;
// cache tags:
#FIRSTBEAT:5.500;
#LASTBEAT:328.000;
#SONGFILENAME:Songs/SSSC PACK/[Zimlord] - THE SHINING POLARIS (kors k mix)/THE SHINING POLARIS (kors k mix).sm;
#HASMUSIC:1;
#HASBANNER:1;
#MUSICLENGTH:129.802;
// end cache tags

//---------------dance-single - zimlord----------------
#NOTES:
     dance-single:
     zimlord:
     Challenge:
     13:
     1.000,1.000,0.116,0.963,1.000,820.000,15.000,125.000,0.000,0.000:



0000
0000
0000
0000
,
0000
0000
0000
0000
0000
0000
0000
0000
0000
0000
0000
0000
0000
0000
0000
0000
0000
0000
0000
0000
0000
0000
0000
0000
0002
0000
0000
0000
0000
0000
0000
0000
0203
0000
0000
0000
0000
0000
0000
0000
0320
0000
0000
0000
0000
0000
0000
0000
2030
0000
0000
0000
0000
0000
0000
0000
3200
0000
0000
0000
0000
0000
0000
0300
,
1100
0000
0100
0000
0010
0001
0010
0000
0100
0000
1000
0000
0001
0100
0001
1000
,
0000
0000
0001
0000
1000
0100
1000
0000
0001
0000
0100
0000
0010
1000
0010
0100
,
0000
0000
0001
0000
1000
0100
1000
0000
0100
0000
0010
0000
0001
0100
0001
1000
,
0000
0000
0010
0000
0100
0001
0100
0000
0010
0000
1000
0000
0100
0010
0100
1000
,
0001
0000
1000
0000
0010
1000
0010
0000
0100
0000
0001
0000
1000
0100
1000
0001
,
0000
0000
0010
0000
0100
1000
0100
0010
0001
0000
1000
0010
0000
1000
0100
0010
,
0002
0000
0000
0000
1003
0010
0100
0000
0101
0000
0000
0000
2020
3030
0000
0000
,
1100
0000
0100
0010
0001
1000
0001
0100
0010
0000
1000
0000
0001
1000
0100
0010
,
0100
0000
1000
0000
0001
0100
0001
0000
1000
0000
0100
0000
0010
0100
0010
0001
,
0000
0000
1000
0000
0001
1000
0001
0000
1000
0000
0010
0000
0100
0001
0100
0010
,
0000
0000
1000
0000
0100
0010
0100
0000
0010
0000
0001
0000
1000
0010
0100
0010
,
0000
0000
1000
0000
0001
0100
0001
0000
1000
0000
0100
0000
0010
0001
1000
0001
,
0100
0000
0010
0000
1000
0100
0010
0000
0001
0000
1000
0000
0001
0100
0010
1000
,
0001
0010
0100
1000
0100
0010
0001
1000
0010
1000
0001
0100
0010
1000
0010
1000
,
0100
0100
0010
0000
0001
0000
0100
0000
,
0010
1000
0001
0100
0001
1000
0100
0010
0001
1000
0010
1000
0001
0100
0010
1000
,
0100
0010
0101
0200
0302
2003
3020
2030
,
0000
3200
0320
0032
0000
0203
0320
2030
,
0000
0000
3002
0000
0023
0000
0230
0000
1300
0000
0002
0003
0200
0300
0010
0000
,
1000
0100
0010
0001
1000
0010
1000
0010
0100
0000
0001
1000
0000
0001
1000
0000
,
0010
0100
1010
2000
3002
2003
3200
0320
,
0000
0032
0203
0320
0000
2030
3200
0320
,
0000
0000
0000
0000
0032
0003
0200
0300
0010
0000
1000
0000
0002
0003
0100
0000
,
0010
1000
0010
0100
0001
1000
0100
0010
0001
0000
1000
0001
0000
1000
0001
0000
,
1000
0100
1100
2000
3002
0203
0320
2030
,
3200
0300
0020
0030
0002
0003
2000
3000
0001
0000
0200
0300
0020
0030
1000
0000
,
0100
0000
0000
0000
0010
0000
0000
0000
0001
0000
0000
0000
2000
0000
0000
0000
3002
0000
0000
0000
0203
0000
0000
0000
0320
0000
0000
0000
2030
3000
0000
0000
,
0200
0000
0300
0000
0000
0000
0020
0000
0000
0030
0000
0000
0002
0000
0000
0000
0000
0000
0203
0000
0000
0000
0000
0000
0000
0000
0000
0000
0000
0000
0320
0000
0000
0000
0000
0000
2030
0000
0000
0000
0000
0000
3002
0000
0000
0000
0000
0000
,
0003
0000
0000
0000
0000
0000
2000
0000
3002
0000
0000
0023
0000
0000
0230
0000
,
0300
0000
2000
3002
0003
0000
0200
0320
,
0000
0000
0230
0000
,
0301
1000
0100
0010
0100
1000
0001
0100
0001
0100
0010
1000
0001
1000
0100
0010
,
0002
0000
2003
3020
0000
0230
0000
0302
0000
2003
3200
0000
0300
0000
0000
0020
,
0032
0000
0000
0000
0003
0000
2000
3000
0002
0000
0003
0000
0000
0000
0200
0000
0000
0000
0302
0000
0000
0000
2003
0000
0000
0000
3002
0000
0000
0000
0023
0000
,
0230
0000
0000
0000
0300
0000
0000
0000
2000
0000
3002
0000
0203
0000
0320
0000
0000
0000
2030
0000
0000
0000
3002
0000
0000
0000
0003
0000
2000
0000
0000
3200
,
0000
0320
0000
0000
0000
0000
0000
0000
0000
0000
0000
0000
0000
0000
0000
0032
,
2003
0000
3200
0000
0000
0000
0320
0000
0000
0000
0032
0000
0000
0000
0203
0000
0300
0000
0020
0000
0000
0000
0230
0300
0000
0000
0020
0000
0030
0000
2000
0000
,
3020
0000
0230
0302
0000
2003
0000
3200
0000
0320
0000
0230
0000
2300
0000
3002
,
2003
3000
0000
0000
0002
0000
0023
0230
0000
2300
0000
3002
0000
0203
0320
0000
,
2030
0000
0000
0000
0000
0000
0000
0000
0000
0000
0000
3200
0310
0000
0001
0100
,
0010
1000
0000
0100
0010
0001
1000
0010
0000
0100
0000
0001
0000
1000
0100
0000
,
0010
0000
0000
0001
0000
0000
0100
0000
0000
0010
0000
1000
0000
0000
0100
0000
,
0010
0000
0001
0000
1000
0000
0001
0100
0000
0001
0000
1000
0000
0100
0010
0000
,
0001
0000
0000
1000
0000
0000
0010
0000
0100
0000
0000
0001
0000
0000
1000
0000
,
0100
0010
0000
0000
0001
1000
0100
0010
0000
0001
0000
1000
0000
0001
0100
0000
,
0010
0000
0000
1000
0000
0000
0100
0000
0000
0010
0000
0001
0000
0000
1000
0000
,
0001
0100
0001
0100
0010
1000
0001
0100
0010
1000
0010
1000
0001
1000
0100
0010
,
0001
0000
0000
1000
0000
0000
0100
0000
0010
0000
0000
0001
0000
1000
0000
0001
,
0100
0010
0000
0000
1000
0001
1000
0100
0000
0010
0000
0100
0000
1000
0001
0000
,
0100
0000
0000
0001
0000
0000
1000
0000
0000
0100
0000
0010
0000
0000
0001
0000
,
1000
0000
0001
0000
0010
0000
0100
1000
0000
0001
0000
0010
0000
0100
1000
0000
,
0001
0000
0000
0100
0000
0000
0010
0000
1000
0000
0000
0100
0000
0000
0010
0000
,
0001
1000
0000
0000
0001
0100
0010
0100
0000
0010
0000
1000
0000
0100
0010
0000
,
0001
0000
0000
1000
0000
0000
0010
0000
0000
0100
0000
0001
0000
0000
1000
0000
,
0100
0000
0010
0000
0001
0000
1000
0010
0000
0100
0000
0001
0000
1000
0100
0000
,
0011
0000
0000
0101
0000
0000
0010
0000
1010
0000
0000
1100
0000
0010
0000
0001
,
0100
0010
0000
0000
1000
0100
0010
0001
0000
0010
0000
0100
0000
1000
0001
0000
,
0100
0000
0000
0010
0000
0000
1000
0000
0000
0001
0000
0010
0000
0000
0100
0000
,
1000
0000
0001
0000
0100
0000
0010
1000
0000
0100
0000
0010
0000
0001
0100
0000
,
0110
0000
0000
1010
0000
0000
1000
0000
1100
0000
0000
0110
0000
0000
0001
0000
,
0100
0001
0000
0000
0010
0001
1000
0010
0000
1000
0000
0001
0000
0100
0010
0000
,
1000
0000
0000
0100
0000
0000
0010
0000
0000
0001
0000
0100
0000
0000
0010
0000
,
1000
0000
0100
0000
0010
0000
0001
1000
0000
0100
0000
0010
0000
0001
0100
0000
,
0010
1000
0010
1000
0100
0010
0001
1000
0010
0100
0010
1000
0001
0100
0010
1000
,
0001
0100
0001
0100
0010
1000
0100
0010
0001
1000
0001
0100
0010
1000
0010
0100
,
0001
1000
0100
0010
0100
1000
0001
0010
0001
1000
0100
0010
0001
0100
0010
1000
,
0100
0010
0001
0010
0100
1000
0001
0100
0001
0010
0100
1000
0100
0010
0001
1000
,
0001
0100
0010
1000
0100
1000
0001
0100
0001
1000
0100
0010
0001
1000
0100
0010
,
0100
1000
0001
0100
0001
1000
0010
0100
0001
1000
0100
0010
0001
1000
0001
0100
,
0010
1000
0010
0100
0001
1000
0100
0010
0001
1000
0100
1000
0001
0010
0001
0100
,
0010
1000
0001
0100
0001
1000
0100
0010
0001
1000
0010
0100
0001
0100
0010
1000
,
0001
0100
0001
0100
0010
1000
0010
0100
0001
1000
0100
0010
0001
1000
0100
0010
,
0001
0100
0001
1000
0010
0100
0001
0100
0010
1000
0100
0010
0001
1000
0001
0100
,
0010
0100
0001
1000
0100
0010
0100
1000
0001
0100
0001
0010
0100
1000
0001
1000
,
0010
0100
0010
1000
0001
1000
0100
0010
0001
1000
0100
0010
0100
1000
0001
0100
,
0010
1000
0010
1000
0001
0100
0001
1000
0100
0010
0100
1000
0001
0100
0010
0100
,
0001
1000
0100
0010
0001
1000
0001
1000
0010
0100
0001
0100
0010
1000
0100
0010
,
0001
1000
0100
0010
0100
1000
0001
0100
0001
1000
0010
0100
0001
0010
0001
0010
,
0100
1000
0100
1000
0100
1000
0100
0010
0001
0100
0001
0100
0001
1000
0100
0010
,
0001
1000
0001
1000
0001
1000
0001
1000
0001
1000
0001
1000
0001
1000
0001
1000
,
0010
0000
0000
0000
;
