#TITLE:All Of Me;
#SUBTITLE:;
#ARTIST:DJ Sharpnel;
#TITLETRANSLIT:;
#SUBTITLETRANSLIT:;
#ARTISTTRANSLIT:;
#CREDIT:;
#BANNER:all of me bn.png;
#BACKGROUND:all of me bg.png;
#LYRICSPATH:;
#CDTITLE:;
#MUSIC:All Of Me.ogg;
#OFFSET:-2.712;
#SAMPLESTART:184.054;
#SAMPLELENGTH:21.333;
#SELECTABLE:YES;
#DISPLAYBPM:180.000;
#BPMS:0.000=180.000;
#STOPS:;
#BGCHANGES:;
// cache tags:
#FIRSTBEAT:32.000;
#LASTBEAT:1058.063;
#SONGFILENAME:Songs/SHARPNELSTREAMZ v2/All Of Me/All Of Me.sm;
#HASMUSIC:1;
#HASBANNER:1;
#MUSICLENGTH:359.831;
// end cache tags

//---------------dance-single - 16+ (TYLR)----------------
#NOTES:
     dance-single:
     16+ (TYLR):
     Challenge:
     16:
     1.000,1.000,0.006,0.108,1.000,3511.000,2.000,39.000,20.000,0.000:
0000
0000
0000
0000
,
0000
0000
0000
0000
,
0000
0000
0000
0000
,
0000
0000
0000
0000
,
0000
0000
0000
0000
,
0000
0000
0000
0000
,
0000
0000
0000
0000
,
0000
0000
0000
0000
,
0001
0100
0010
0100
0001
1000
0100
1000
,
0010
0100
0001
0100
0010
1000
0100
1000
,
0010
0100
0001
0100
0010
1000
0100
1000
,
0001
0000
0010
0000
0100
0000
0010
0000
0001
0000
0001
0000
0100
0000
0010
1000
,
0010
0100
0001
0100
0010
1000
0100
1000
,
0001
0100
0010
0100
0001
1000
0100
1000
,
0001
0010
0100
M010
0001
1000
0100
1000
,
0010
1000
0010
0000
0100
0001
0100
0001
1000
0001
0010
0000
0100
1000
0100
1000
,
00M1
1000
0001
0000
0100
0010
0100
0000
0010
1000
0010
0000
1000
0001
1000
0000
,
0100
0010
0100
0000
0010
0001
0010
0000
0100
1000
0100
0000
1000
0010
1000
0000
,
0001
0100
0001
0000
0010
0100
0010
0000
0001
1000
0001
0000
1000
0010
1000
0000
,
0001
0100
0001
0000
0010
0100
0010
0000
0001
0000
1000
0000
0010
0000
1000
0001
,
0010
0100
0010
0000
0100
1000
0100
0000
1000
0001
1000
0000
0010
0100
0010
0000
,
1000
0001
1000
0000
0001
0010
0001
0000
1000
0100
1000
0000
0001
0010
0001
0000
,
1000
0010
1000
0000
0001
0100
0001
0000
0010
0100
0010
0000
0001
1000
0001
0000
,
1000
0010
1000
0000
0001
0000
1000
0001
0010
0100
0010
0000
0001
0000
1000
0000
,
001M
1000
0010
0000
0100
0001
0100
0000
0001
0010
0001
0000
1000
0100
1000
0000
,
0010
0100
0010
0000
1000
0100
1000
0000
0001
0010
0001
0000
0100
0010
0100
0000
,
0001
0010
0001
0000
1000
0100
1000
0000
0001
0100
0001
0000
1000
0010
1000
0000
,
0100
0010
0100
0000
1000
0001
1000
0000
0010
0000
0100
0000
0001
0000
0100
0010
,
1000
0001
1000
0000
0100
0010
0100
0000
1000
0100
1000
0000
0001
0010
0001
0000
,
1000
0010
1000
0000
0001
0100
0001
0000
1000
0100
1000
0000
0010
0100
0010
0000
,
1000
0001
1000
0000
0001
0010
0001
0000
1000
0100
1000
0000
0010
1000
0010
0000
,
0100
0001
0100
0000
0010
0000
1000
0001
0010
0100
1000
0000
0001
0000
0010
0000
,
0001
1000
0010
0100
0010
1000
0001
0100
0001
1000
0010
0100
0010
1000
0001
1000
,
0100
0010
0001
1000
0001
0010
0100
1000
0100
0010
0001
1000
0001
0010
0100
1000
,
0001
0100
0010
1000
0001
1000
0010
0100
0001
0100
0010
1000
0001
1000
0010
0100
,
0001
0010
0100
1000
0001
1000
0100
0010
0001
0010
0100
1000
0001
0100
0010
1000
,
0001
1000
0010
0100
0010
1000
0001
0100
0001
1000
0010
0100
0010
1000
0001
1000
,
0100
0010
0001
1000
0001
0010
0100
1000
0100
0010
0001
1000
0001
0010
0100
1000
,
0001
0100
0010
1000
0001
1000
0010
0100
0001
0100
0010
1000
0001
1000
0010
0100
,
0001
1000
0100
0010
0001
0010
0100
1000
0010
0100
0001
0010
0001
0100
0010
1000
,
0001
1000
0100
0010
0100
1000
0001
0010
0001
1000
0100
0010
0100
1000
0001
1000
,
0010
0100
0001
1000
0001
0100
0010
1000
0010
0100
0001
1000
0001
0100
0010
1000
,
0001
0010
0100
1000
0001
1000
0100
0010
0001
0010
0100
1000
0001
1000
0100
0010
,
0001
0100
0010
1000
0001
1000
0010
0100
0001
0100
0010
1000
0001
0010
0100
1000
,
0001
1000
0100
0010
0100
1000
0001
0010
0001
1000
0100
0010
0100
1000
0001
1000
,
0010
0100
0001
1000
0001
0100
0010
1000
0010
0100
0001
1000
0001
0100
0010
1000
,
0001
0010
0100
1000
0001
1000
0100
0010
0001
0010
0100
1000
0001
1000
0100
0010
,
0001
0100
0010
1000
0001
1000
0010
0100
0001
0010
0100
1000
0001
1000
0100
0010
,
0001
1000
0010
0100
0010
1000
0001
0100
0001
1000
0010
0100
0010
1000
0001
1000
,
0100
0010
0001
1000
0001
0010
0100
1000
0100
0010
0001
1000
0001
0010
0100
1000
,
0001
0100
0010
1000
0001
1000
0010
0100
0001
0100
0010
1000
0001
1000
0010
0100
,
0001
0010
0100
1000
0001
1000
0100
0010
0001
0010
0100
1000
0001
0100
0010
1000
,
0001
1000
0010
0100
0010
1000
0001
0100
0001
1000
0010
0100
0010
1000
0001
1000
,
0100
0010
0001
1000
0001
0010
0100
1000
0100
0010
0001
1000
0001
0010
0100
1000
,
0001
0100
0010
1000
0001
1000
0010
0100
0001
0100
0010
1000
0001
1000
0010
0100
,
0001
1000
0100
0010
0001
0010
0100
1000
0010
0100
0001
0010
0001
0100
0010
1000
,
0001
1000
0100
0010
0100
1000
0001
0010
0001
1000
0100
0010
0100
1000
0001
1000
,
0010
0100
0001
1000
0001
0100
0010
1000
0010
0100
0001
1000
0001
0100
0010
1000
,
0001
0010
0100
1000
0001
1000
0100
0010
0001
0010
0100
1000
0001
1000
0100
0010
,
0001
0100
0010
1000
0001
1000
0010
0100
0001
0100
0010
1000
0001
0010
0100
1000
,
0001
1000
0100
0010
0100
1000
0001
0010
0001
1000
0100
0010
0100
1000
0001
1000
,
0010
0100
0001
1000
0001
0100
0010
1000
0010
0100
0001
1000
0001
0100
0010
1000
,
0001
0010
0100
1000
0010
1000
0100
0010
0001
0010
0100
1000
0010
1000
0100
0010
,
0001
0100
0010
1000
0100
1000
0010
0100
0001
0010
0100
1000
0010
0100
0001
0010
,
0200
0000
0000
0000
,
0000
0000
0000
0000
,
0300
0000
0000
0000
,
0000
0000
0000
0000
,
1100
0000
0000
1000
0000
0000
0002
0000
0000
0000
1003
0000
0020
0000
0000
0000
,
0130
0000
0000
0001
0000
0000
2000
0000
0000
0000
3100
0000
0020
0000
0000
0000
,
0031
0000
0000
0010
0000
0000
0200
0000
0000
0000
1300
0000
0002
0000
0000
0000
,
1003
0000
0000
0010
0000
0000
0200
0000
0000
0000
0301
0000
0020
0000
0000
0000
,
0130
0000
0000
1000
0000
0000
0002
0000
0000
0000
0103
0000
0020
0000
0000
0000
,
1030
0000
0000
0001
0000
0000
0020
0000
0000
0000
0130
0000
2000
0000
0000
0000
,
3001
0000
0000
0100
0000
0000
0020
0000
0000
0000
1030
0000
0002
0000
0000
0000
,
1003
0000
0000
0010
0000
0000
0100
0000
0000
0000
0001
0000
0020
0000
0000
0000
,
0130
0000
0000
1000
0000
0000
0002
0000
0000
0000
1003
0000
0020
0000
0000
0000
,
0130
0000
0000
0001
0000
0000
2000
0000
0000
0000
3100
0000
0020
0000
0000
0000
,
0031
0000
0000
0010
0000
0000
0200
0000
0000
0000
1300
0000
0002
0000
0000
0000
,
1003
0000
0000
0010
0000
0000
0200
0000
0000
0000
0301
0000
0020
0000
0000
0000
,
0130
0000
0000
1000
0000
0000
0002
0000
0000
0000
0103
0000
0020
0000
0000
0000
,
1030
0000
0000
0001
0000
0000
0020
0000
0000
0000
0130
0000
2000
0000
0000
0000
,
3001
0000
0000
0100
0000
0000
0020
0000
0000
0000
1030
0000
0002
0000
0000
0000
,
1003
0000
0000
0100
0000
0000
0010
0000
0001
0000
0100
0000
0110
0000
0010
0000
,
1000
0010
0100
0001
0100
0001
1000
0001
0100
0010
0100
0001
0010
0100
1000
0001
,
1000
0100
0010
0001
0010
0001
1000
0001
0010
0100
0010
0001
1000
0001
0100
0001
,
1000
0010
0100
0001
0100
0001
1000
0001
0100
0010
0100
0001
0010
0100
1000
0001
,
1000
0100
0010
0001
0010
0001
1000
0001
0010
0100
0010
0001
0100
0010
1000
0100
,
0010
0001
1000
0100
1000
0100
0010
0100
1000
0001
0010
0001
0100
0010
1000
0001
,
0100
0001
1000
0010
1000
0010
0100
0010
1000
0001
0100
0001
1000
0100
1000
0001
,
0010
0001
1000
0100
1000
0100
0010
0100
1000
0001
0010
0001
0100
0010
1000
0001
,
0100
0001
1000
0010
1000
0010
0100
0010
1000
0001
0100
0001
0010
0100
1000
0010
,
0100
0001
1000
0010
1000
0010
0100
0010
1000
0001
0100
0001
0010
0100
1000
0100
,
0010
0001
1000
0100
1000
0100
0010
0100
1000
0001
0010
0001
1000
0001
0100
0010
,
1000
0010
0100
0001
0100
0001
1000
0001
1000
0010
0100
0001
0010
0100
1000
0001
,
0010
0100
1000
0001
1000
0001
0100
0001
1000
0100
0010
0001
0100
0010
1000
0001
,
0010
0001
1000
0100
1000
0100
0010
0100
1000
0001
0010
0001
0100
0010
1000
0010
,
0100
0001
1000
0010
1000
0010
0100
0010
1000
0001
0100
0001
1000
0001
0010
0100
,
1000
0100
0010
0001
0010
0001
1000
0001
1000
0100
0010
0001
0100
0010
1000
0001
,
0100
0010
1000
0001
1000
0001
0010
0001
1000
0010
0100
0001
0010
0100
1000
0001
,
1000
0010
0100
0001
0100
0001
1000
0001
0100
0010
0100
0001
0010
0100
1000
0001
,
1000
0100
0010
0001
0010
0001
1000
0001
0010
0100
0010
0001
1000
0001
0100
0001
,
1000
0010
0100
0001
0100
0001
1000
0001
0100
0010
0100
0001
0010
0100
1000
0001
,
1000
0100
0010
0001
0010
0001
1000
0001
0010
0100
0010
0001
0100
0010
1000
0100
,
0010
0001
1000
0100
1000
0100
0010
0100
1000
0001
0010
0001
0100
0010
1000
0001
,
0100
0001
1000
0010
1000
0010
0100
0010
1000
0001
0100
0001
1000
0100
1000
0001
,
0010
0001
1000
0100
1000
0100
0010
0100
1000
0001
0010
0001
0100
0010
1000
0001
,
0100
0001
1000
0010
1000
0010
0100
0010
1000
0001
0100
0001
0010
0100
1000
0010
,
0100
0001
1000
0010
1000
0010
0100
0010
1000
0001
0100
0001
0010
0100
1000
0100
,
0010
0001
1000
0100
1000
0100
0010
0100
1000
0001
0010
0001
1000
0001
0100
0010
,
1000
0010
0100
0001
0100
0001
1000
0001
1000
0010
0100
0001
0010
0100
1000
0001
,
0010
0100
1000
0001
1000
0001
0100
0001
1000
0100
0010
0001
0100
0010
1000
0001
,
0010
0001
1000
0100
1000
0100
0010
0100
1000
0001
0010
0001
0100
0010
1000
0010
,
0100
0001
1000
0010
1000
0010
0100
0010
1000
0001
0100
0001
1000
0001
0010
0100
,
1000
0100
0010
0001
0010
0001
1000
0001
1000
0100
0010
0001
0100
0010
1000
0001
,
0100
0010
1000
0001
1000
0001
0010
0001
1000
0010
0100
0001
0010
0100
1000
0001
,
0100
0000
0000
0000
,
0000
0000
0000
0000
,
0000
0000
0000
0000
,
0000
0000
0000
0000
,
00M0
0000
0000
00M0
0000
0000
00M0
0000
0000
00M0
0000
0000
000M
00M0
0M00
M000
,
000M
0000
0000
000M
0000
0000
000M
0000
0000
000M
0000
0000
000M
00M0
0M00
00M0
,
100M
0100
1000
0001
0010
0001
1000
0001
1000
0010
0100
0001
1000
0001
0100
0010
,
1000
0100
0010
0001
0100
0001
0010
0100
1000
0010
0100
0001
0010
0100
1000
0001
,
0100
0000
0010
2000
0000
3001
0010
0100
,
1000
0000
0010
0000
0100
0000
0002
0000
0000
0000
1003
0000
0100
0010
0001
1000
,
0100
0000
0010
0200
0000
1300
0001
1000
,
0010
0000
0000
0000
1000
0000
0020
0000
0000
0000
1030
0000
0001
0010
0100
1000
,
0010
0000
0100
0002
0000
0103
0010
1000
,
0100
0000
0010
0000
0001
0000
2000
0000
0000
0000
3010
0000
1000
0100
0010
0001
,
1000
0000
0001
2000
0000
3001
1000
0100
,
0010
0000
0000
0000
0100
0000
0020
0000
0000
0000
0031
0000
0010
0100
1000
0010
,
0100
0000
0000
0000
,
0000
0000
0000
0000
,
0000
0000
0000
0000
,
0000
0000
0000
0000
0000
0000
0000
0000
0000
0000
0000
0000
0001
0100
0010
1000
,
0100
0010
0001
1000
0100
1000
0001
0100
0010
1000
0001
1000
0001
0100
0010
1000
,
0100
0010
0001
0010
0100
1000
0001
0010
0001
1000
0100
1000
0010
0100
0001
1000
,
0010
1000
0001
1000
0001
0010
0100
0010
0001
1000
0100
1000
0001
1000
0010
0100
,
0001
0100
0010
1000
0001
0100
0010
0100
0001
1000
0010
1000
0100
0010
0001
1000
,
0010
0100
0001
1000
0010
1000
0001
0010
0100
1000
0001
1000
0001
0010
0100
1000
,
0010
0100
0001
0100
0010
1000
0001
0100
0001
1000
0010
1000
0100
0010
0001
1000
,
0100
1000
0001
1000
0001
0100
0010
0100
0001
1000
0010
1000
0001
1000
0100
0010
,
0001
0010
0100
1000
0001
0010
0100
0010
0001
1000
0100
1000
0010
0100
0001
1000
,
0100
0010
0001
1000
0100
1000
0001
0100
0010
1000
0001
1000
0001
0100
0010
1000
,
0100
0010
0001
0010
0100
1000
0001
0010
0001
1000
0100
1000
0010
0100
0001
1000
,
0010
1000
0001
1000
0001
0010
0100
0010
0001
1000
0100
1000
0001
1000
0010
0100
,
0001
0100
0010
1000
0001
0100
0010
0100
0001
1000
0010
1000
0100
0010
0001
1000
,
0010
0100
0001
1000
0010
1000
0001
0010
0100
1000
0001
1000
0001
0010
0100
1000
,
0010
0100
0001
0100
0010
1000
0001
0100
0001
1000
0010
1000
0100
0010
0001
1000
,
0100
1000
0001
1000
0001
0100
0010
0100
0001
1000
0010
1000
0001
1000
0100
0010
,
0001
0010
0100
1000
0001
0010
0100
0010
0001
1000
0100
1000
0010
0100
0001
1000
,
0100
0010
0001
1000
0100
1000
0001
0100
0010
1000
0001
1000
0001
0100
0010
1000
,
0100
0010
0001
0010
0100
1000
0001
0010
0001
1000
0100
1000
0010
0100
0001
1000
,
0010
1000
0001
1000
0001
0010
0100
0010
0001
1000
0100
1000
0001
1000
0010
0100
,
0001
0100
0010
1000
0001
0100
0010
0100
0001
1000
0010
1000
0100
0010
0001
1000
,
0010
0100
0001
1000
0010
1000
0001
0010
0100
1000
0001
1000
0001
0010
0100
1000
,
0010
0100
0001
0100
0010
1000
0001
0100
0001
1000
0010
1000
0100
0010
0001
1000
,
0100
1000
0001
1000
0001
0100
0010
0100
0001
1000
0010
1000
0001
1000
0100
0010
,
0001
0010
0100
1000
0001
0010
0100
0010
0001
1000
0100
1000
0010
0100
0001
1000
,
0100
0010
0001
1000
0100
1000
0001
0100
0010
1000
0001
1000
0001
0100
0010
1000
,
0100
0010
0001
0010
0100
1000
0001
0010
0001
1000
0100
1000
0010
0100
0001
1000
,
0010
1000
0001
1000
0001
0010
0100
0010
0001
1000
0100
1000
0001
1000
0010
0100
,
0001
0100
0010
1000
0001
0100
0010
0100
0001
1000
0010
1000
0100
0010
0001
1000
,
0010
0100
0001
1000
0010
1000
0001
0010
0100
1000
0001
1000
0001
0010
0100
1000
,
0010
0100
0001
0100
0010
1000
0001
0100
0001
1000
0010
1000
0100
0010
0001
1000
,
0100
1000
0001
1000
0001
0100
0010
0100
0001
1000
0010
1000
0001
1000
0100
0010
,
0001
0010
0100
1000
0001
0010
0100
0010
0001
1000
0100
1000
0010
0100
0001
1000
,
0001
0010
0100
0010
0001
0010
0100
0010
0001
0010
0100
0010
0001
0010
0100
0010
,
0001
1000
0010
1000
0001
1000
0010
1000
0001
1000
0010
1000
0001
1000
0010
1000
,
0001
1000
0100
1000
0001
1000
0100
1000
0001
1000
0100
1000
0001
1000
0100
1000
,
0010
0100
0001
0100
0010
0100
0001
0100
0010
0100
0001
0100
0010
1000
0001
0010
,
0100
1000
0001
1000
0100
1000
0001
1000
0100
1000
0001
1000
0100
1000
0001
1000
,
0010
0100
0001
0100
0010
0100
0001
0100
0010
0100
0001
0100
0010
0100
0001
0100
,
0010
1000
0001
1000
0010
1000
0001
1000
0010
1000
0001
1000
0010
1000
0001
1000
,
0001
0010
0100
0010
0001
0010
0100
1000
0010
1000
0001
1000
0001
0010
0100
1000
,
0001
1000
0010
1000
0001
1000
0010
1000
0001
1000
0010
1000
0001
1000
0010
1000
,
0100
0010
0001
0010
0100
0010
0001
0010
0100
0010
0001
0010
0100
0010
0001
0010
,
0100
1000
0001
1000
0100
1000
0001
1000
0100
1000
0001
1000
0100
1000
0001
1000
,
0010
0100
0001
0100
0010
0100
0001
0100
0010
0100
0001
0100
0010
1000
0001
0010
,
0100
1000
0001
1000
0100
1000
0001
1000
0100
1000
0001
1000
0100
1000
0001
1000
,
0010
0100
0001
0100
0010
0100
0001
0100
0010
0100
0001
0100
0010
0100
0001
0100
,
0010
1000
0001
1000
0010
1000
0001
1000
0010
1000
0001
1000
0010
1000
0001
1000
,
0001
0010
0100
0010
0001
0010
0100
1000
0010
1000
0001
1000
0100
0010
0001
1000
,
0001
1000
0010
1000
0001
1000
0010
1000
0001
1000
0010
1000
0001
1000
0010
1000
,
0100
0010
0001
0010
0100
0010
0001
0010
0100
0010
0001
0010
0100
0010
0001
0010
,
0100
1000
0001
1000
0100
1000
0001
1000
0100
1000
0001
1000
0100
1000
0001
1000
,
0010
0100
0001
0100
0010
0100
0001
0100
0010
0100
0001
0100
0010
1000
0001
0010
,
0100
1000
0001
1000
0100
1000
0001
1000
0100
1000
0001
1000
0100
1000
0001
1000
,
0010
0100
0001
0100
0010
0100
0001
0100
0010
0100
0001
0100
0010
0100
0001
0100
,
0010
1000
0001
1000
0010
1000
0001
1000
0010
1000
0001
1000
0010
1000
0001
1000
,
0001
0010
0100
0010
0001
0010
0100
1000
0010
1000
0001
1000
0100
0010
0001
1000
,
0001
1000
0010
1000
0001
1000
0010
1000
0001
1000
0010
1000
0001
1000
0010
1000
,
0100
0010
0001
0010
0100
0010
0001
0010
0100
0010
0001
0010
0100
0010
0001
0010
,
0100
1000
0001
1000
0100
1000
0001
1000
0100
1000
0001
1000
0100
1000
0001
1000
,
0010
0100
0001
0100
0010
0100
0001
0100
0010
0100
0001
0100
0010
1000
0001
0010
,
0100
1000
0001
1000
0100
1000
0001
1000
0100
1000
0001
1000
0100
1000
0001
1000
,
0010
0100
0001
0100
0010
0100
0001
0100
0010
0100
0001
0100
0010
0100
0001
0100
,
0010
1000
0001
1000
0100
0010
0001
1000
0010
0100
0001
0010
0100
1000
0010
0100
,
0001
1000
0100
1000
0001
0010
0100
1000
0010
0100
0001
1000
0100
0010
0001
1000
,
0001
0100
0010
1000
0001
1000
0001
0010
0100
1000
0001
1000
0001
0100
0010
1000
,
0100
0010
0001
0010
0100
1000
0001
0010
0001
1000
0100
1000
0010
0100
0001
1000
,
0010
1000
0001
1000
0001
0010
0100
0010
0001
1000
0100
1000
0001
1000
0010
0100
,
0001
0100
0010
1000
0001
0100
0010
0100
0001
1000
0010
1000
0100
0010
0001
1000
,
0010
0100
0001
1000
0010
1000
0001
0010
0100
1000
0001
1000
0001
0010
0100
1000
,
0010
0100
0001
0100
0010
1000
0001
0100
0001
1000
0010
1000
0100
0010
0001
1000
,
0100
1000
0001
1000
0001
0100
0010
0100
0001
1000
0010
1000
0001
1000
0100
0010
,
0001
0010
0100
1000
0001
0010
0100
0010
0001
1000
0100
1000
0010
0100
0001
1000
,
0100
0010
0001
1000
0100
1000
0001
0100
0010
1000
0001
1000
0001
0100
0010
1000
,
0100
0010
0001
0010
0100
1000
0001
0010
0001
1000
0100
1000
0010
0100
0001
1000
,
0010
1000
0001
1000
0001
0010
0100
0010
0001
1000
0100
1000
0001
1000
0010
0100
,
0001
0100
0010
1000
0001
0100
0010
0100
0001
1000
0010
1000
0100
0010
0001
1000
,
0010
0100
0001
1000
0010
1000
0001
0010
0100
1000
0001
1000
0001
0010
0100
1000
,
0010
0100
0001
0100
0010
1000
0001
0100
0001
1000
0010
1000
0100
0010
0001
1000
,
0100
1000
0001
1000
0001
0100
0010
0100
0001
1000
0010
1000
0001
1000
0100
0010
,
0001
0010
0100
1000
0001
0010
0100
0010
0001
1000
0100
1000
0010
0100
0001
1000
,
0100
0010
0001
1000
0100
1000
0001
0100
0010
1000
0001
1000
0001
0100
0010
1000
,
0100
0010
0001
0010
0100
1000
0001
0010
0001
1000
0100
1000
0010
0100
0001
1000
,
0010
1000
0001
1000
0001
0010
0100
0010
0001
1000
0100
1000
0001
1000
0010
0100
,
0001
0100
0010
1000
0001
0100
0010
0100
0001
1000
0010
1000
0100
0010
0001
1000
,
0010
0100
0001
1000
0010
1000
0001
0010
0100
1000
0001
1000
0001
0010
0100
1000
,
0010
0100
0001
0100
0010
1000
0001
0100
0001
1000
0010
1000
0100
0010
0001
1000
,
0100
1000
0001
1000
0001
0100
0010
0100
0001
1000
0010
1000
0001
1000
0100
0010
,
0001
0010
0100
1000
0001
0010
0100
0010
0001
1000
0100
1000
0010
0100
0001
1000
,
0100
0010
0001
1000
0100
1000
0001
0100
0010
1000
0001
1000
0001
0100
0010
1000
,
0100
0010
0001
0010
0100
1000
0001
0010
0001
1000
0100
1000
0010
0100
0001
1000
,
0010
1000
0001
1000
0001
0010
0100
0010
0001
1000
0100
1000
0001
1000
0010
0100
,
0001
0100
0010
1000
0001
0100
0010
0100
0001
1000
0010
1000
0100
0010
0001
1000
,
0010
0100
0001
1000
0010
1000
0001
0010
0100
1000
0001
1000
0001
0010
0100
1000
,
0010
0100
0001
0100
0010
1000
0001
0100
0001
1000
0010
1000
0100
0010
0001
1000
,
0100
1000
0001
1000
0001
0100
0010
0100
0001
1000
0010
1000
0001
1000
0100
0010
,
0001
0010
0100
1000
0001
0010
0100
0010
0001
1000
0100
1000
0010
0100
0001
0010
,
0001
1000
0010
0100
0010
1000
0001
0100
0001
1000
0010
0100
0010
1000
0001
1000
,
0100
0010
0001
1000
0001
0010
0100
1000
0100
0010
0001
1000
0001
0010
0100
1000
,
0001
0100
0010
1000
0001
1000
0010
0100
0001
0100
0010
1000
0001
1000
0010
0100
,
0001
0010
0100
1000
0001
1000
0100
0010
0001
0010
0100
1000
0001
0100
0010
1000
,
0001
1000
0010
0100
0010
1000
0001
0100
0001
1000
0010
0100
0010
1000
0001
1000
,
0100
0010
0001
1000
0001
0010
0100
1000
0100
0010
0001
1000
0001
0010
0100
1000
,
0001
0100
0010
1000
0001
1000
0010
0100
0001
0100
0010
1000
0001
1000
0010
0100
,
0001
1000
0100
0010
0001
0010
0100
1000
0010
0100
0001
0010
0001
0100
0010
1000
,
0001
1000
0100
0010
0100
1000
0001
0010
0001
1000
0100
0010
0100
1000
0001
1000
,
0010
0100
0001
1000
0001
0100
0010
1000
0010
0100
0001
1000
0001
0100
0010
1000
,
0001
0010
0100
1000
0001
1000
0100
0010
0001
0010
0100
1000
0001
1000
0100
0010
,
0001
0100
0010
1000
0001
1000
0010
0100
0001
0100
0010
1000
0001
0010
0100
1000
,
0001
1000
0100
0010
0100
1000
0001
0010
0001
1000
0100
0010
0100
1000
0001
1000
,
0010
0100
0001
1000
0001
0100
0010
1000
0010
0100
0001
1000
0001
0100
0010
1000
,
0001
0010
0100
1000
0001
1000
0100
0010
0001
0010
0100
1000
0001
1000
0100
0010
,
0001
0100
0010
1000
0001
1000
0010
0100
0001
0010
0100
1000
0001
1000
0100
0010
,
0001
1000
0010
0100
0010
1000
0001
0100
0001
1000
0010
0100
0010
1000
0001
1000
,
0100
0010
0001
1000
0001
0010
0100
1000
0100
0010
0001
1000
0001
0010
0100
1000
,
0001
0100
0010
1000
0001
1000
0010
0100
0001
0100
0010
1000
0001
1000
0010
0100
,
0001
0010
0100
1000
0001
1000
0100
0010
0001
0010
0100
1000
0001
0100
0010
1000
,
0001
1000
0010
0100
0010
1000
0001
0100
0001
1000
0010
0100
0010
1000
0001
1000
,
0100
0010
0001
1000
0001
0010
0100
1000
0100
0010
0001
1000
0001
0010
0100
1000
,
0001
0100
0010
1000
0001
1000
0010
0100
0001
0100
0010
1000
0001
1000
0010
0100
,
0001
1000
0100
0010
0001
0010
0100
1000
0010
0100
0001
0010
0001
0100
0010
1000
,
0001
1000
0100
0010
0100
1000
0001
0010
0001
1000
0100
0010
0100
1000
0001
1000
,
0010
0100
0001
1000
0001
0100
0010
1000
0010
0100
0001
1000
0001
0100
0010
1000
,
0001
0010
0100
1000
0001
1000
0100
0010
0001
0010
0100
1000
0001
1000
0100
0010
,
0001
0100
0010
1000
0001
1000
0010
0100
0001
0100
0010
1000
0001
0010
0100
1000
,
0001
1000
0100
0010
0100
1000
0001
0010
0001
1000
0100
0010
0100
1000
0001
1000
,
0010
0100
0001
1000
0001
0100
0010
1000
0010
0100
0001
1000
0001
0100
0010
1000
,
0001
0010
0100
1000
0010
1000
0100
0010
0001
0010
0100
1000
0010
1000
0100
0010
,
0001
0100
0010
1000
0100
1000
0010
0100
0001
0010
0100
1000
0010
0100
0001
0010
,
0200
0000
0000
0000
0000
0000
0000
0000
0000
0000
0000
0000
0000
0000
0000
0000
0000
0000
0000
0000
0000
0000
0000
0000
0000
0000
0000
0000
0000
0000
0000
0000
0000
0300
0000
0000
0000
0000
0000
0000
0000
0000
0000
0000
0000
0000
0000
0000
0000
0000
0000
0000
0000
0000
0000
0000
0000
0000
0000
0000
0000
0000
0000
0000
;

//---------------dance-single - 15- (TYLR)----------------
#NOTES:
     dance-single:
     15- (TYLR):
     Hard:
     15:
     1.000,1.000,0.008,0.108,1.000,3119.000,3.000,39.000,35.000,0.000:
0000
0000
0000
0000
,
0000
0000
0000
0000
,
0000
0000
0000
0000
,
0000
0000
0000
0000
,
0000
0000
0000
0000
,
0000
0000
0000
0000
,
0000
0000
0000
0000
,
0000
0000
0000
0000
,
0001
0100
0010
0100
0001
1000
0100
1000
,
0010
0100
0001
0100
0010
1000
0100
1000
,
0010
0100
0001
0100
0010
1000
0100
1000
,
0001
0000
0010
0000
0100
0000
0010
0000
0001
0000
0001
0000
0100
0000
0010
1000
,
0010
0100
0001
0100
0010
1000
0100
1000
,
0001
0100
0010
0100
0001
1000
0100
1000
,
0001
0010
0100
M010
0001
1000
0100
1000
,
0010
1000
0010
0000
0100
0001
0100
0001
1000
0001
0010
0000
0100
1000
0100
1000
,
00M1
1000
0001
0000
0100
0010
0100
0000
0010
1000
0010
0000
1000
0001
1000
0000
,
0100
0010
0100
0000
0010
0001
0010
0000
0100
1000
0100
0000
1000
0010
1000
0000
,
0001
0100
0001
0000
0010
0100
0010
0000
0001
1000
0001
0000
1000
0010
1000
0000
,
0001
0100
0001
0000
0010
0100
0010
0000
0001
0000
1000
0000
0010
0000
1000
0001
,
0010
0100
0010
0000
0100
1000
0100
0000
1000
0001
1000
0000
0010
0100
0010
0000
,
1000
0001
1000
0000
0001
0010
0001
0000
1000
0100
1000
0000
0001
0010
0001
0000
,
1000
0010
1000
0000
0001
0100
0001
0000
0010
0100
0010
0000
0001
1000
0001
0000
,
1000
0010
1000
0000
0001
0000
1000
0001
0010
0100
0010
0000
0001
0000
1000
0000
,
001M
1000
0010
0000
0100
0001
0100
0000
0001
0010
0001
0000
1000
0100
1000
0000
,
0010
0100
0010
0000
1000
0100
1000
0000
0001
0010
0001
0000
0100
0010
0100
0000
,
0001
0010
0001
0000
1000
0100
1000
0000
0001
0100
0001
0000
1000
0010
1000
0000
,
0100
0010
0100
0000
1000
0001
1000
0000
0010
0000
0100
0000
0001
0000
0100
0010
,
1000
0001
1000
0000
0100
0010
0100
0000
1000
0100
1000
0000
0001
0010
0001
0000
,
1000
0010
1000
0000
0001
0100
0001
0000
1000
0100
1000
0000
0010
0100
0010
0000
,
1000
0001
1000
0000
0001
0010
0001
0000
1000
0100
1000
0000
0010
1000
0010
0000
,
0100
0001
0100
0000
0010
0000
1000
0001
0010
0100
1000
0000
0001
0000
1000
0000
,
0001
0010
0100
0000
1000
0001
0100
0000
0010
1000
0100
0000
0010
0001
0100
0000
,
0001
0010
0100
0000
1000
0010
0100
0000
0001
0010
0100
0000
1000
0010
0100
0000
,
0001
1000
0100
0000
0010
0001
1000
0000
0010
0100
0001
0000
0010
0100
1000
0000
,
0001
0100
0010
0000
1000
0001
0010
0000
0100
0000
0100
0000
0100
0000
1000
0100
,
0010
0001
1000
0000
0010
0100
0001
0000
0010
0100
1000
0000
0001
0100
0010
0000
,
1000
0100
0010
0000
0001
0100
0010
0000
1000
0100
0010
0000
0001
0100
0010
0000
,
1000
0001
0010
0000
0100
1000
0001
0000
0100
0010
1000
0000
0001
0010
0100
0000
,
1000
0001
1000
0000
0001
0000
1000
0010
0100
0001
1000
0000
0001
0000
0010
0000
,
0001
0100
0010
0000
1000
0001
0010
0000
0100
1000
0010
0000
0100
0001
0010
0000
,
0001
0100
0010
0000
1000
0100
0010
0000
0001
0100
0010
0000
1000
0100
0010
0000
,
0001
1000
0010
0000
0100
0001
1000
0000
0100
0010
0001
0000
0100
0010
1000
0000
,
0001
0010
0100
0000
1000
0001
0100
0000
0010
0000
0010
0000
0010
0000
1000
0010
,
0100
0001
1000
0000
0100
0010
0001
0000
0100
0010
1000
0000
0001
0010
0100
0000
,
1000
0010
0100
0000
0001
0010
0100
0000
1000
0010
0100
0000
0001
0010
0100
0000
,
1000
0001
0100
0000
0010
1000
0001
0000
0010
0100
1000
0000
0001
0100
0010
0000
,
1000
0001
1000
0000
0001
0000
1000
0100
0010
0001
1000
0000
0001
0000
0100
0001
,
1000
0100
0010
0000
0001
0100
0010
0000
1000
0001
0010
0000
0100
1000
0001
0000
,
1000
0010
0100
0000
0001
0010
0100
0000
1000
0010
0100
0000
0001
0010
0100
0000
,
1000
0001
0100
0000
0010
1000
0001
0000
0010
0100
1000
0000
0010
0100
0001
0000
,
1000
0100
0010
0000
0001
1000
0010
0000
0100
0000
0100
0000
0100
0000
0001
0100
,
0010
1000
0001
0000
0010
0100
1000
0000
0010
0100
0001
0000
1000
0100
0010
0000
,
0001
0100
0010
0000
1000
0100
0010
0000
0001
0100
0010
0000
1000
0100
0010
0000
,
0001
1000
0010
0000
0100
0001
1000
0000
0100
0010
0001
0000
1000
0010
0100
0000
,
0001
1000
0001
0000
1000
0000
0001
0010
0100
1000
0001
0000
1000
0000
0010
0100
,
0001
1000
0100
0000
0010
0001
1000
0000
0001
0100
0010
0000
1000
0001
0010
0000
,
0100
1000
0010
0000
0100
0001
0010
0000
0100
1000
0010
0000
0100
0001
0010
0000
,
0100
1000
0001
0000
0100
0010
1000
0000
0100
0010
0001
0000
0100
0010
1000
0000
,
0001
0010
0100
0000
1000
0010
0100
0000
0001
0000
0001
0000
0001
0000
1000
0001
,
0010
0100
0010
0001
1000
0001
0100
0010
,
1000
0010
0100
0001
0010
0100
1000
0001
,
1000
0010
1000
0001
1000
0100
0010
0001
0100
0001
0010
0100
1000
0010
0100
0001
,
1000
0100
1000
0000
0001
0000
1000
0100
0010
0001
1000
0000
0001
0000
0100
0010
,
2000
0000
0000
0000
,
0000
0000
0000
0000
,
3000
0000
0000
0000
,
0000
0000
0000
0000
,
1010
0000
0000
1000
0000
0000
0002
0000
0000
0000
1003
0000
0200
0000
0000
0000
,
0310
0000
0000
0001
0000
0000
2000
0000
0000
0000
3010
0000
0200
0000
0000
0000
,
0301
0000
0000
0100
0000
0000
0020
0000
0000
0000
1030
0000
0002
0000
0000
0000
,
1003
0000
0000
0100
0000
0000
0020
0000
0000
0000
0031
0000
0200
0000
0000
0000
,
0310
0000
0000
1000
0000
0000
0002
0000
0000
0000
0013
0000
0200
0000
0000
0000
,
1300
0000
0000
0001
0000
0000
0200
0000
0000
0000
0310
0000
2000
0000
0000
0000
,
3001
0000
0000
0010
0000
0000
0200
0000
0000
0000
1300
0000
0002
0000
0000
0000
,
1003
0000
0000
0010
0000
0000
0100
0000
0000
0000
0001
0000
0020
0000
0000
0000
,
0130
0000
0000
1000
0000
0000
0002
0000
0000
0000
1003
0000
0020
0000
0000
0000
,
0130
0000
0000
0001
0000
0000
2000
0000
0000
0000
3100
0000
0020
0000
0000
0000
,
0031
0000
0000
0010
0000
0000
0200
0000
0000
0000
1300
0000
0002
0000
0000
0000
,
1003
0000
0000
0010
0000
0000
0200
0000
0000
0000
0301
0000
0020
0000
0000
0000
,
0130
0000
0000
1000
0000
0000
0002
0000
0000
0000
0103
0000
0020
0000
0000
0000
,
1030
0000
0000
0001
0000
0000
0020
0000
0000
0000
0130
0000
2000
0000
0000
0000
,
3001
0000
0000
0100
0000
0000
0020
0000
0000
0000
1030
0000
0002
0000
0000
0000
,
1003
0000
0000
0100
0000
0000
0010
0000
0001
0000
0100
0000
0110
0000
0010
0000
,
1000
0010
0100
0001
0100
0001
1000
0001
0100
0010
0100
0001
0010
0100
1000
0001
,
1000
0100
0010
0001
0010
0001
1000
0001
0010
0100
0010
0001
1000
0001
0100
0001
,
1000
0010
0100
0001
0100
0001
1000
0001
0100
0010
0100
0001
0010
0100
1000
0001
,
1000
0100
0010
0001
0010
0001
1000
0001
0010
0100
0010
0001
0100
0010
1000
0100
,
0010
0001
1000
0100
1000
0100
0010
0100
1000
0001
0010
0001
0100
0010
1000
0001
,
0100
0001
1000
0010
1000
0010
0100
0010
1000
0001
0100
0001
1000
0100
1000
0001
,
0010
0001
1000
0100
1000
0100
0010
0100
1000
0001
0010
0001
0100
0010
1000
0001
,
0100
0001
1000
0010
1000
0010
0100
0010
1000
0001
0100
0001
0010
0100
1000
0010
,
0100
0001
1000
0010
1000
0010
0100
0010
1000
0001
0100
0001
0010
0100
1000
0100
,
0010
0001
1000
0100
1000
0100
0010
0100
1000
0001
0010
0001
1000
0001
0100
0010
,
1000
0010
0100
0001
0100
0001
1000
0001
1000
0010
0100
0001
0010
0100
1000
0001
,
0010
0100
1000
0001
1000
0001
0100
0001
1000
0100
0010
0001
0100
0010
1000
0001
,
0010
0001
1000
0100
1000
0100
0010
0100
1000
0001
0010
0001
0100
0010
1000
0010
,
0100
0001
1000
0010
1000
0010
0100
0010
1000
0001
0100
0001
1000
0001
0010
0100
,
1000
0100
0010
0001
0010
0001
1000
0001
1000
0100
0010
0001
0100
0010
1000
0001
,
0100
0010
1000
0001
1000
0001
0010
0001
1000
0010
0100
0001
0010
0100
1000
0001
,
1000
0010
0100
0001
0100
0001
1000
0001
0100
0010
0100
0001
0010
0100
1000
0001
,
1000
0100
0010
0001
0010
0001
1000
0001
0010
0100
0010
0001
1000
0001
0100
0001
,
1000
0010
0100
0001
0100
0001
1000
0001
0100
0010
0100
0001
0010
0100
1000
0001
,
1000
0100
0010
0001
0010
0001
1000
0001
0010
0100
0010
0001
0100
0010
1000
0100
,
0010
0001
1000
0100
1000
0100
0010
0100
1000
0001
0010
0001
0100
0010
1000
0001
,
0100
0001
1000
0010
1000
0010
0100
0010
1000
0001
0100
0001
1000
0100
1000
0001
,
0010
0001
1000
0100
1000
0100
0010
0100
1000
0001
0010
0001
0100
0010
1000
0001
,
0100
0001
1000
0010
1000
0010
0100
0010
1000
0001
0100
0001
0010
0100
1000
0010
,
0100
0001
1000
0010
1000
0010
0100
0010
1000
0001
0100
0001
0010
0100
1000
0100
,
0010
0001
1000
0100
1000
0100
0010
0100
1000
0001
0010
0001
1000
0001
0100
0010
,
1000
0010
0100
0001
0100
0001
1000
0001
1000
0010
0100
0001
0010
0100
1000
0001
,
0010
0100
1000
0001
1000
0001
0100
0001
1000
0100
0010
0001
0100
0010
1000
0001
,
0010
0001
1000
0100
1000
0100
0010
0100
1000
0001
0010
0001
0100
0010
1000
0010
,
0100
0001
1000
0010
1000
0010
0100
0010
1000
0001
0100
0001
1000
0001
0010
0100
,
1000
0100
0010
0001
0010
0001
1000
0001
1000
0100
0010
0001
0100
0010
1000
0001
,
0100
0010
1000
0001
1000
0001
0010
0001
1000
0010
0100
0001
0010
0100
1000
0001
,
0100
0000
0000
0000
,
0000
0000
0000
0000
,
0000
0000
0000
0000
,
0000
0000
0000
0000
,
00M0
0000
0000
00M0
0000
0000
00M0
0000
0000
00M0
0000
0000
000M
00M0
0M00
M000
,
000M
0000
0000
000M
0000
0000
000M
0000
0000
000M
0000
0000
000M
0M00
00M0
M000
,
0M00
0000
0000
0M00
0000
0000
0M00
0000
0000
0M00
0000
0000
0M00
00M0
000M
M000
,
00M0
0000
0000
00M0
0000
0000
00M0
0000
0000
00M0
0000
0000
00M0
0M00
M000
000M
,
1010
0000
0100
0002
0000
1003
0100
0010
,
0001
0000
0100
0000
0010
0000
2000
0000
0000
0000
3001
0000
0010
0100
1000
0001
,
0010
0000
0100
0020
0000
0031
1000
0001
,
0100
0000
0000
0000
0001
0000
0200
0000
0000
0000
0301
0000
1000
0100
0010
0001
,
0100
0000
0010
2000
0000
3010
0100
0001
,
0010
0000
0100
0000
1000
0000
0002
0000
0000
0000
0103
0000
0001
0010
0100
1000
,
0001
0000
1000
0002
0000
1003
0001
0010
,
0100
0000
0000
0000
0010
0000
0200
0000
0000
0000
1300
0000
0100
0010
0001
0100
,
0010
0000
0000
0000
,
0000
0000
0000
0000
,
0000
0000
0000
0000
,
0000
0000
0000
0000
0000
0000
0000
0000
0000
0000
0001
0000
1000
0100
0010
0001
,
0100
0001
1000
0001
0010
0100
1000
0001
0100
0001
1000
0001
1000
0010
0100
0001
,
0010
0100
1000
0100
0010
0001
1000
0100
1000
0001
0010
0001
0100
0010
1000
0001
,
0100
0001
1000
0001
1000
0100
0010
0100
1000
0001
0010
0001
1000
0001
0100
0010
,
1000
0010
0100
0001
1000
0010
0100
0010
1000
0001
0100
0001
0010
0100
1000
0001
,
0100
0010
1000
0001
0100
0001
1000
0100
0010
0001
1000
0001
1000
0100
0010
0001
,
0100
0010
1000
0010
0100
0001
1000
0010
1000
0001
0100
0001
0010
0100
1000
0001
,
0010
0001
1000
0001
1000
0010
0100
0010
1000
0001
0100
0001
1000
0001
0010
0100
,
1000
0001
1000
0000
0001
0000
1000
0001
1000
0001
1000
0000
0001
0000
1000
0000
,
0100
0010
0001
1000
0100
1000
0001
0100
0010
1000
0001
1000
0001
0100
0010
1000
,
0100
0010
0001
0010
0100
1000
0001
0010
0001
1000
0100
1000
0010
0100
0001
1000
,
0010
1000
0001
1000
0001
0010
0100
0010
0001
1000
0100
1000
0001
1000
0010
0100
,
0001
0100
0010
1000
0001
0100
0010
0100
0001
1000
0010
1000
0100
0010
0001
1000
,
0010
0100
0001
1000
0010
1000
0001
0010
0100
1000
0001
1000
0001
0010
0100
1000
,
0010
0100
0001
0100
0010
1000
0001
0100
0001
1000
0010
1000
0100
0010
0001
1000
,
0100
1000
0001
1000
0001
0100
0010
0100
0001
1000
0010
1000
0001
1000
0100
0010
,
0001
1000
0001
0000
1000
0000
0001
1000
0001
1000
0001
0000
1000
0000
0001
0000
,
0010
0100
1000
0001
0010
0001
1000
0010
0100
0001
1000
0001
1000
0010
0100
0001
,
0010
0100
1000
0100
0010
0001
1000
0100
1000
0001
0010
0001
0100
0010
1000
0001
,
0100
0001
1000
0001
1000
0100
0010
0100
1000
0001
0010
0001
1000
0001
0100
0010
,
1000
0010
0100
0001
1000
0010
0100
0010
1000
0001
0100
0001
0010
0100
1000
0001
,
0100
0010
1000
0001
0100
0001
1000
0100
0010
0001
1000
0001
1000
0100
0010
0001
,
0100
0010
1000
0010
0100
0001
1000
0010
1000
0001
0100
0001
0010
0100
1000
0001
,
0010
0001
1000
0001
1000
0010
0100
0010
1000
0001
0100
0001
1000
0001
0010
0100
,
1000
0001
1000
0000
0001
0000
1000
0001
1000
0001
1000
0000
0001
0000
1000
0000
,
0100
0010
0001
1000
0100
1000
0001
0100
0010
1000
0001
1000
0001
0100
0010
1000
,
0100
0010
0001
0010
0100
1000
0001
0010
0001
1000
0100
1000
0010
0100
0001
1000
,
0010
1000
0001
1000
0001
0010
0100
0010
0001
1000
0100
1000
0001
1000
0010
0100
,
0001
0100
0010
1000
0001
0100
0010
0100
0001
1000
0010
1000
0100
0010
0001
1000
,
0010
0100
0001
1000
0010
1000
0001
0010
0100
1000
0001
1000
0001
0010
0100
1000
,
0010
0100
0001
0100
0010
1000
0001
0100
0001
1000
0010
1000
0100
0010
0001
1000
,
0100
1000
0001
1000
0001
0100
0010
0100
0001
1000
0010
1000
0001
1000
0100
0010
,
0001
0010
0100
1000
0001
0010
0100
0010
0001
1000
0100
1000
0010
0100
0001
1000
,
0100
0000
0010
0100
0000
1000
0100
0010
0001
0000
1000
0001
0000
0010
0100
1000
,
0010
0000
0100
0010
0000
1000
0010
0100
0001
0000
1000
0001
0000
0100
0010
1000
,
0100
0000
0010
0001
0000
0010
0100
1000
0001
0000
1000
0100
0000
0010
0001
1000
,
0010
0000
0100
0010
0000
1000
0001
1000
0100
0000
0100
0000
0010
0100
1000
0001
,
0100
0000
0010
0100
0000
0001
0100
0010
1000
0000
0001
1000
0000
0010
0100
0001
,
0010
0000
0100
0010
0000
0001
0010
0100
1000
0000
0001
1000
0000
0100
0010
0001
,
0100
0000
0010
1000
0000
0010
0100
0001
1000
0000
0001
0100
0000
0010
1000
0001
,
0010
0100
0010
0000
0001
0000
0010
0100
1000
0001
0100
0000
0010
0000
1000
0000
,
0100
0000
0010
0100
0000
1000
0100
0010
0001
0000
1000
0001
0000
0010
0100
1000
,
0010
0000
0100
0010
0000
1000
0010
0100
0001
0000
1000
0001
0000
0100
0010
1000
,
0100
0000
0010
0001
0000
0010
0100
1000
0001
0000
1000
0100
0000
0010
0001
1000
,
0010
0000
0100
0010
0000
1000
0001
1000
0100
0000
0100
0000
0100
0000
0010
0100
,
1000
0000
0100
0010
0000
0100
1000
0001
0100
0000
0001
1000
0000
0001
0100
0010
,
1000
0000
0001
1000
0000
0010
1000
0001
0010
0000
0001
1000
0000
0100
0010
0001
,
0100
0000
0010
1000
0000
0010
0100
0001
1000
0000
0001
0100
0000
0010
1000
0001
,
0010
0100
0010
0000
0001
0000
0010
0100
1000
0001
0100
0000
0010
0000
1000
0001
,
0010
0000
0100
0010
0000
0001
0010
0100
1000
0000
0001
1000
0000
0100
0010
0001
,
0100
0000
0010
0100
0000
0001
0100
0010
1000
0000
0001
1000
0000
0010
0100
0001
,
0010
0000
0100
1000
0000
0100
0010
0001
1000
0000
0001
0010
0000
0100
1000
0001
,
0100
0000
0010
0100
0000
0001
1000
0001
0010
0000
0010
0000
0100
0010
0001
1000
,
0010
0000
0100
0010
0000
1000
0010
0100
0001
0000
1000
0001
0000
0100
0010
1000
,
0100
0000
0010
0100
0000
1000
0100
0010
0001
0000
1000
0001
0000
0010
0100
1000
,
0010
0000
0100
0001
0000
0100
0010
1000
0001
0000
1000
0010
0000
0100
0001
1000
,
0100
0010
0100
0000
1000
0000
0100
0010
0001
1000
0010
0000
0100
0000
0001
0000
,
0010
0000
0100
0010
0000
0001
0010
0100
1000
0000
0001
1000
0000
0100
0010
0001
,
0100
0000
0010
0100
0000
0001
0100
0010
1000
0000
0001
1000
0000
0010
0100
0001
,
0010
0000
0100
1000
0000
0100
0010
0001
1000
0000
0001
0010
0000
0100
1000
0001
,
0100
0000
0010
1000
0000
0001
0010
0100
1000
0000
1000
0000
1000
0000
0100
0010
,
0001
0000
0010
0100
0000
0010
0001
1000
0010
0000
1000
0001
0000
1000
0010
0100
,
0001
0000
1000
0001
0000
0100
0001
1000
0100
0000
1000
0001
0000
0010
0100
1000
,
0001
1000
0001
0100
0010
1000
0010
1000
0001
1000
0100
0010
0001
1000
0001
0100
,
0010
1000
0001
1000
0100
0010
0001
0010
0100
1000
0010
1000
0001
0010
0100
1000
,
0001
0100
0010
1000
0001
1000
0001
0010
0100
1000
0001
1000
0001
0100
0010
1000
,
0100
0010
0001
0010
0100
1000
0001
0010
0001
1000
0100
1000
0010
0100
0001
1000
,
0010
1000
0001
1000
0001
0010
0100
0010
0001
1000
0100
1000
0001
1000
0010
0100
,
0001
0100
0010
1000
0001
0100
0010
0100
0001
1000
0010
1000
0100
0010
0001
1000
,
0010
0100
0001
1000
0010
1000
0001
0010
0100
1000
0001
1000
0001
0010
0100
1000
,
0010
0100
0001
0100
0010
1000
0001
0100
0001
1000
0010
1000
0100
0010
0001
1000
,
0100
1000
0001
1000
0001
0100
0010
0100
0001
1000
0010
1000
0001
1000
0100
0010
,
0001
0100
0010
0000
1000
0000
0010
0100
0001
0010
0100
0000
1000
0010
0100
0001
,
0010
0100
1000
0001
0010
0001
1000
0010
0100
0001
1000
0001
1000
0010
0100
0001
,
0010
0100
1000
0100
0010
0001
1000
0100
1000
0001
0010
0001
0100
0010
1000
0001
,
0100
0001
1000
0001
1000
0100
0010
0100
1000
0001
0010
0001
1000
0001
0100
0010
,
1000
0010
0100
0001
1000
0010
0100
0010
1000
0001
0100
0001
0010
0100
1000
0001
,
0100
0010
1000
0001
0100
0001
1000
0100
0010
0001
1000
0001
1000
0100
0010
0001
,
0100
0010
1000
0010
0100
0001
1000
0010
1000
0001
0100
0001
0010
0100
1000
0001
,
0010
0001
1000
0001
1000
0010
0100
0010
1000
0001
0100
0001
1000
0001
0010
0100
,
1000
0100
0010
0000
0001
0000
1000
0010
0100
0001
1000
0000
0100
0010
0001
1000
,
0010
0100
0001
1000
0100
0010
0001
1000
0010
0100
0001
1000
0001
0100
0010
1000
,
0100
0010
0001
0010
0100
1000
0001
0010
0001
1000
0100
1000
0010
0100
0001
1000
,
0010
1000
0001
1000
0001
0010
0100
0010
0001
1000
0100
1000
0001
1000
0010
0100
,
0001
0100
0010
1000
0001
0100
0010
0100
0001
1000
0010
1000
0100
0010
0001
1000
,
0010
0100
0001
1000
0010
1000
0001
0010
0100
1000
0001
1000
0001
0010
0100
1000
,
0010
0100
0001
0100
0010
1000
0001
0100
0001
1000
0010
1000
0100
0010
0001
1000
,
0100
1000
0001
1000
0001
0100
0010
0100
0001
1000
0010
1000
0001
1000
0100
0010
,
0001
0010
0100
0000
1000
0000
0010
0100
0001
1000
0100
0000
0010
0001
0100
0010
,
1000
0001
1000
0100
0010
0001
0100
0001
1000
0001
1000
0100
0010
0001
1000
0001
,
0100
0010
1000
0010
0100
0001
1000
0100
1000
0001
0010
0001
0100
0010
1000
0001
,
0100
0001
1000
0001
1000
0100
0010
0100
1000
0001
0010
0001
1000
0001
0100
0010
,
1000
0010
0100
0001
1000
0010
0100
0010
1000
0001
0100
0001
0010
0100
1000
0001
,
0100
0010
1000
0001
0100
0001
1000
0100
0010
0001
1000
0001
1000
0100
0010
0001
,
0100
0010
1000
0010
0100
0001
1000
0010
1000
0001
0100
0001
0010
0100
1000
0001
,
0010
0001
1000
0001
1000
0010
0100
0010
1000
0001
0100
0001
1000
0001
0010
0100
,
1000
0100
0010
0001
1000
0100
0010
0100
1000
0001
0010
0001
0100
0010
1000
0100
,
0010
0001
1000
0001
0000
1000
0001
1000
0100
0010
0001
1000
0000
0001
1000
0001
,
0100
0010
1000
0001
0000
1000
0001
1000
0010
0100
0001
1000
0000
0001
1000
0001
,
1000
0100
0010
0001
0000
0010
0001
1000
0001
0010
0100
1000
0000
0100
1000
0001
,
1000
0010
0100
0001
0000
0100
0001
1000
0100
0000
0100
0000
0100
0000
0010
0100
,
1000
0001
0100
0010
0000
0100
0010
1000
0001
1000
0010
0100
0000
0010
0100
0001
,
0010
0100
1000
0001
0000
1000
0001
1000
0100
0010
0001
1000
0000
0001
1000
0001
,
1000
0010
0100
0001
0000
0100
0001
1000
0001
0100
0010
1000
0000
0010
1000
0001
,
1000
0100
1000
0000
0001
0000
0100
0001
0010
0100
1000
0000
0001
1000
0010
1000
,
0100
1000
0001
1000
0000
0001
1000
0001
0010
0100
1000
0001
0000
1000
0001
1000
,
0010
0100
0001
1000
0000
0001
1000
0001
0100
0010
1000
0001
0000
1000
0001
1000
,
0001
0010
0100
1000
0000
0100
1000
0001
1000
0100
0010
0001
0000
0010
0001
1000
,
0001
0100
0010
1000
0000
0010
1000
0001
0010
0000
0010
0000
0010
0000
0100
0010
,
0001
1000
0010
0100
0000
0010
0100
0001
1000
0001
0100
0010
0000
0100
0010
1000
,
0100
0010
0001
1000
0000
0001
1000
0001
0010
0100
1000
0001
0000
1000
0001
1000
,
0001
0100
0010
1000
0000
0010
1000
0001
1000
0010
0100
0001
0000
0100
0001
1000
,
0001
0010
0001
0000
1000
0000
0010
1000
0100
0010
0001
0000
1000
0001
0100
0001
,
0010
0100
1000
0001
0000
1000
0001
1000
0100
0010
0001
1000
0000
0001
1000
0001
,
0100
0010
1000
0001
0000
1000
0001
1000
0010
0100
0001
1000
0000
0001
1000
0001
,
1000
0100
0010
0001
0000
0010
0001
1000
0001
0010
0100
1000
0000
0100
1000
0001
,
1000
0010
0100
0001
0000
0100
0010
1000
0001
0000
0001
0000
0001
0000
1000
0100
,
0010
0001
1000
0001
0000
1000
0001
1000
0100
0010
0001
1000
0000
0001
1000
0001
,
0100
0010
1000
0001
0000
1000
0001
1000
0010
0100
0001
1000
0000
0001
1000
0001
,
1000
0100
0010
0001
1000
0001
0010
0100
1000
0001
0100
0010
1000
0010
0100
0001
,
1000
0100
0010
0001
1000
0001
0100
0001
0010
0100
1000
0001
0100
0010
1000
0100
,
0010
0000
0001
1000
0000
0001
0010
0100
1000
0000
0001
0010
0000
0001
1000
0001
,
0100
0000
0010
1000
0000
0010
0100
0001
1000
0000
0001
0100
0000
0010
1000
0001
,
0010
0000
0100
1000
0000
0100
0010
0001
1000
0000
0001
0010
0000
0100
1000
0001
,
0100
0000
0001
1000
0000
0001
0100
0010
1000
0000
0001
1000
0000
0001
0010
0100
,
1000
0000
0001
1000
0000
0100
0010
0001
1000
0000
0001
0010
0000
0100
1000
0001
,
0100
0000
0010
1000
0000
0010
0100
0001
1000
0000
0001
0100
0000
0010
1000
0001
,
1000
0100
0010
0001
1000
0100
1000
0001
0010
0100
1000
0010
0100
0001
0010
0100
,
1000
0001
0100
0001
1000
0010
0100
0001
0010
0100
1000
0001
0100
0010
1000
0100
,
0020
0000
0000
0000
0000
0000
0000
0000
0000
0000
0000
0000
0000
0000
0000
0000
0000
0000
0000
0000
0000
0000
0000
0000
0000
0000
0000
0000
0000
0000
0000
0000
0000
0030
0000
0000
0000
0000
0000
0000
0000
0000
0000
0000
0000
0000
0000
0000
0000
0000
0000
0000
0000
0000
0000
0000
0000
0000
0000
0000
0000
0000
0000
0000
;

//---------------dance-single - 14- (TYLR)----------------
#NOTES:
     dance-single:
     14- (TYLR):
     Medium:
     14:
     1.000,1.000,0.181,0.300,1.000,2836.000,65.000,108.000,31.000,0.000:
0000
0000
0000
0000
,
0000
0000
0000
0000
,
0000
0000
0000
0000
,
0000
0000
0000
0000
,
0000
0000
0000
0000
,
0000
0000
0000
0000
,
0000
0000
0000
0000
,
0000
0000
0000
0000
,
1000
0010
0100
0010
1000
0001
0010
0001
,
0100
0010
1000
0010
0100
0001
0010
0001
,
0100
0010
1000
0010
0100
0001
0010
0001
,
1000
0000
0100
0000
0010
0000
0100
0000
1000
0000
1000
0000
0010
0000
0100
0001
,
0100
0010
1000
0010
0100
0001
0010
0001
,
1000
0010
0100
0010
1000
0001
0010
0001
,
1000
0100
0010
010M
1000
0001
0010
0001
,
0100
0001
0100
0000
0010
1000
0010
1000
0001
1000
0100
0000
0010
0001
0010
0001
,
1M00
0001
1000
0000
0010
0100
0010
0000
0100
0001
0100
0000
0001
1000
0001
0000
,
0010
0100
0010
0000
0100
1000
0100
0000
0010
0001
0010
0000
0001
0100
0001
0000
,
1000
0010
1000
0000
0100
0010
0100
0000
1000
0001
1000
0000
0001
0100
0001
0000
,
1000
0010
1000
0000
0100
0010
0100
0000
1000
0000
0001
0000
0100
0000
0001
1000
,
0100
0010
0100
0000
0010
0001
0010
0000
0001
1000
0001
0000
0100
0010
0100
0000
,
0001
1000
0001
0000
1000
0100
1000
0000
0001
0010
0001
0000
1000
0100
1000
0000
,
0001
0100
0001
0000
1000
0010
1000
0000
0100
0010
0100
0000
1000
0001
1000
0000
,
0001
0100
0001
0000
1000
0000
0001
1000
0100
0010
0100
0000
1000
0000
0001
0000
,
M100
0001
0100
0000
0010
1000
0010
0000
1000
0100
1000
0000
0001
0010
0001
0000
,
0100
0010
0100
0000
0001
0010
0001
0000
1000
0100
1000
0000
0010
0100
0010
0000
,
1000
0100
1000
0000
0001
0010
0001
0000
1000
0010
1000
0000
0001
0100
0001
0000
,
0010
0100
0010
0000
0001
1000
0001
0000
0100
0000
0010
0000
1000
0000
0010
0100
,
0001
1000
0001
0000
0010
0100
0010
0000
0001
0010
0001
0000
1000
0100
1000
0000
,
0001
0100
0001
0000
1000
0010
1000
0000
0001
0010
0001
0000
0100
0010
0100
0000
,
0001
1000
0001
0000
1000
0100
1000
0000
0001
0010
0001
0000
0100
0001
0100
0000
,
0010
1000
0010
0000
0100
0000
0001
1000
0100
0010
0001
0000
1000
0000
0001
0000
,
1000
0100
0010
0000
0001
1000
0010
0000
0100
0001
0010
0000
0100
1000
0010
0000
,
1000
0100
0010
0000
0001
0100
0010
0000
1000
0100
0010
0000
0001
0100
0010
0000
,
1000
0001
0010
0000
0100
1000
0001
0000
0100
0010
1000
0000
0100
0010
0001
0000
,
1000
0010
0100
0000
0001
1000
0100
0000
0010
0000
0010
0000
0010
0000
0001
0010
,
0100
1000
0001
0000
0100
0010
1000
0000
0100
0010
0001
0000
1000
0010
0100
0000
,
0001
0010
0100
0000
1000
0010
0100
0000
0001
0010
0100
0000
1000
0010
0100
0000
,
0001
1000
0100
0000
0010
0001
1000
0000
0010
0100
0001
0000
1000
0100
0010
0000
,
0001
1000
0001
0000
1000
0000
0001
0100
0010
1000
0001
0000
1000
0000
0100
0000
,
1000
0010
0100
0000
0001
1000
0100
0000
0010
0001
0100
0000
0010
1000
0100
0000
,
1000
0010
0100
0000
0001
0010
0100
0000
1000
0010
0100
0000
0001
0010
0100
0000
,
1000
0001
0100
0000
0010
1000
0001
0000
0010
0100
1000
0000
0010
0100
0001
0000
,
1000
0100
0010
0000
0001
1000
0010
0000
0100
0000
0100
0000
0100
0000
0001
0100
,
0010
1000
0001
0000
0010
0100
1000
0000
0010
0100
0001
0000
1000
0100
0010
0000
,
0001
0100
0010
0000
1000
0100
0010
0000
0001
0100
0010
0000
1000
0100
0010
0000
,
0001
1000
0010
0000
0100
0001
1000
0000
0100
0010
0001
0000
1000
0010
0100
0000
,
0001
1000
0001
0000
1000
0000
0001
0010
0100
1000
0001
0000
1000
0000
0010
1000
,
0001
0010
0100
0000
1000
0010
0100
0000
0001
1000
0100
0000
0010
0001
1000
0000
,
0001
0100
0010
0000
1000
0100
0010
0000
0001
0100
0010
0000
1000
0100
0010
0000
,
0001
1000
0010
0000
0100
0001
1000
0000
0100
0010
0001
0000
0100
0010
1000
0000
,
0001
0010
0100
0000
1000
0001
0100
0000
0010
0000
0010
0000
0010
0000
1000
0010
,
0100
0001
1000
0000
0100
0010
0001
0000
0100
0010
1000
0000
0001
0010
0100
0000
,
1000
0010
0100
0000
0001
0010
0100
0000
1000
0010
0100
0000
0001
0010
0100
0000
,
1000
0001
0100
0000
0010
1000
0001
0000
0010
0100
1000
0000
0001
0100
0010
0000
,
1000
0001
1000
0000
0001
0000
1000
0100
0010
0001
1000
0000
0001
0000
0100
0010
,
1000
0001
0010
0000
0100
1000
0001
0000
1000
0010
0100
0000
0001
1000
0100
0000
,
0010
0001
0100
0000
0010
1000
0100
0000
0010
0001
0100
0000
0010
1000
0100
0000
,
0010
0001
1000
0000
0010
0100
0001
0000
0010
0100
1000
0000
0010
0100
0001
0000
,
1000
0100
0010
0000
0001
0100
0010
0000
1000
0000
1000
0000
1000
0000
0001
1000
,
0100
0010
0100
1000
0001
1000
0010
0100
,
0001
0100
0010
1000
0100
0010
0001
1000
,
0001
0100
0001
1000
0001
0010
0100
1000
0010
1000
0100
0010
0001
0100
0010
1000
,
0001
0010
0001
0000
1000
0000
0001
0010
0100
1000
0001
0000
1000
0000
0010
0100
,
0002
0000
0000
0000
,
0000
0000
0000
0000
,
0003
0000
0000
0000
,
0000
0000
0000
0000
,
0101
0000
0000
0001
0000
0000
2000
0000
0000
0000
3001
0000
0020
0000
0000
0000
,
0130
0000
0000
1000
0000
0000
0002
0000
0000
0000
0103
0000
0020
0000
0000
0000
,
1030
0000
0000
0010
0000
0000
0200
0000
0000
0000
0301
0000
2000
0000
0000
0000
,
3001
0000
0000
0010
0000
0000
0200
0000
0000
0000
1300
0000
0020
0000
0000
0000
,
0130
0000
0000
0001
0000
0000
2000
0000
0000
0000
3100
0000
0020
0000
0000
0000
,
0031
0000
0000
1000
0000
0000
0020
0000
0000
0000
0130
0000
0002
0000
0000
0000
,
1003
0000
0000
0100
0000
0000
0020
0000
0000
0000
0031
0000
2000
0000
0000
0000
,
3001
0000
0000
0100
0000
0000
0010
0000
0000
0000
1000
0000
0200
0000
0000
0000
,
0310
0000
0000
0001
0000
0000
2000
0000
0000
0000
3001
0000
0200
0000
0000
0000
,
0310
0000
0000
1000
0000
0000
0002
0000
0000
0000
0013
0000
0200
0000
0000
0000
,
1300
0000
0000
0100
0000
0000
0020
0000
0000
0000
0031
0000
2000
0000
0000
0000
,
3001
0000
0000
0100
0000
0000
0020
0000
0000
0000
1030
0000
0200
0000
0000
0000
,
0310
0000
0000
0001
0000
0000
2000
0000
0000
0000
3010
0000
0200
0000
0000
0000
,
0301
0000
0000
1000
0000
0000
0200
0000
0000
0000
0310
0000
0002
0000
0000
0000
,
1003
0000
0000
0010
0000
0000
0200
0000
0000
0000
0301
0000
2000
0000
0000
0000
,
3001
0000
0000
0010
0000
0000
0100
0000
1000
0000
0010
0000
0110
0000
0100
0000
,
0101
0000
0001
0100
0010
0000
2000
0000
3001
0000
0010
0000
0120
0000
0130
0000
,
1100
0000
1000
0100
0010
0000
0002
0000
1003
0000
0001
0000
0102
0000
0103
0000
,
0110
0000
0010
1000
0001
0000
0200
0000
0301
0000
1000
0000
2100
0000
3100
0000
,
0110
0000
0010
0001
1000
0000
0002
0000
0103
0000
0010
0000
1002
0000
1003
0000
,
1100
0000
0100
0010
0001
0000
2000
0000
3001
0000
1000
0000
2010
0000
3010
0000
,
0110
0000
0100
0001
1000
0000
0002
0000
1003
0000
0100
0000
0210
0000
0310
0000
,
1100
0000
0100
1000
0001
0000
0020
0000
0031
0000
0100
0000
0210
0000
0310
0000
,
1010
0000
1000
0001
0010
0000
0200
0000
1300
0000
0001
0000
1002
0000
1003
0000
,
1001
0000
0001
0100
0010
0000
2000
0000
3001
0000
0010
0000
0120
0000
0130
0000
,
1100
0000
1000
0100
0010
0000
0002
0000
1003
0000
0001
0000
0102
0000
0103
0000
,
0110
0000
0010
1000
0001
0000
0200
0000
0301
0000
1000
0000
2100
0000
3100
0000
,
0110
0000
0010
0001
1000
0000
0002
0000
0103
0000
0010
0000
1002
0000
1003
0000
,
1100
0000
0100
0010
0001
0000
2000
0000
3001
0000
1000
0000
2010
0000
3010
0000
,
0110
0000
0100
0001
1000
0000
0002
0000
1003
0000
0100
0000
0210
0000
0310
0000
,
1100
0000
0100
1000
0001
0000
0020
0000
0031
0000
0100
0000
0201
0000
0301
0000
,
1001
0000
1000
0001
1000
0000
0100
0000
0010
0000
0001
0000
0010
0000
0100
0000
,
1100
0000
1000
0100
0010
0000
0002
0000
1003
0000
0010
0000
0120
0000
0130
0000
,
0101
0000
0001
0100
0010
0000
2000
0000
3001
0000
1000
0000
2100
0000
3100
0000
,
0110
0000
0010
0001
1000
0000
0200
0000
1300
0000
0001
0000
0102
0000
0103
0000
,
0110
0000
0010
1000
0001
0000
2000
0000
3100
0000
0010
0000
2001
0000
3001
0000
,
0101
0000
0100
0010
1000
0000
0002
0000
1003
0000
0001
0000
0012
0000
0013
0000
,
0110
0000
0100
1000
0001
0000
2000
0000
3001
0000
0100
0000
0210
0000
0310
0000
,
0101
0000
0100
0001
1000
0000
0020
0000
1030
0000
0100
0000
0210
0000
0310
0000
,
0011
0000
0001
1000
0010
0000
0200
0000
0301
0000
1000
0000
2001
0000
3001
0000
,
1010
0000
1000
0010
0100
0000
0002
0000
1003
0000
0100
0000
0210
0000
0310
0000
,
0011
0000
0001
0010
0100
0000
2000
0000
3001
0000
1000
0000
2010
0000
3010
0000
,
0110
0000
0100
0001
1000
0000
0020
0000
1030
0000
0001
0000
0012
0000
0013
0000
,
0110
0000
0100
1000
0001
0000
2000
0000
3010
0000
0100
0000
2001
0000
3001
0000
,
0011
0000
0010
0100
1000
0000
0002
0000
1003
0000
0001
0000
0102
0000
0103
0000
,
0110
0000
0010
1000
0001
0000
2000
0000
3001
0000
0010
0000
0120
0000
0130
0000
,
0011
0000
0010
0001
1000
0000
0200
0000
1300
0000
0010
0000
0120
0000
0130
0000
,
0101
0000
0001
1000
0100
0000
0020
0000
0031
0000
1000
0000
2001
0000
3001
0000
,
0010
000M
M000
00M0
,
0M00
000M
M000
0M00
,
M000
00M0
0M00
000M
,
00M0
0M00
M000
000M
,
0100
0000
0000
0100
0000
0000
0100
0000
0000
0100
0000
0000
0100
0001
1000
0100
,
0010
0000
0000
0010
0000
0000
0010
0000
0000
0010
0000
0000
0010
0001
0100
0010
,
1000
0000
0000
1000
0000
0000
1000
0000
0000
1000
0000
0000
1000
0100
0010
0001
,
1000
0001
1000
0010
0100
0001
0010
0100
1000
0001
0100
0010
1000
0100
0010
0001
,
0200
0300
0010
2000
0000
3001
0010
0100
,
1000
0000
0010
0000
0100
0000
0002
0000
0000
0000
1003
0000
0100
0010
0001
1000
,
0200
0300
0010
0200
0000
1300
0001
1000
,
0020
0000
0030
0000
1000
0000
0020
0000
0000
0000
1030
0000
0001
0010
0100
1000
,
0020
0030
0100
0002
0000
0103
0010
1000
,
0100
0000
0010
0000
0001
0000
2000
0000
0000
0000
3010
0000
1000
0100
0010
0001
,
2000
3000
0001
2000
0000
3001
1000
0100
,
0020
0000
0030
0000
0100
0000
0020
0000
0000
0000
0031
0000
0010
0100
1000
0010
,
0100
0000
0000
0000
,
0000
0000
0000
0000
00M0
00M0
00M0
00M0
,
0M00
0M00
0M00
0M00
M000
M000
M000
M000
,
M002
0000
0000
0000
0000
0000
0000
0000
0000
0000
1003
0000
0001
0010
0100
1000
,
0010
1000
0001
1000
0100
0010
0001
1000
0010
1000
0001
1000
0001
0100
0010
1000
,
0100
0010
0001
0010
0100
1000
0001
0010
0001
1000
0100
1000
0010
0100
0001
1000
,
0010
1000
0001
1000
0001
0010
0100
0010
0001
1000
0100
1000
0001
1000
0010
0100
,
0001
0100
0010
1000
0001
0100
0010
0100
0001
0000
1000
0000
0001
0000
0010
0100
,
1000
0001
1000
0001
0100
0001
1000
0100
0010
0001
1000
0001
1000
0100
0010
0001
,
0100
0010
1000
0010
0100
0001
1000
0010
1000
0001
0100
0001
0010
0100
1000
0001
,
0010
0001
1000
0001
1000
0010
0100
0010
1000
0001
0100
0001
1000
0001
0010
0100
,
1000
0001
1000
0000
0001
0000
1000
0001
1000
0001
1000
0000
0001
0000
1000
0000
,
0100
0010
0001
1000
0100
1000
0001
0100
0010
1000
0001
1000
0001
0100
0010
1000
,
0100
0010
0001
0010
0100
1000
0001
0010
0001
1000
0100
1000
0010
0100
0001
1000
,
0010
1000
0001
1000
0001
0010
0100
0010
0001
1000
0100
1000
0001
1000
0010
0100
,
0001
0100
0010
1000
0001
0100
0010
0100
0001
0000
1000
0000
0001
0000
0010
0100
,
1000
0001
1000
0100
0010
0001
1000
0001
1000
0010
1000
0001
1000
0100
0010
0001
,
0100
0010
1000
0010
0100
0001
1000
0010
1000
0001
0100
0001
0010
0100
1000
0001
,
0010
0001
1000
0001
1000
0010
0100
0010
1000
0001
0100
0001
1000
0001
0010
0100
,
1000
0001
1000
0000
0001
0000
1000
0001
1000
0001
1000
0000
0001
0000
1000
0000
,
0100
0010
0001
1000
0100
1000
0001
0100
0010
1000
0001
1000
0001
0100
0010
1000
,
0100
0010
0001
0010
0100
1000
0001
0010
0001
1000
0100
1000
0010
0100
0001
1000
,
0010
1000
0001
1000
0001
0010
0100
0010
0001
1000
0100
1000
0001
1000
0010
0100
,
0001
0100
0010
1000
0001
0100
0010
0100
0001
0000
1000
0000
0001
0000
0010
0100
,
1000
0001
0010
0001
1000
0010
0100
0001
1000
0001
1000
0100
1000
0001
0010
0001
,
0100
0010
1000
0010
0100
0001
1000
0010
1000
0001
0100
0001
0010
0100
1000
0001
,
0010
0001
1000
0001
1000
0010
0100
0010
1000
0001
0100
0001
1000
0001
0010
0100
,
1000
0001
1000
0000
0001
0000
1000
0001
1000
0001
1000
0000
0001
0000
1000
0000
,
0100
0010
0001
1000
0100
1000
0001
0100
0010
1000
0001
1000
0001
0100
0010
1000
,
0100
0010
0001
0010
0100
1000
0001
0010
0001
1000
0100
1000
0010
0100
0001
1000
,
0010
1000
0001
1000
0001
0010
0100
0010
0001
1000
0100
1000
0001
1000
0010
0100
,
0001
0100
0010
1000
0001
0100
0010
1000
0001
0000
1000
0000
0001
0000
0010
0100
,
1000
0001
0010
0001
1000
0100
1000
0001
0100
0001
1000
0001
1000
0100
0010
0001
,
0100
0010
1000
0010
0100
0001
1000
0010
1000
0001
0100
0001
0010
0100
1000
0001
,
1000
0001
1000
0010
0100
0001
1000
0100
,
0010
0100
1000
0000
0001
0000
1000
0001
1000
0010
0100
0000
0001
0010
0100
1000
,
0001
0000
0010
0100
0000
1000
0100
0010
0001
0000
1000
0001
0000
0010
0100
1000
,
0010
0000
0100
0010
0000
1000
0010
0100
0001
0000
1000
0001
0000
0100
0010
1000
,
0100
0000
0010
0001
0000
0010
0100
1000
0001
0000
1000
0100
0000
0010
0001
1000
,
0010
0000
0100
0010
0000
1000
0001
1000
0100
0000
0100
0000
0010
0100
1000
0001
,
0100
0000
0010
0100
0000
0001
0100
0010
1000
0000
0001
1000
0000
0010
0100
0001
,
0010
0000
0100
0010
0000
0001
0010
0100
1000
0000
0001
1000
0000
0100
0010
0001
,
0100
0000
0010
1000
0000
0010
0100
0001
1000
0000
0001
0100
0000
0010
1000
0001
,
0010
0100
0010
0000
0001
0000
0010
0100
1000
0001
0100
0000
0010
0000
1000
0000
,
0100
0000
0010
0100
0000
1000
0100
0010
0001
0000
1000
0001
0000
0010
0100
1000
,
0010
0000
0100
0010
0000
1000
0010
0100
0001
0000
1000
0001
0000
0100
0010
1000
,
0100
0000
0010
0001
0000
0010
0100
1000
0001
0000
1000
0100
0000
0010
0001
1000
,
0010
0000
0100
0010
0000
1000
0001
1000
0100
0000
0100
0000
0100
0000
0010
0100
,
1000
0000
0100
0010
0000
0100
1000
0001
0100
0000
0001
1000
0000
0001
0100
0010
,
1000
0000
0001
1000
0000
0010
1000
0001
0010
0000
0001
1000
0000
0100
0010
0001
,
0100
0000
0010
1000
0000
0010
0100
0001
1000
0000
0001
0100
0000
0010
1000
0001
,
0010
0100
0010
0000
0001
0000
0010
0100
1000
0001
0100
0000
0010
0000
1000
0001
,
0010
0000
0100
0010
0000
0001
0010
0100
1000
0000
0001
1000
0000
0100
0010
0001
,
0100
0000
0010
0100
0000
0001
0100
0010
1000
0000
0001
1000
0000
0010
0100
0001
,
0010
0000
0100
1000
0000
0100
0010
0001
1000
0000
0001
0010
0000
0100
1000
0001
,
0100
0000
0010
0100
0000
0001
1000
0001
0010
0000
0010
0000
0100
0010
0001
1000
,
0010
0000
0100
0010
0000
1000
0010
0100
0001
0000
1000
0001
0000
0100
0010
1000
,
0100
0000
0010
0100
0000
1000
0100
0010
0001
0000
1000
0001
0000
0010
0100
1000
,
0010
0000
0100
0001
0000
0100
0010
1000
0001
0000
1000
0010
0000
0100
0001
1000
,
0100
0010
0100
0000
1000
0000
0100
0010
0001
1000
0010
0000
0100
0000
0001
0000
,
0010
0000
0100
0010
0000
0001
0010
0100
1000
0000
0001
1000
0000
0100
0010
0001
,
0100
0000
0010
0100
0000
0001
0100
0010
1000
0000
0001
1000
0000
0010
0100
0001
,
0010
0000
0100
1000
0000
0100
0010
0001
1000
0000
0001
0010
0000
0100
1000
0001
,
0100
0000
0010
1000
0000
0001
0010
0100
1000
0000
1000
0000
1000
0000
0100
0010
,
0001
0000
0010
0100
0000
0010
0001
1000
0010
0000
1000
0001
0000
1000
0010
0100
,
0001
0000
1000
0001
0000
0100
0001
1000
0100
0000
1000
0001
0000
0010
0100
1000
,
0001
1000
0001
0100
0010
1000
0010
1000
0001
1000
0100
0010
0001
1000
0001
0100
,
0010
1000
0001
1000
0100
0010
0001
0010
0100
1000
0010
1000
0001
0010
0100
1000
,
0010
1000
0001
1000
0100
0010
0001
1000
0010
1000
0001
1000
0001
0100
0010
1000
,
0100
0010
0001
0010
0100
1000
0001
0010
0001
1000
0100
1000
0010
0100
0001
1000
,
0010
1000
0001
1000
0001
0010
0100
0010
0001
1000
0100
1000
0001
1000
0010
0100
,
0001
0100
0010
1000
0001
0100
0010
0100
0001
0000
1000
0000
0001
0000
0010
0100
,
1000
0001
1000
0001
0100
0001
1000
0100
0010
0001
1000
0001
1000
0100
0010
0001
,
0100
0010
1000
0010
0100
0001
1000
0010
1000
0001
0100
0001
0010
0100
1000
0001
,
0010
0001
1000
0001
1000
0010
0100
0010
1000
0001
0100
0001
1000
0001
0010
0100
,
1000
0001
1000
0000
0001
0000
1000
0001
1000
0001
1000
0000
0001
0000
1000
0000
,
0100
0010
0001
1000
0100
1000
0001
0100
0010
1000
0001
1000
0001
0100
0010
1000
,
0100
0010
0001
0010
0100
1000
0001
0010
0001
1000
0100
1000
0010
0100
0001
1000
,
0010
1000
0001
1000
0001
0010
0100
0010
0001
1000
0100
1000
0001
1000
0010
0100
,
0001
0100
0010
1000
0001
0100
0010
0100
0001
0000
1000
0000
0001
0000
0010
0100
,
1000
0001
1000
0100
0010
0001
1000
0001
1000
0010
1000
0001
1000
0100
0010
0001
,
0100
0010
1000
0010
0100
0001
1000
0010
1000
0001
0100
0001
0010
0100
1000
0001
,
0010
0001
1000
0001
1000
0010
0100
0010
1000
0001
0100
0001
1000
0001
0010
0100
,
1000
0001
1000
0000
0001
0000
1000
0001
1000
0001
1000
0000
0001
0000
1000
0000
,
0100
0010
0001
1000
0100
1000
0001
0100
0010
1000
0001
1000
0001
0100
0010
1000
,
0100
0010
0001
0010
0100
1000
0001
0010
0001
1000
0100
1000
0010
0100
0001
1000
,
0010
1000
0001
1000
0001
0010
0100
0010
0001
1000
0100
1000
0001
1000
0010
0100
,
0001
0100
0010
1000
0001
0100
0010
0100
0001
0000
1000
0000
0001
0000
0010
0100
,
1000
0001
0010
0001
1000
0010
0100
0001
1000
0001
1000
0100
1000
0001
0010
0001
,
0100
0010
1000
0010
0100
0001
1000
0010
1000
0001
0100
0001
0010
0100
1000
0001
,
0010
0001
1000
0001
1000
0010
0100
0010
1000
0001
0100
0001
1000
0001
0010
0100
,
1000
0001
1000
0000
0001
0000
1000
0001
1000
0001
1000
0000
0001
0000
1000
0000
,
0100
0010
0001
1000
0100
1000
0001
0100
0010
1000
0001
1000
0001
0100
0010
1000
,
0100
0010
0001
0010
0100
1000
0001
0010
0001
1000
0100
1000
0010
0100
0001
1000
,
0010
1000
0001
1000
0001
0010
0100
0010
0001
1000
0100
1000
0001
1000
0010
0100
,
0001
0100
0010
1000
0001
0100
0010
1000
0001
0000
1000
0000
0001
0000
0010
0100
,
1000
0001
0010
0001
1000
0100
1000
0001
0100
0001
1000
0001
1000
0100
0010
0001
,
0100
0010
1000
0010
0100
0001
1000
0010
1000
0001
0100
0001
0010
0100
1000
0001
,
1000
0001
1000
0010
0100
0001
1000
0100
,
0010
0100
1000
0000
0001
0000
1000
0001
1000
0010
0100
0000
0001
0010
0100
1000
,
0001
0000
0010
0100
0000
1000
0100
0010
0001
0000
1000
0001
0000
0010
0100
1000
,
0010
0000
0100
0010
0000
1000
0010
0100
0001
0000
1000
0001
0000
0100
0010
1000
,
0100
0000
0010
0001
0000
0010
0100
1000
0001
0000
1000
0100
0000
0010
0001
1000
,
0010
0000
0100
0010
0000
1000
0001
1000
0100
0000
0100
0000
0010
0100
1000
0001
,
0100
0000
0010
0100
0000
0001
0100
0010
1000
0000
0001
1000
0000
0010
0100
0001
,
0010
0000
0100
0010
0000
0001
0010
0100
1000
0000
0001
1000
0000
0100
0010
0001
,
0100
0000
0010
1000
0000
0010
0100
0001
1000
0000
0001
0100
0000
0010
1000
0001
,
0010
0100
0010
0000
0001
0000
0010
0100
1000
0001
0100
0000
0010
0000
1000
0000
,
0100
0000
0010
0100
0000
1000
0100
0010
0001
0000
1000
0001
0000
0010
0100
1000
,
0010
0000
0100
0010
0000
1000
0010
0100
0001
0000
1000
0001
0000
0100
0010
1000
,
0100
0000
0010
0001
0000
0010
0100
1000
0001
0000
1000
0100
0000
0010
0001
1000
,
0010
0000
0100
0010
0000
1000
0001
1000
0100
0000
0100
0000
0100
0000
0010
0100
,
1000
0000
0100
0010
0000
0100
1000
0001
0100
0000
0001
1000
0000
0001
0100
0010
,
1000
0000
0001
1000
0000
0010
1000
0001
0010
0000
0001
1000
0000
0100
0010
0001
,
0100
0000
0010
1000
0000
0010
0100
0001
1000
0000
0001
0100
0000
0010
1000
0001
,
0010
0100
0010
0000
0001
0000
0010
0100
1000
0001
0100
0000
0010
0000
1000
0001
,
0010
0000
0100
0010
0000
0001
0010
0100
1000
0000
0001
1000
0000
0100
0010
0001
,
0100
0000
0010
0100
0000
0001
0100
0010
1000
0000
0001
1000
0000
0010
0100
0001
,
0010
0000
0100
1000
0000
0100
0010
0001
1000
0000
0001
0010
0000
0100
1000
0001
,
0100
0000
0010
0100
0000
0001
1000
0001
0010
0000
0010
0000
0100
0010
0001
1000
,
0010
0000
0100
0010
0000
1000
0010
0100
0001
0000
1000
0001
0000
0100
0010
1000
,
0100
0000
0010
0100
0000
1000
0100
0010
0001
0000
1000
0001
0000
0010
0100
1000
,
0010
0000
0100
0001
0000
0100
0010
1000
0001
0000
1000
0010
0000
0100
0001
1000
,
0100
0010
0100
0000
1000
0000
0100
0010
0001
1000
0010
0000
0100
0000
0001
0000
,
0010
0000
0100
0010
0000
0001
0010
0100
1000
0000
0001
1000
0000
0100
0010
0001
,
0100
0000
0010
0100
0000
0001
0100
0010
1000
0000
0001
1000
0000
0010
0100
0001
,
0010
0000
0100
1000
0000
0100
0010
0001
1000
0000
0001
0010
0000
0100
1000
0001
,
0100
0000
0010
1000
0000
0001
0010
0100
1000
0000
1000
0000
1000
0000
0100
0010
,
0001
0000
0010
0100
0000
0010
0001
1000
0010
0000
1000
0001
0000
1000
0010
0100
,
0001
0000
1000
0001
0000
0100
0001
1000
0100
0000
1000
0001
0000
0010
0100
1000
,
0001
1000
0001
0100
0010
1000
0010
1000
0001
1000
0100
0010
0001
1000
0001
0100
,
0010
1000
0001
1000
0100
0010
0001
0010
0100
1000
0010
1000
0001
0010
0100
1000
,
0020
0000
0000
0000
0000
0000
0000
0000
0000
0000
0000
0000
0000
0000
0000
0000
0000
0000
0000
0000
0000
0000
0000
0000
0000
0000
0000
0000
0000
0000
0000
0000
0000
0030
0000
0000
0000
0000
0000
0000
0000
0000
0000
0000
0000
0000
0000
0000
0000
0000
0000
0000
0000
0000
0000
0000
0000
0000
0000
0000
0000
0000
0000
0000
;
