#TITLE:Children of Decadence;
#SUBTITLE:;
#ARTIST:Children of Bodom;
#TITLETRANSLIT:;
#SUBTITLETRANSLIT:;
#ARTISTTRANSLIT:;
#CREDIT:;
#BANNER:Children of Decadence Banner.JPG;
#BACKGROUND:Children of Decadence BG.JPG;
#LYRICSPATH:;
#CDTITLE:Drunk Link.png;
#MUSIC:03 - Children Of Decadence.mp3;
#OFFSET:-0.240;
#SAMPLESTART:89.619;
#SAMPLELENGTH:12.000;
#SELECTABLE:YES;
#BPMS:0.000=143.900,458.000=144.100,502.000=143.900,666.000=143.900,709.000=144.100,750.000=144.300,753.000=143.700;
#STOPS:80.000=0.820
;
#BGCHANGES:;
// cache tags:
#FIRSTBEAT:0.000;
#LASTBEAT:789.500;
#SONGFILENAME:Songs/toune 5/Children of Decadence/Children of Decadnece.sm;
#HASMUSIC:1;
#HASBANNER:1;
#MUSICLENGTH:334.923;
// end cache tags

//---------------dance-single - Copied from----------------
#NOTES:
     dance-single:
     Copied from:
     Hard:
     10:
     1.000,1.000,1.000,0.961,0.846,1769.000,633.000,322.000,0.000,7.000:
1010
0101
1000
0001
0100
0010
1000
0001
,
0100
0000
0010
0000
1000
0000
0001
0000
1000
0000
1000
0100
1000
0100
0010
0001
,
1010
0101
1000
0001
0100
0010
1000
0001
,
0100
0000
1000
0100
0010
0001
0010
0100
2002
0000
3003
0000
2200
0000
3300
0000
,
0101
1010
1000
0001
0100
0010
1000
0001
,
0100
0000
0010
0000
1000
0000
0001
0000
1000
0000
1000
0100
1000
0100
0010
0001
,
1010
0101
1000
0001
0100
0010
1000
0001
,
1001
0000
0000
0000
0000
0000
0000
0000
0100
0000
0000
0000
0100
0000
0000
0000
0010
0000
0000
0000
0010
0000
0000
0000
1000
0000
0000
0000
1000
0000
0000
0000
0100
0000
0000
0000
0100
0000
0000
0000
1000
0000
0000
0000
1000
0000
0000
0000
0202
0303
0000
0000
0000
0000
0000
0000
0000
0000
0000
0000
0000
0000
0000
0000
,
1010
0101
1000
1010
0101
0010
1000
0101
,
1010
0000
0010
0000
0100
0000
0011
0000
1100
0000
1000
0100
1000
0100
0010
0001
,
1010
0101
1000
1010
0101
0010
1000
0101
,
1010
0000
1000
0100
0010
0001
0010
0100
1000
0100
0010
0001
0220
0000
0330
0000
,
1010
0101
1000
1010
0101
0010
1000
0101
,
1010
0000
0010
0000
0100
0000
0011
0000
1100
0000
1000
0100
1000
0100
0010
0001
,
1010
0101
1000
1010
0101
0010
1000
0101
,
1010
0000
1000
0100
0010
0001
0010
0100
1000
0100
0010
0001
1010
0000
1000
0001
,
2200
0000
0000
3300
,
0100
0010
0000
0100
0010
0100
0010
0100
0010
0100
0000
1000
0100
1000
0100
1000
,
0100
1000
0000
0100
0010
0100
0010
0100
0010
0100
0000
1000
0100
1000
0100
1000
,
0100
1000
0000
0100
0010
0100
0010
0100
0010
0100
0000
1000
0100
1000
0100
1000
,
0022
0033
0000
0000
0000
0000
0000
0000
0000
0000
0000
0000
0000
0000
0000
0000
0000
0000
0000
0000
0000
0000
0000
0000
0000
0000
0000
0000
0000
0000
0000
0000
1000
0000
0000
0000
0010
0000
0000
0000
0000
0000
0000
0000
1000
0000
0000
0000
0010
0000
0000
0000
1000
0000
0000
0000
0010
0000
0000
0000
1000
0000
0000
0000
,
0010
1000
0000
0100
0001
0100
0001
0100
0001
0100
0000
1000
0010
1000
0010
1000
,
0010
1000
0010
1000
0011
1100
0000
0000
1000
0010
0000
1000
0010
1000
0010
1000
,
0010
1000
0000
0100
0001
0100
0001
0100
0001
0100
0000
1000
0010
1000
0010
1000
,
1000
1000
0011
0000
1000
1000
0110
0000
1000
0010
0000
1000
0010
1000
0010
1000
,
0010
1000
0000
0100
0001
0100
0001
0100
0001
0100
0000
1000
0010
1000
0010
1000
,
0010
1000
0010
1000
0011
1100
0000
0000
1000
0010
0000
1000
0010
1000
0010
1000
,
0010
0000
1000
0000
0100
0000
0010
0000
0001
0010
0100
0010
0100
1000
0200
0000
,
0000
0000
0020
0330
1010
0101
1100
0011
,
0110
1001
1100
0011
2200
3300
2020
3030
,
0202
0303
0220
0330
2002
0000
3003
0220
,
0000
0000
0330
0000
1000
0100
0010
0100
0022
0000
0033
2200
0000
3300
0011
0000
,
1100
1010
0101
1100
0022
0033
1001
1100
,
0011
1100
0110
1001
0220
0330
2200
3300
,
0101
0000
0000
0110
0000
0000
1100
0000
0202
0000
0000
0000
0303
0000
2001
0000
,
0000
0000
0000
0000
0000
0000
0000
0000
0101
0000
0000
0110
0000
0000
3101
0000
,
1001
0000
0000
0000
0000
0000
0000
0000
0000
0000
0000
0000
1100
0000
0000
0000
0022
0033
0000
0000
0000
0000
0000
0000
2200
3300
0000
0000
0000
0000
0000
0000
0202
0303
0000
0000
0000
0000
0000
0000
0202
0303
0000
0000
1000
0000
0000
0000
0010
0000
0000
0000
1000
0000
0000
0000
0010
0000
0000
0000
1000
0000
0000
0000
,
0010
1000
0000
0100
0001
0100
0001
0100
0001
0100
0000
1000
0010
1000
0010
1000
,
0010
1000
0010
1000
0011
1100
0000
0000
1000
0010
0000
1000
0010
1000
0010
1000
,
0010
1000
0000
0100
0001
0100
0001
0100
1000
1000
0101
0000
1000
1000
0110
0000
,
1000
1000
0011
0000
1000
1000
0110
0000
1000
0010
0000
1000
0010
1000
0010
1000
,
0010
1000
0000
0100
0001
0100
0001
0100
0001
0100
0000
1000
0010
1000
0010
1000
,
0010
1000
0010
1000
0011
1100
0000
0000
1000
0010
0000
1000
0010
1000
0010
1000
,
0010
1000
0000
0100
0001
0100
0001
0100
2020
0000
3030
0022
0000
0033
2100
0000
,
0100
0010
0100
0010
0200
0000
3300
0000
0101
0000
0000
0101
0101
0000
1010
0000
,
0101
0000
0000
0000
0000
0000
0000
0000
1001
0000
0000
0000
1001
0000
0000
0000
0011
0000
0000
0000
0011
0000
0000
0000
1100
0000
0000
0000
0000
1001
0000
1001
,
0000
0000
1010
0000
2200
0000
3300
0000
0101
0000
0000
0101
0101
0000
1010
0000
,
0101
0000
2002
3003
0110
1010
1100
0101
,
0220
0000
0330
0000
2002
0000
3003
0000
0101
0000
0000
0101
0101
0000
1010
0000
,
0101
0000
1000
0100
1000
0100
0011
0000
0000
0000
1001
0000
1001
0000
0100
0010
,
0100
0000
1001
0000
0220
0000
0330
0000
0101
0000
0000
0101
0101
0000
1010
0000
,
0101
0000
1010
0110
1100
0011
0110
1100
,
2001
0000
0000
0000
0020
0000
3030
0000
0202
0000
0303
2020
0000
3030
0202
0000
,
0303
0000
0100
0000
1000
0100
0010
0000
1000
0000
0100
0000
0001
0000
1000
0001
,
1000
0000
0000
0000
0000
0000
0110
0000
0000
0000
0000
0000
2002
0000
0000
0000
3003
0000
0000
0000
0000
0000
0000
0000
0202
0000
0000
0000
0000
0000
0303
0000
0000
2020
0000
0000
0000
0000
0000
3030
0000
0000
0202
0000
0000
0000
0000
0000
,
0303
0000
1000
0000
0100
0010
0100
0010
1100
0000
0101
0000
1010
0000
0100
0001
,
0110
0000
0000
0000
0000
0000
1100
0000
0000
0000
0000
0000
0022
0000
0000
0000
0000
0000
0033
0000
0000
0000
0000
0000
0202
0000
0000
0000
0303
0000
0000
0000
0000
2020
0000
0000
0000
0000
0000
3030
0000
0000
0202
0000
0000
0000
0000
0000
,
0303
1000
0001
1000
0010
1000
0001
1000
,
0100
0000
0000
0010
0000
0000
0001
0000
0000
0010
0000
0000
0100
0000
0000
0000
0000
0000
0000
0000
0000
0000
0000
0000
0202
0000
0000
0000
0303
0000
0000
0000
0000
2020
0000
0000
0000
0000
0000
3030
0000
0000
0202
0000
0000
0000
0000
0000
,
0303
0000
0000
0000
0000
0000
1001
0000
0100
0010
0100
0010
0100
0010
0100
0000
,
1000
0100
0010
0000
1000
0000
0101
0000
0100
0000
0100
0000
0100
0010
0100
0000
,
0100
0000
0000
0000
0000
0000
0000
0000
0100
0000
0000
0000
0010
0000
0000
0000
0100
0000
0000
0000
0000
0000
0000
0000
0200
0300
0000
0000
0020
0030
0000
0000
0002
0003
0000
0000
0000
0000
0000
0000
0100
0000
0000
0000
0000
0000
0000
0000
0100
0000
0000
0000
0010
0000
0000
0000
0100
0000
0000
0000
0000
0000
0000
0000
,
0100
0000
0100
0010
0100
0000
0100
0000
0100
0000
0100
0000
0100
0010
0100
0000
,
1010
1010
0000
0000
2200
0000
3300
0000
1001
0000
1100
0000
0011
0000
0110
0000
,
1001
1010
0101
0011
1100
0110
1100
1001
,
0110
1100
0011
1001
0101
1010
0110
0101
,
1100
0000
0011
0000
0110
0000
1001
0000
0101
0000
0000
1010
0000
0000
0101
0000
,
0000
0000
1000
0001
1000
0001
1000
0000
1001
0000
0000
0110
0000
0000
0101
0000
,
1010
0110
0101
0000
1100
0101
1010
0110
,
0011
0000
1100
0000
1001
0000
0110
0000
1100
0000
0000
0110
0000
0000
1001
0000
,
0110
0000
1100
0000
0011
0000
1100
0000
0101
0000
0000
1010
0000
0000
0101
0000
,
0000
0000
0000
0000
1010
0000
0110
0000
0101
0000
0000
0110
0000
0000
1001
0000
,
0000
0000
0100
0010
0100
1000
0100
0010
0101
0000
0000
1010
0000
0000
0101
0000
,
0000
0000
1001
0000
0110
0000
1001
0000
2200
0000
3300
0022
0000
0033
0000
0000
,
0000
0011
0110
1100
1010
0101
1000
1010
,
0101
0010
1000
0101
1010
0010
0100
0011
,
1100
0000
1000
0100
1000
0100
0010
0001
1010
0000
0101
0000
1000
0000
1010
0000
,
0101
0000
0010
0000
1000
0000
0101
0000
1010
0000
1000
0100
0010
0001
0010
0100
,
1000
0100
0010
0001
0220
0000
0330
0000
1010
0000
0101
0000
1000
0000
1010
0000
,
0101
0010
1000
0101
1010
0010
0100
0011
,
1100
0000
1000
0100
1000
0100
0010
0001
1010
0000
0101
0000
1000
0000
1010
0000
,
0101
0000
0000
0010
0000
0000
1000
0000
0000
0101
0000
0000
1000
0100
0010
0001
0010
0100
1000
0100
0010
0001
0010
0100
,
1000
0000
0100
0000
0010
0000
0001
0000
0010
0000
0100
0000
1000
0000
0000
0001
0000
0000
1000
0000
0000
0001
0000
0000
1100
0000
0000
0000
0000
0000
0000
0000
0000
0101
0000
0000
0000
0000
0000
0000
0000
0000
1010
0000
0000
0000
0000
0000
,
0110
0000
0101
0000
1000
0100
0010
0000
0011
0000
0110
0000
1001
0000
0110
0000
,
1100
0000
0000
0011
0000
0000
1001
0000
0110
0000
0000
1100
0000
0000
0022
0000
,
0000
0000
0033
0000
0101
1010
0100
0010
,
0100
1100
0011
1100
0101
0110
1010
0101
,
1001
0000
0101
1010
0110
1100
0011
0110
,
1001
0110
1100
0011
0110
1001
0000
2001
,
0000
0000
0000
0000
0000
0000
0000
0000
0100
0010
0000
0100
0010
0100
0010
0100
,
0011
0000
0110
0000
0110
0000
3011
0000
1000
0010
0000
1000
0010
1000
0010
1000
,
0010
1000
0000
0100
0001
0100
0001
0100
0001
0100
0000
1000
0010
1000
0010
1000
,
0010
1000
0010
1000
0011
1100
0000
0000
1000
0010
0000
1000
0010
1000
0010
1000
,
0010
1000
0000
0100
0001
0100
0001
0100
0001
0100
0000
1000
0010
1000
0010
1000
,
0010
1000
0010
1000
0011
1100
0000
0000
1000
0010
0000
1000
0010
1000
0010
1000
,
0010
1000
0000
0100
0001
0100
0001
0100
0001
0100
0000
1000
0010
1000
0010
1000
,
0010
1000
0010
1000
0011
1100
0000
0000
1000
0010
0000
1000
0010
1000
0010
1000
,
0010
1000
0000
0100
0001
0100
0001
0100
1000
1000
0011
0000
1000
1000
0110
0000
,
1000
1000
0101
0000
1000
1000
0110
0000
0101
0000
0000
0101
0101
0000
1010
0000
,
0101
0000
0000
0000
0000
0000
0000
0000
1001
0000
0000
0000
1001
0000
0000
0000
0011
0000
0000
0000
0011
0000
0000
0000
1100
0000
0000
0000
0000
1001
0000
1001
,
0000
0000
1010
0000
2200
0000
3300
0000
0101
0000
0000
0101
0101
0000
1010
0000
,
0101
0000
2002
3003
0110
1010
1100
0101
,
0220
0000
0330
0000
2002
0000
3003
0000
0101
0000
0000
0101
0101
0000
1010
0000
,
0101
0000
0000
0000
0000
0000
1000
0100
1000
0100
0010
0100
0010
0000
0100
0010
,
0100
0000
1001
0000
0220
0000
0330
0000
0101
0000
0000
0101
0101
0000
1010
0000
,
0101
0000
1010
0110
1100
0011
0110
1100
,
2001
0000
0000
0000
0020
0000
3030
0000
0202
0000
0303
2020
0000
3030
0202
0000
,
0303
0000
0100
0000
1000
0100
0010
0000
1000
0000
0100
0000
0001
0000
1000
0001
,
1000
0000
0000
0000
0000
0000
0110
0000
0000
0000
0000
0000
2002
0000
0000
0000
3003
0000
0000
0000
0000
0000
0000
0000
0202
0000
0000
0000
0000
0000
0303
0000
0000
2020
0000
0000
0000
0000
0000
3030
0000
0000
0202
0000
0000
0000
0000
0000
,
0303
0000
1000
0000
0100
0010
0100
0010
1100
0000
0101
0000
1010
0000
0100
0001
,
0110
0000
0000
0000
0000
0000
1100
0000
0000
0000
0000
0000
0022
0000
0000
0000
0000
0000
0033
0000
0000
0000
0000
0000
0202
0000
0000
0000
0303
0000
0000
0000
0000
2020
0000
0000
0000
0000
0000
3030
0000
0000
0202
0000
0000
0000
0000
0000
,
0303
1000
0001
1000
0010
1000
0001
1000
,
0100
0000
0000
0010
0000
0000
0001
0000
0000
0010
0000
0000
0100
0000
0000
0000
0000
0000
0000
0000
0000
0000
0000
0000
0202
0000
0000
0000
0303
0000
0000
0000
0000
2020
0000
0000
0000
0000
0000
3030
0000
0000
0202
0000
0000
0000
0000
0000
,
0303
0000
0000
0000
0000
0000
1001
0000
0100
0010
0100
0010
0100
0010
0100
0000
,
1000
0100
0010
0000
1000
0000
0101
0000
0000
0000
1100
0000
0011
0000
0110
0000
,
1001
1010
0101
0011
1100
0110
1100
1001
,
0110
1100
0011
1001
0101
1010
0110
0101
,
1100
0000
0011
0000
0110
0000
1001
0000
0101
0000
0000
1010
0000
0000
0101
0000
,
0000
0000
1000
0001
1000
0001
1000
0000
1001
0000
0000
0110
0000
0000
0101
0000
,
1010
0110
0101
0000
1100
0101
1010
0110
,
0011
0000
1100
0000
1001
0000
0110
0000
1100
0000
0000
0110
0000
0000
1001
0000
,
0110
0000
1100
0000
0011
0000
1100
0000
0101
0000
0000
1010
0000
0000
0101
0000
,
0000
0000
0000
0000
1010
0000
0110
0000
0101
0000
0000
0110
0000
0000
1001
0000
,
0000
0000
0100
0010
0100
1000
0100
0010
0101
0000
0000
1010
0000
0000
0101
0000
,
0000
0000
1001
0000
0110
0000
1001
0000
2200
0000
3300
0022
0000
0033
0110
0000
,
0000
0011
0000
0000
1100
0000
0011
0000
1001
0000
1000
0100
0010
0001
0010
0100
,
1000
0000
1000
0100
0010
0001
0010
0100
1000
0000
1000
0000
0010
1000
0010
0001
,
1000
0000
1000
0000
2020
0000
3030
0000
0101
0000
1000
0100
0010
0001
0010
0100
,
1000
0000
1000
0100
0010
0001
0010
0100
1000
0000
1000
0000
0010
0000
0100
0001
,
2020
0000
3030
0000
0202
0000
0303
0000
1001
0000
0100
0010
0100
0010
0100
0010
,
0100
0000
1000
0100
1000
0100
1000
0100
2020
0000
3030
0000
0202
0000
0303
0000
,
0220
0000
0330
0000
2002
0000
3003
0000
1001
0000
0100
0010
0100
0010
0100
0010
,
0100
0000
1000
0100
1000
0100
1000
0100
1000
0000
1000
0010
0202
0000
0303
0000
,
0220
0000
0330
0000
0202
0000
0303
0000
1001
0000
0100
0010
0100
0010
0100
0010
,
0100
0000
1000
0100
1000
0100
1000
0100
2020
0000
3030
0000
0202
0000
0303
0000
,
0220
0000
0330
0000
2002
0000
3003
0000
1001
0000
0100
0010
0100
0010
0100
0010
,
0100
0000
1000
0100
1000
0100
1000
0100
1000
0000
1000
0010
0202
0000
0303
0000
,
0220
0000
0330
0000
0202
0000
0303
0000
1001
0000
0100
0010
0100
0010
0100
0010
,
0100
0000
1000
0100
1000
0100
1000
0100
2020
0000
3030
0000
0202
0000
0303
0000
,
0220
0000
0330
0000
2002
0000
3003
0000
1001
0000
0100
0010
0100
0010
0100
0010
,
0100
0000
1000
0100
1000
0100
1000
0100
1000
0000
1000
0010
0202
0000
0303
0000
,
0220
0000
0330
0000
0202
0000
0303
0000
0100
1000
0100
0010
0100
0001
0100
1000
,
0010
0001
0010
0100
1000
0100
0010
0001
0010
0100
1000
0001
0010
0100
1000
0100
,
0010
0001
0010
0100
1000
0100
0010
0001
2020
0000
0000
3030
0202
0000
0000
0303
,
2200
0000
0000
3300
0202
0000
0000
0303
0022
0000
0000
0033
2200
0000
0000
3300
,
0202
0000
0000
0303
2200
0000
0000
3300
0100
1000
0100
0010
0100
0001
0100
1000
,
0010
0001
0010
0100
1000
0100
0010
0001
0010
0100
1000
0001
0010
0100
1000
0100
,
0010
0001
0010
0100
1000
0100
0010
0001
2020
0000
0000
3030
0202
0000
0000
0303
,
2200
0000
0000
3300
0202
0000
0000
0303
0022
0000
0000
0033
2200
0000
0000
3300
,
0202
0000
0000
0303
2200
0000
0000
3300
1000
0010
1000
0010
1000
0010
1000
0100
,
0010
0100
0010
0100
0010
0001
0010
0001
1000
0100
1000
0100
1000
0100
1000
0010
,
0001
0010
0001
0010
1000
0100
1000
0100
0010
0100
1000
0100
0010
0001
0010
0100
,
1000
0100
0010
0001
0010
0100
1000
0100
0020
0000
0000
0000
0000
0030
0002
0003
,
0002
0000
0000
0000
0000
0000
0000
0003
0100
1000
0100
0010
0100
0001
0100
1000
,
0010
0001
0010
0100
1000
0100
0010
0001
0010
0100
1000
0001
0010
0100
1000
0100
,
0010
0001
0010
0100
1000
0100
0010
0001
1000
0100
0010
0001
0010
0100
1000
0100
,
0010
0001
0010
0100
1000
0100
0010
0001
0010
0000
1000
0010
0000
1000
0020
0000
,
0200
0000
0000
0330
2002
0000
0000
0000
,
0000
0000
0000
3003
2200
3300
2020
3030
,
0220
0330
0202
0303
0022
0000
0000
0000
,
0000
0000
0000
0000
0033
0000
0022
0033
,
2020
3030
0202
0303
2002
0000
0000
0000
,
0000
0000
0000
3003
2200
3300
2020
3030
,
0220
0330
0202
0303
0022
0000
0000
0000
,
0000
0000
0000
0033
0000
0000
1000
0100
0010
0001
0010
0100
1000
0000
0000
0000
0000
0000
0022
0000
0000
0033
0000
0000
,
2020
3030
0202
0303
0000
0000
2200
3300
,
0202
0000
0303
0000
2020
0000
3030
0000
0202
0000
0303
2020
0000
3030
0202
0000
,
0303
0000
0100
0000
1000
0100
0010
0000
1000
0000
0100
0000
0001
0000
1000
0001
,
1000
0000
0000
0000
0000
0000
0110
0000
0000
0000
0000
0000
2002
0000
0000
0000
3003
0000
0000
0000
0000
0000
0000
0000
0202
0000
0000
0000
0000
0000
0303
0000
0000
2020
0000
0000
0000
0000
0000
3030
0000
0000
0202
0000
0000
0000
0000
0000
,
0303
0000
1000
0000
0100
0010
0100
0010
1100
0000
0101
0000
1010
0000
0100
0001
,
0110
0000
0000
0000
0000
0000
1100
0000
0000
0000
0000
0000
0022
0000
0000
0000
0000
0000
0033
0000
0000
0000
0000
0000
0202
0000
0000
0000
0303
0000
0000
0000
0000
2020
0000
0000
0000
0000
0000
3030
0000
0000
0202
0000
0000
0000
0000
0000
,
0303
1000
0001
1000
0010
1000
0001
1000
,
0100
0000
0000
0010
0000
0000
0001
0000
0000
0010
0000
0000
0100
0000
0000
0000
0000
0000
0000
0000
0000
0000
0000
0000
0202
0000
0000
0000
0303
0000
0000
0000
0000
2020
0000
0000
0000
0000
0000
3030
0000
0000
0202
0000
0000
0000
0000
0000
,
0303
0000
0000
0000
0000
0000
1001
0000
0100
0010
0100
0010
0100
0010
0100
0000
,
1000
0100
0010
0000
1000
0000
0101
0000
0100
0000
0100
0000
0100
0010
0100
0000
,
0100
0000
0000
0000
0000
0000
0000
0000
2000
3000
0000
0000
0200
0300
0000
0000
0020
0030
0000
0000
0002
0003
0000
0000
0020
0030
0000
0000
0000
0000
0000
0000
0100
0000
0000
0000
0000
0000
0000
0000
0100
0000
0000
0000
0000
0000
0000
0000
0100
0000
0000
0000
0010
0000
0000
0000
0100
0000
0000
0000
0000
0000
0000
0000
,
0100
0000
0100
0010
0100
0000
0100
0000
0100
0000
0100
0000
0100
0010
0100
0000
,
1010
1010
0000
0000
2200
0000
3300
0000
1001
0000
1100
0000
0011
0000
0110
0000
,
1001
1010
0101
0011
1100
0110
1100
1001
,
0110
1100
0011
1001
0101
1010
0110
0101
,
1100
0000
0011
0000
0110
0000
1001
0000
0101
0000
0000
1010
0000
0000
0101
0000
,
0000
0000
1000
0001
1000
0001
1000
0000
1001
0000
0000
0110
0000
0000
0101
0000
,
1010
0110
0101
0000
1100
0101
1010
0110
,
0011
0000
1100
0000
1001
0000
0110
0000
1100
0000
0000
0110
0000
0000
1001
0000
,
0110
0000
1100
0000
0011
0000
1100
0000
0101
0000
0000
1010
0000
0000
0101
0000
,
0000
0000
0000
0000
1010
0000
0110
0000
0101
0000
0000
0110
0000
0000
1001
0000
,
0000
0000
0100
0010
0100
1000
0100
0010
0101
0000
0000
1010
0000
0000
0101
0000
,
0000
0000
1001
0000
0110
0000
1001
0000
2200
0000
3300
0022
0000
0033
0110
0000
,
0000
0011
0000
0000
1100
0000
0011
0000
1000
0010
0000
1000
0010
1000
0010
1000
,
0010
1000
0000
0100
0001
0100
0001
0100
0001
0100
0000
1000
0010
1000
0010
1000
,
0010
1000
0010
1000
0011
1100
0000
0000
1000
0010
0000
1000
0010
1000
0010
1000
,
0010
1000
0000
0100
0001
0100
0001
0100
0001
0100
0000
1000
0010
1000
0010
1000
,
1000
1000
0011
0000
1000
1000
0110
0000
1000
0010
0000
1000
0010
1000
0010
1000
,
0010
1000
0000
0100
0001
0100
0001
0100
0001
0100
0000
1000
0010
1000
0010
1000
,
0010
1000
0010
1000
0011
1100
0000
0000
1000
0010
0000
1000
0010
1000
0010
1000
,
0010
1000
0000
0100
0001
0100
0001
0100
1000
1000
0011
0000
1000
1000
0110
0000
,
1000
1000
0101
0000
1000
1000
0110
0000
0202
0000
0303
2020
0000
3030
0002
0000
,
0000
0000
0000
0003
0000
0000
0000
0000
;
