#TITLE:mario mix for piano;
#SUBTITLE:;
#ARTIST:Unknown artist;
#TITLETRANSLIT:;
#SUBTITLETRANSLIT:;
#ARTISTTRANSLIT:;
#CREDIT:;
#BANNER:;
#BACKGROUND:;
#LYRICSPATH:;
#CDTITLE:;
#MUSIC:mario mix for piano.mp3;
#OFFSET:0.000;
#SAMPLESTART:100.000;
#SAMPLELENGTH:12.000;
#SELECTABLE:YES;
#BPMS:0.000=140.000;
#STOPS:;
#BGCHANGES:;
// cache tags:
#FIRSTBEAT:1.500;
#LASTBEAT:289.500;
#SONGFILENAME:Songs/newbie/mario mix for piano/mario mix for piano.sm;
#HASMUSIC:1;
#HASBANNER:0;
#MUSICLENGTH:124.421;
// end cache tags

//---------------dance-single - ----------------
#NOTES:
     dance-single:
     :
     Challenge:
     11:
     0.714,1.000,0.249,0.241,1.000,549.000,31.000,30.000,0.000,11.000:
0000
0000
0000
0000
0000
0000
0020
0000
0000
0000
0000
0030
1000
0000
0001
0000
,
0100
0001
0000
1000
0000
0001
0000
0100
0010
0000
1000
0000
0001
0000
0000
0100
,
0000
0010
0000
0000
0000
1000
0000
0000
0001
0100
0000
0001
0000
1000
0000
0010
,
0000
0100
0000
0001
0010
0100
0000
0000
0010
0000
0000
0001
0000
1000
0000
0001
,
0000
0100
0000
0000
0000
0001
0000
0000
0000
1000
0000
0001
0000
0100
0000
0001
,
0100
0000
0001
0000
0000
0100
0000
0001
0000
1000
0010
0000
0200
0000
0000
0000
,
0001
0000
0000
0001
0000
0001
0300
0000
0000
0001
0000
1000
0010
0000
0000
0100
,
0000
0001
1000
0000
0100
0000
0010
0000
0001
0000
0100
0000
0000
0100
0000
0100
,
0000
0100
0000
0000
0000
1000
0000
0000
0000
0001
0000
0100
0000
0010
0000
1000
,
0000
0001
0000
0100
0000
0010
0000
1000
0000
0001
0000
0001
0000
0001
0000
0001
,
0000
0002
0000
0000
0000
0003
0000
2000
0000
0000
0000
0000
3001
0000
0200
0000
,
0001
0000
0000
0001
0001
0000
0000
0001
0000
0010
0000
0310
0000
1000
0000
0010
,
0020
0000
0000
0030
0000
1000
0001
0100
,
0001
1000
0000
0100
0000
0000
0000
0010
0001
1000
0000
0100
0000
0100
0000
1000
,
0000
0001
0000
0100
0000
0001
0000
0100
0001
0000
1000
0000
0010
0000
0100
0000
,
0000
0001
0000
1000
0010
0000
0000
0100
0000
0001
0000
1000
0000
0010
0000
0100
,
0000
0001
1000
0000
0000
0100
0000
0010
0001
0000
1000
0000
0000
0001
0000
0001
,
1000
0000
1000
0000
1000
0000
0010
0000
0100
0000
0100
0001
0000
0100
0010
0000
,
1000
0000
0001
0000
0100
0000
0000
0010
1000
0001
0000
0100
0000
0010
0000
1000
,
0000
0001
0000
0100
0000
0010
0000
1000
0001
0110
0000
0000
0100
0000
1000
0000
,
0001
0000
0000
0100
0000
0001
0000
0000
0000
0100
0000
0001
0000
1000
0000
0001
,
0000
0100
0001
0000
0000
1000
0010
0000
0000
0100
0000
0001
0000
1000
0000
0100
,
0000
0010
0000
0001
0000
0010
0000
0100
0000
0100
0000
0100
0000
1000
0001
0000
,
0100
0000
0001
0000
0100
0000
0001
0000
0100
0000
0010
0000
0000
1000
0000
0001
,
0100
0000
0000
0010
0000
1000
0000
0001
0000
0100
0010
0000
1000
0000
0001
0000
,
0100
0000
0010
0000
1000
0000
0000
0000
0000
0010
0000
0000
0000
0100
0000
0001
,
2000
0000
0000
0000
0000
0001
0000
0001
0000
0000
3001
0000
0100
0000
0001
0000
,
0200
0000
0000
0000
0010
0000
0000
0010
0000
0010
0000
0000
0000
0302
0000
0000
,
0000
2003
0000
0000
0002
3000
0000
0000
0200
0003
0000
0000
0002
0300
0000
0000
,
0003
0200
0000
0000
0000
0320
0000
0000
0030
1000
0020
0000
0000
1030
0000
0010
,
0000
1000
0000
0020
0000
1030
0000
0010
0000
0100
0000
0001
0000
0100
0000
0001
,
0000
0100
0000
0001
0000
0100
0000
0001
0000
0100
0000
0001
0100
0000
0001
0000
,
0000
0100
0001
0000
0100
0000
0000
0000
0001
0000
1000
0000
0001
0000
0100
0000
,
0000
0010
0000
0100
0000
0010
0000
0100
0000
0010
0000
0100
0010
0000
0100
0000
,
0010
0000
0100
0000
0010
1000
0000
0010
0000
0101
0000
1000
0000
0010
0000
0100
,
0000
0001
0000
0010
0100
0000
0010
0000
0001
0000
1000
0000
0100
0000
0100
0000
,
0100
0000
1000
0000
0001
0000
0000
0000
0000
0100
0000
0001
0000
1000
0000
0001
,
0000
0010
0000
0001
0000
1000
0000
0010
0000
0100
0000
0001
0000
0100
0000
0010
,
0000
1000
0000
0001
0000
0100
0000
0001
0000
0100
0000
0001
0000
1000
0000
0010
,
0000
0010
0000
0100
0000
0001
0000
1000
0000
0010
0000
0100
0000
0010
0000
0010
,
0000
0010
0000
0000
0000
1000
0000
0000
0000
1000
0000
0001
0000
0100
0000
0001
,
0100
0000
0001
0000
1000
0000
0000
0000
0001
0100
0001
0000
1000
0000
0000
0001
,
0000
0100
0000
0010
0000
0010
0000
1000
0000
0010
0100
0000
0000
0010
0000
1000
,
0000
0001
0000
0100
0000
0010
0000
1000
0000
0001
0000
0010
0000
0100
0000
0010
,
0000
0001
0000
1000
0000
0010
0000
0100
0000
0010
0111
0110
0110
1000
0001
0001
,
0000
0101
0000
0000
0000
0000
0011
0000
0111
0000
0101
0000
0001
0011
0000
0011
,
0001
0010
0000
0011
0000
0101
0000
0001
0000
0111
0100
0111
0001
0101
0010
0111
,
0000
0121
0032
0103
0000
0001
0100
0001
1210
0302
0103
0001
0001
0000
0021
0031
,
1001
2000
3010
0111
0001
0110
0100
0100
0010
0000
0100
0111
0000
0000
0020
0030
,
1010
1010
1100
1111
0101
0101
0001
0111
0000
0000
0000
0000
1000
0000
0000
0020
,
0000
0000
0000
0000
0030
0200
0000
0000
0000
0000
0300
0001
0000
1000
0000
0001
,
0000
0100
0010
0000
0000
1000
0000
0001
0100
0000
0000
0010
0000
0100
0000
0001
,
0000
1000
0000
0000
0000
0200
0000
0000
0000
0310
0000
0001
0000
1000
0000
0100
,
0000
0010
0000
0001
1000
0000
0000
0100
0000
0010
0000
0001
1000
0000
0100
0000
,
0000
0010
0001
0000
1000
0000
0001
0000
0100
0000
0010
0000
1000
0000
0001
0000
,
0000
0100
0000
0010
0000
1000
0000
0001
0000
0100
0000
0010
0000
1000
0000
0001
,
0000
0100
0000
0010
0000
1000
0000
0001
0000
0100
0000
0010
0000
1000
0000
0001
,
0000
0100
0000
0010
0000
1000
0000
0001
0000
0010
0100
0000
0000
1000
0000
0001
,
0000
0100
0000
0001
0000
0100
0000
0010
0000
0010
0000
0000
0000
0000
0000
0000
,
0000
0010
0000
0100
0000
0010
0000
0100
0000
0010
0000
1000
0000
0100
0000
1000
,
0000
0100
1000
0000
0100
0000
0010
0000
0001
0000
0010
0000
0100
0000
1000
0000
,
0100
0000
0000
1000
0000
0001
0000
0100
0001
0000
0100
0000
0001
0000
1000
0000
,
0001
0000
0000
0100
0000
0010
0000
1000
0000
0001
0000
0100
0000
0010
0000
1000
,
0000
0001
0000
0100
0000
0010
0000
1000
0000
0001
0000
0010
0000
0001
0000
1000
,
0000
0001
0000
1000
0000
0001
0000
0100
0000
0010
0000
1000
0000
0001
0000
0100
,
0000
0010
0000
1000
0001
0000
0000
0010
0000
0100
0000
0010
0000
0001
0000
0010
,
0000
0001
0010
0100
0010
1000
0010
0001
,
0010
0100
0000
0000
1000
0010
0000
0001
0000
0010
0000
0100
0000
1000
0010
0000
,
0001
0000
0000
0100
0000
0010
1000
0000
1000
0000
0001
0000
0000
0100
0010
0000
,
0000
1000
0000
0001
0000
0100
0000
0010
0000
1000
0000
0100
0010
0000
0000
0001
,
0000
0010
0000
1000
0000
0010
0000
0001
0000
0010
0000
0100
0000
0010
1000
0000
,
0001
0000
0000
0010
0100
0000
0000
0000
2000
0000
0000
0000
0002
3000
0000
0000
,
0200
0003
0000
0000
0000
0000
0300
0000
0000
0000
0000
0000
0000
0000
0000
0000
;
