#TITLE:XRated Chel-C...;
#SUBTITLE:;
#ARTIST:DJ Sharpnel;
#TITLETRANSLIT:;
#SUBTITLETRANSLIT:;
#ARTISTTRANSLIT:;
#CREDIT:;
#BANNER:xrated chel-c bn.png;
#BACKGROUND:xrated chel-c bg.png;
#LYRICSPATH:;
#CDTITLE:;
#MUSIC:XRated Chel-C.ogg;
#OFFSET:-0.041;
#SAMPLESTART:4.730;
#SAMPLELENGTH:23.021;
#SELECTABLE:YES;
#DISPLAYBPM:167.000;
#BPMS:0.000=166.791,242.500=167.500,243.000=169.750,243.500=170.250,244.000=172.500,248.000=5.000;
#STOPS:;
#BGCHANGES:;
// cache tags:
#FIRSTBEAT:13.000;
#LASTBEAT:248.250;
#SONGFILENAME:Songs/SHARPNELSTREAMZ v2/XRated Chel-C/XRated Chel-C.sm;
#HASMUSIC:1;
#HASBANNER:1;
#MUSICLENGTH:94.902;
// end cache tags

//---------------dance-single - 13 (CTalon)----------------
#NOTES:
     dance-single:
     13 (CTalon):
     Challenge:
     13:
     1.000,1.000,0.000,0.032,1.000,915.000,0.000,3.000,2.000,0.000:
0000
0000
0000
0000
,
0000
0000
0000
0000
,
0000
0000
0000
0000
,
0000
0000
1000
1000
0010
0010
0100
0100
,
0001
0010
0100
1000
0001
0100
0010
1000
0010
0100
0010
1000
0001
0010
0001
1000
,
0010
1000
0001
0100
0010
1000
0001
0010
0100
0010
0001
1000
0100
0010
0001
1000
,
0001
0100
0010
1000
0001
1000
0100
0010
0100
1000
0100
0010
0001
1000
0001
0100
,
0010
0100
0001
1000
0001
0010
0100
1000
0100
0010
0100
1000
0001
0100
0010
0100
,
0001
0100
0001
1000
0100
1000
0001
0100
0010
1000
0001
0010
0100
0010
0001
1000
,
0001
0100
0010
1000
0001
1000
0100
0010
0001
0010
0100
0010
0001
1000
0001
0100
,
0010
1000
0001
1000
0100
1000
0001
0100
0010
0100
0001
1000
0001
0010
0001
0010
,
0100
1000
0001
0100
0001
1000
0010
1000
0001
1000
0100
0010
0100
1000
0100
0010
,
0001
1000
0001
0100
0010
1000
0001
0010
0001
1000
0010
0100
0010
1000
0001
1000
,
0100
1000
0001
0100
0001
0100
0010
1000
0001
1000
0001
0010
0100
1000
0100
0010
,
0100
1000
0001
1000
0010
0100
0010
1000
0001
0010
0001
0010
0100
0010
0100
1000
,
0001
1000
0010
0100
0010
1000
0001
1000
0001
0010
0001
1000
0010
1000
0001
1000
,
0100
1000
0001
0010
0100
1000
0001
0010
0001
1000
0010
0100
0010
1000
0001
1000
,
0100
0010
0001
0010
0001
1000
0001
0100
0010
1000
0001
1000
0100
1000
0100
0010
,
0001
0010
0100
1000
0001
0100
0010
1000
0001
0010
0001
0010
0001
1000
0010
0100
,
0010
0100
0001
1000
0001
0010
0100
0010
0001
1000
0001
0100
0001
1000
0010
0100
,
0001
1000
0100
0010
0001
1000
0100
1000
0001
0100
0010
1000
0001
1000
0001
0010
,
0001
0010
0100
1000
0001
0010
0100
1000
0001
0100
0010
0100
0001
1000
0010
1000
,
0001
0010
0100
0010
0001
1000
0001
0100
0010
1000
0010
1000
0001
0010
0100
1000
,
0001
0000
2000
0000
3010
0010
0100
0100
,
0001
0100
0010
1000
0001
0010
0100
1000
0100
0010
0100
1000
0001
0100
0001
1000
,
0100
1000
0001
0010
0100
1000
0001
0100
0010
0100
0001
1000
0010
0100
0001
1000
,
0001
0010
0100
1000
0001
1000
0010
0100
0010
1000
0010
0100
0001
1000
0001
0010
,
0100
0010
0001
1000
0001
0100
0010
1000
0010
0100
0010
1000
0001
0010
0100
0010
,
0001
0010
0001
1000
0010
1000
0001
0010
0100
1000
0001
0100
0010
0100
0001
1000
,
0001
0010
0100
1000
0001
1000
0010
0100
0001
0100
0010
0100
0001
1000
0001
0010
,
0100
1000
0001
1000
0010
1000
0001
0010
0100
0010
0001
1000
0001
0100
0001
0100
,
0010
1000
0001
0010
0001
1000
0100
1000
0001
1000
0010
0100
0010
1000
0010
0100
,
0001
1000
0001
0010
0100
1000
0001
0100
0001
1000
0100
0010
0100
1000
0001
1000
,
0010
1000
0001
0010
0001
0010
0100
1000
0001
1000
0001
0100
0010
1000
0010
0100
,
0010
1000
0001
1000
0100
0010
0100
1000
0001
0100
0001
0100
0010
0100
0010
1000
,
0001
1000
0100
0010
0100
1000
0001
1000
0001
0100
0001
1000
0100
1000
0001
1000
,
0010
1000
0001
0100
0010
1000
0001
0100
0001
1000
0100
0010
0100
1000
0001
1000
,
0010
0100
0001
0100
0001
1000
0001
0010
0100
1000
0001
1000
0010
1000
0010
0100
,
0001
0100
0010
1000
0001
0010
0100
1000
0001
0100
0001
0100
0001
1000
0100
0010
,
0100
0010
0001
1000
0001
0100
0010
0100
0001
1000
0001
0010
0001
1000
0100
0010
,
0001
1000
0010
0100
0001
1000
0010
1000
0001
0010
0100
1000
0001
1000
0001
0100
,
0001
0100
0010
1000
0001
0100
0010
1000
0001
0010
0100
0010
0001
1000
0100
1000
,
0001
0100
0010
0100
0001
1000
0001
0010
0100
1000
0100
1000
0001
0100
0010
1000
,
0001
0000
0020
0000
0130
0100
1000
1000
,
0001
0010
0100
1000
0001
0100
0010
1000
0010
0100
0010
1000
0001
0010
0001
1000
,
0010
1000
0001
0100
0010
1000
0001
0010
0100
0010
0001
1000
0100
0010
0001
1000
,
0001
0100
0010
1000
0001
1000
0100
0010
0100
1000
0100
0010
0001
1000
0001
0100
,
0010
0100
0001
1000
0001
0010
0100
1000
0100
0010
0100
1000
0001
0100
0010
0100
,
0001
0100
0001
1000
0100
1000
0001
0100
0010
1000
0001
0010
0100
0010
0001
1000
,
0001
0100
0010
1000
0001
1000
0100
0010
0001
0010
0100
0010
0001
1000
0001
0100
,
0010
1000
0001
1000
0100
1000
0001
0100
0010
0100
0001
1000
0001
0010
0001
0010
,
0100
1000
0001
0100
0001
1000
0010
1000
0001
1000
0100
0010
0100
1000
0100
0010
,
0001
1000
0001
0100
0010
1000
0001
0010
0001
1000
0010
0100
0010
1000
0001
1000
,
0100
1000
0001
0100
0001
0100
0010
1000
0001
1000
0001
0010
0100
1000
0100
0010
,
0100
1000
0001
1000
0010
0100
0010
1000
0001
0010
0001
0010
0100
0010
0100
1000
,
0001
1000
0010
0100
0010
1000
0001
1000
0001
0010
0001
1000
0010
1000
0001
1000
,
0100
1000
0001
0010
0100
1000
0001
0010
0001
1000
0010
0100
0010
1000
0001
1000
,
0100
0010
0001
0010
0001
1000
0001
0100
0010
1000
0001
1000
0100
1000
0100
0010
,
0001
0010
0100
1000
0001
0100
0010
1000
0001
0010
0001
0010
0001
1000
0010
0100
,
0010
0100
0001
1000
0001
0010
0100
0010
0001
1000
0001
0100
0001
1000
0010
0100
,
0001
1000
0100
0010
0001
1000
0100
1000
0001
0100
0010
1000
0001
1000
0001
0010
,
0001
0010
0100
1000
0001
0010
0100
1000
0001
0100
0010
0100
0001
1000
0010
1000
,
0MM2
0003
0000
0000
0000
0000
0000
0000
0000
0000
0000
0000
0000
0000
0000
0000
;

//---------------dance-single - iunno lol----------------
#NOTES:
     dance-single:
     iunno lol:
     Edit:
     69:
     1.000,1.000,0.000,0.032,1.000,915.000,0.000,3.000,0.000,0.000:
0000
0000
0000
0000
,
0000
0000
0000
0000
,
0000
0000
0000
0000
,
0000
0000
0100
0100
0010
0010
0100
0100
,
0010
0100
0010
0100
0010
0100
0010
0100
0010
0100
0010
0100
0010
0100
0010
0100
,
0010
0100
0010
0100
0010
0100
0010
0100
0010
0100
0010
0100
0010
0100
0010
0100
,
0010
0100
0010
0100
0010
0100
0010
0100
0010
0100
0010
0100
0010
0100
0010
0100
,
0010
0100
0010
0100
0010
0100
0010
0100
0010
0100
0010
0100
0010
0100
0010
0100
,
0010
0100
0010
0100
0010
0100
0010
0100
0010
0100
0010
0100
0010
0100
0010
0100
,
0010
0100
0010
0100
0010
0100
0010
0100
0010
0100
0010
0100
0010
0100
0010
0100
,
0010
0100
0010
0100
0010
0100
0010
0100
0010
0100
0010
0100
0010
0100
0010
0100
,
0010
0100
0010
0100
0010
0100
0010
0100
0010
0100
0010
0100
0010
0100
0010
0100
,
0010
0100
0010
0100
0010
0100
0010
0100
0010
0100
0010
0100
0010
0100
0010
0100
,
0010
0100
0010
0100
0010
0100
0010
0100
0010
0100
0010
0100
0010
0100
0010
0100
,
0010
0100
0010
0100
0010
0100
0010
0100
0010
0100
0010
0100
0010
0100
0010
0100
,
0010
0100
0010
0100
0010
0100
0010
0100
0010
0100
0010
0100
0010
0100
0010
0100
,
0010
0100
0010
0100
0010
0100
0010
0100
0010
0100
0010
0100
0010
0100
0010
0100
,
0010
0100
0010
0100
0010
0100
0010
0100
0010
0100
0010
0100
0010
0100
0010
0100
,
0010
0100
0010
0100
0010
0100
0010
0100
0010
0100
0010
0100
0010
0100
0010
0100
,
0010
0100
0010
0100
0010
0100
0010
0100
0010
0100
0010
0100
0010
0100
0010
0100
,
0010
0100
0010
0100
0010
0100
0010
0100
0010
0100
0010
0100
0010
0100
0010
0100
,
0010
0100
0010
0100
0010
0100
0010
0100
0010
0100
0010
0100
0010
0100
0010
0100
,
0010
0100
0010
0100
0010
0100
0010
0100
0010
0100
0010
0100
0010
0100
0010
0100
,
0010
0000
0200
0000
0310
0010
0100
0100
,
0010
0100
0010
0100
0010
0100
0010
0100
0010
0100
0010
0100
0010
0100
0010
0100
,
0010
0100
0010
0100
0010
0100
0010
0100
0010
0100
0010
0100
0010
0100
0010
0100
,
0010
0100
0010
0100
0010
0100
0010
0100
0010
0100
0010
0100
0010
0100
0010
0100
,
0010
0100
0010
0100
0010
0100
0010
0100
0010
0100
0010
0100
0010
0100
0010
0100
,
0010
0100
0010
0100
0010
0100
0010
0100
0010
0100
0010
0100
0010
0100
0010
0100
,
0010
0100
0010
0100
0010
0100
0010
0100
0010
0100
0010
0100
0010
0100
0010
0100
,
0010
0100
0010
0100
0010
0100
0010
0100
0010
0100
0010
0100
0010
0100
0010
0100
,
0010
0100
0010
0100
0010
0100
0010
0100
0010
0100
0010
0100
0010
0100
0010
0100
,
0010
0100
0010
0100
0010
0100
0010
0100
0010
0100
0010
0100
0010
0100
0010
0100
,
0010
0100
0010
0100
0010
0100
0010
0100
0010
0100
0010
0100
0010
0100
0010
0100
,
0010
0100
0010
0100
0010
0100
0010
0100
0010
0100
0010
0100
0010
0100
0010
0100
,
0010
0100
0010
0100
0010
0100
0010
0100
0010
0100
0010
0100
0010
0100
0010
0100
,
0010
0100
0010
0100
0010
0100
0010
0100
0010
0100
0010
0100
0010
0100
0010
0100
,
0010
0100
0010
0100
0010
0100
0010
0100
0010
0100
0010
0100
0010
0100
0010
0100
,
0010
0100
0010
0100
0010
0100
0010
0100
0010
0100
0010
0100
0010
0100
0010
0100
,
0010
0100
0010
0100
0010
0100
0010
0100
0010
0100
0010
0100
0010
0100
0010
0100
,
0010
0100
0010
0100
0010
0100
0010
0100
0010
0100
0010
0100
0010
0100
0010
0100
,
0010
0100
0010
0100
0010
0100
0010
0100
0010
0100
0010
0100
0010
0100
0010
0100
,
0010
0100
0010
0100
0010
0100
0010
0100
0010
0100
0010
0100
0010
0100
0010
0100
,
0010
0000
0200
0000
0310
0010
0100
0100
,
0010
0100
0010
0100
0010
0100
0010
0100
0010
0100
0010
0100
0010
0100
0010
0100
,
0010
0100
0010
0100
0010
0100
0010
0100
0010
0100
0010
0100
0010
0100
0010
0100
,
0010
0100
0010
0100
0010
0100
0010
0100
0010
0100
0010
0100
0010
0100
0010
0100
,
0010
0100
0010
0100
0010
0100
0010
0100
0010
0100
0010
0100
0010
0100
0010
0100
,
0010
0100
0010
0100
0010
0100
0010
0100
0010
0100
0010
0100
0010
0100
0010
0100
,
0010
0100
0010
0100
0010
0100
0010
0100
0010
0100
0010
0100
0010
0100
0010
0100
,
0010
0100
0010
0100
0010
0100
0010
0100
0010
0100
0010
0100
0010
0100
0010
0100
,
0010
0100
0010
0100
0010
0100
0010
0100
0010
0100
0010
0100
0010
0100
0010
0100
,
0010
0100
0010
0100
0010
0100
0010
0100
0010
0100
0010
0100
0010
0100
0010
0100
,
0010
0100
0010
0100
0010
0100
0010
0100
0010
0100
0010
0100
0010
0100
0010
0100
,
0010
0100
0010
0100
0010
0100
0010
0100
0010
0100
0010
0100
0010
0100
0010
0100
,
0010
0100
0010
0100
0010
0100
0010
0100
0010
0100
0010
0100
0010
0100
0010
0100
,
0010
0100
0010
0100
0010
0100
0010
0100
0010
0100
0010
0100
0010
0100
0010
0100
,
0010
0100
0010
0100
0010
0100
0010
0100
0010
0100
0010
0100
0010
0100
0010
0100
,
0010
0100
0010
0100
0010
0100
0010
0100
0010
0100
0010
0100
0010
0100
0010
0100
,
0010
0100
0010
0100
0010
0100
0010
0100
0010
0100
0010
0100
0010
0100
0010
0100
,
0010
0100
0010
0100
0010
0100
0010
0100
0010
0100
0010
0100
0010
0100
0010
0100
,
0010
0100
0010
0100
0010
0100
0010
0100
0010
0100
0010
0100
0010
0100
0010
0100
,
0020
0030
0000
0000
0000
0000
0000
0000
0000
0000
0000
0000
0000
0000
0000
0000
0000
0000
0000
0000
0000
0000
0000
0000
0000
0000
0000
0000
0000
0000
0000
0000
;
