#TITLE:Love To Hate;
#SUBTITLE:;
#ARTIST:m1dlet;
#TITLETRANSLIT:;
#SUBTITLETRANSLIT:;
#ARTISTTRANSLIT:;
#CREDIT:Aoreo;
#BANNER:Bn-Love.png;
#BACKGROUND:Bg-Love.png;
#LYRICSPATH:;
#CDTITLE:;
#MUSIC:m1dlet - Love To Hate.ogg;
#OFFSET:0.008;
#SAMPLESTART:61.440;
#SAMPLELENGTH:12.000;
#SELECTABLE:YES;
#BPMS:0.000=250.000;
#STOPS:;
#BGCHANGES:;
// cache tags:
#FIRSTBEAT:32.000;
#LASTBEAT:570.500;
#SONGFILENAME:Songs/SPEEEDCOOOORE/Love To Hate - [Aoreo]/Love To Hate.sm;
#HASMUSIC:1;
#HASBANNER:1;
#MUSICLENGTH:137.369;
// end cache tags

//---------------dance-single - J. Nero----------------
#NOTES:
     dance-single:
     J. Nero:
     Challenge:
     13:
     1.000,1.000,0.255,0.022,0.324,924.000,35.000,3.000,0.000,6.000:

0000
0000
0000
0000
,
0000
0000
0000
0000
,
0000
0000
0000
0000
,
0000
0000
0000
0000
,
0000
0000
0000
0000
,
0000
0000
0000
0000
,
0000
0000
0000
0000
,
0000
0000
0000
0000
,
1001
1000
0100
0010
,
0100
0000
1000
0000
0010
0000
0100
0001
,
0100
0001
0010
0100
,
1000
0000
0010
0000
0100
0000
0001
0010
,
0100
1000
0010
0100
,
0001
0000
1000
0000
0100
0000
1000
0010
,
0100
0000
0001
0100
0001
0000
0100
0000
0010
0000
1000
0010
1000
0000
0010
0000
,
0100
0000
0010
0000
0100
0000
0001
0000
0100
0001
0100
0000
0010
0000
1000
0000
,
0001
1000
0001
0000
1000
0000
0100
0000
0010
0000
0100
0000
1000
0000
0010
0000
,
0100
0001
1000
0010
0100
0001
0010
0100
,
0010
0001
1000
0010
0100
0001
1000
0100
,
0010
0000
0001
0000
1000
0000
0010
0000
0100
0000
0001
0100
0001
0000
1000
0010
,
1000
0010
0100
0001
1000
0010
0100
0001
,
1000
0000
0010
0000
0100
0000
0001
0000
1000
0000
0010
0000
1000
0001
1000
0001
,
1000
0000
0001
0000
0010
0000
0100
0000
1000
0000
0010
0000
0100
0000
0001
1000
,
0001
0000
0000
1000
0000
0000
0010
0000
0100
0000
0000
0000
0100
0000
0000
0000
,
0001
1000
0001
0000
1000
0000
0100
0000
0010
0000
0001
0000
0100
0000
0010
0000
,
1000
0000
0001
0000
0010
0000
0100
0000
1000
0000
0010
0000
0100
0001
0100
0001
,
0100
0001
0010
0100
1000
0010
0100
0001
,
0010
0100
0010
0001
0011
0000
0101
0000
,
0100
0010
0100
0000
0010
0000
1000
0000
0010
0000
0100
0000
0001
0000
0010
0000
,
0100
0010
0001
1000
0010
0100
0001
1000
,
0010
0000
0100
0001
0100
0000
0001
0000
0010
0000
0100
1000
0100
0000
1000
0000
,
0001
1000
0001
1000
0001
1000
0001
1000
0001
0100
0001
0100
0001
0100
0001
0100
,
0001
0000
0010
0000
,
0100
0000
1000
0000
,
0010
0000
0100
0000
0001
0000
0010
0100
,
0000
1000
0010
1010
,
0101
0000
0000
0000
0100
0000
0001
1000
,
0000
0000
0001
0000
,
0010
0000
0100
0000
1000
0000
0010
0100
,
0000
0000
0000
0000
0001
0000
0000
0000
1000
0001
1000
0001
1000
0001
1000
0001
,
1000
0000
0000
0000
0001
0000
0000
0000
0100
0000
0010
0000
1000
0000
0001
1000
,
0001
0010
0100
0000
1000
0010
0100
0001
,
0100
0000
0000
0000
0001
0000
0000
0000
1000
0000
0100
1000
0100
0000
0010
0000
,
0001
0000
0100
0000
0010
0000
0000
0000
0100
0000
0001
0100
0001
0000
1000
0000
,
1010
1000
0010
1000
,
1100
0100
0010
0001
,
1001
0000
0001
1000
0001
0000
0100
0000
0010
0000
0100
0001
0100
0000
0010
0000
,
1000
0000
0001
1000
0010
0000
0100
0001
,
1000
0001
1000
0000
0001
0000
0010
0000
0100
0000
0010
0000
0001
0000
1000
0000
,
0010
0100
0001
0100
0010
1000
0100
0010
,
0001
0100
0010
1000
0100
0010
0100
1000
,
0010
0000
0100
0000
0001
0000
0100
0000
0010
0000
1000
0010
1000
0000
0010
0100
,
0010
0100
0001
0100
0010
1000
0001
0010
,
0100
0000
1000
0000
0010
0000
0100
0000
0001
0000
0100
0000
0010
1000
0010
1000
,
0010
1000
0100
0010
0100
1000
0001
0100
,
0010
0100
0001
1000
0100
0000
0100
0000
,
1000
0010
0100
0001
0010
0100
1000
0010
,
0100
0010
1000
0001
0010
0100
1000
0010
,
0100
0001
0100
0010
1000
0001
0100
0001
,
0100
0010
1000
0100
1000
0000
1000
0000
,
0010
0100
0001
1000
0010
0100
0001
1000
,
0100
0010
0100
1000
0010
0100
0001
0100
,
0010
0000
1000
0010
1000
0000
0010
0000
0100
0000
0001
0100
0001
0000
0010
0000
,
0100
0000
1000
0001
0100
0000
0010
0000
,
0110
0000
0100
0001
0000
0001
0010
0000
,
0100
0000
1000
0000
0010
0100
0001
0010
,
0100
0000
1000
0100
0000
0100
0010
0000
,
0001
0000
0100
0000
0010
1000
0001
0010
,
0100
0000
1000
0100
0000
0100
1000
0000
,
0010
0000
0100
0000
0001
0010
0100
0010
,
0001
0000
0000
0000
0100
0000
0010
0000
0000
0000
0010
0000
1000
0000
0010
1000
,
0010
0000
0000
0100
0000
0000
0001
0000
1000
0000
0000
0000
0001
0000
0010
0000
,
0001
0000
0010
0100
0000
0100
1000
0000
,
0100
0000
0010
0000
0001
0100
0010
1000
,
0001
0000
1000
0100
0000
0100
0010
0000
,
0100
0000
1000
0000
0001
0010
0100
0010
,
0001
0000
0100
0010
0000
0010
1000
0000
,
0001
0000
1000
0000
0010
0100
0010
1000
,
0100
0000
0010
0001
0010
0000
0001
0000
0100
0000
0010
1000
0010
0000
1000
0001
,
1000
0000
0000
0001
0000
0000
0100
0000
0010
0000
0000
0000
1000
0000
0000
0000
,
0001
1000
0001
1000
0001
0000
0010
0000
0100
0000
1000
0000
0010
0000
0100
0000
,
0001
0000
1000
0000
0100
0000
0010
0000
0100
0000
1000
0001
1000
0000
0001
0100
,
0001
0100
0010
1000
0100
0010
0100
0000
,
0100
0000
1000
0000
0010
0000
0100
0000
0001
0000
1000
0000
0001
0100
0001
0100
,
0001
1000
0100
0010
0100
1000
0001
0100
,
0010
0000
1000
0000
0001
0000
0000
0000
1000
0000
0000
0000
1000
0000
0100
1000
,
0100
1000
0100
0010
0100
1000
0010
0100
,
0001
0000
0100
0001
0100
0000
0010
1000
0010
0000
1000
0100
1000
0000
0100
0010
,
0100
0010
0001
0100
0010
1000
0001
0010
,
0100
1000
0001
0100
0001
0100
0010
1000
,
0001
0010
0100
1000
0100
0010
0001
1000
,
0010
0100
0001
0100
0010
1000
0100
0010
,
0011
0001
0101
0100
,
1010
1000
1100
0100
,
0110
0000
0000
0000
0010
0000
0000
0000
0011
0000
0000
0000
0001
0000
0010
0001
,
0010
0000
0000
0100
0000
0000
1000
0000
0010
0000
0000
0000
1000
0000
0100
0000
,
1100
1000
1001
0001
,
0011
0010
0110
0100
,
1001
0001
0110
0100
,
1010
0010
0101
0000
,
1010
1000
1100
0100
,
0110
0010
0011
0001
,
1000
0000
0001
0000
0100
0000
0010
0000
1000
0000
0000
0000
0001
0000
1000
0001
,
1000
0000
0000
0001
0000
0000
0010
0000
0100
0000
0000
0000
1000
0000
0000
0000
,
0010
0100
0001
0001
1000
0100
1000
1000
,
0010
0100
0001
0001
0020
0000
0000
0000
,
0000
0000
0000
0000
,
0000
0000
0000
0000
0100
0000
0100
0030
,
1000
0010
1000
0010
1000
0000
0010
0000
0100
0000
0001
0000
0010
0000
0100
0000
,
1000
0010
0100
0001
0010
0100
0010
0001
,
1000
0010
0100
0001
0010
0100
1000
0010
,
0100
0000
0001
0000
1000
0000
0100
0000
0010
0000
0100
1000
0100
0000
1000
0001
,
1000
0001
0100
0010
1000
0100
0010
0100
,
1000
0000
0001
0000
0100
0000
0010
0000
0100
0000
0001
0000
0100
0001
0100
0001
,
0100
0010
1000
0100
1000
0001
0100
0010
,
0100
0001
1000
0010
0100
0000
0100
0000
,
0001
0010
0100
1000
0010
1000
0001
0010
,
0100
0010
0001
0100
0010
1000
0100
0010
,
0100
1000
0001
0100
0010
1000
0001
0010
,
0100
1000
0001
0100
0010
0000
0010
0000
,
0100
0001
1000
0100
0010
0100
1000
0001
,
0100
0010
1000
0010
0100
0001
0010
0100
,
1000
0001
1000
0001
1000
0001
1000
0001
1000
0001
1000
0001
1000
0001
1000
0001
,
4000
0004
0000
0000
0000
0000
0000
0000
0000
0000
0000
0000
3003
0000
0000
0000
,
0100
0001
0100
0001
0100
0001
0100
0001
0100
0000
0001
0000
0100
0000
0010
0000
,
1000
0000
0001
0000
0010
0000
0100
0000
1000
0001
1000
0001
1000
0001
1000
0001
,
1000
0010
0100
0001
1000
0100
0010
0001
,
1000
0000
0100
0000
0010
0000
0100
0000
1000
0000
0010
0000
0100
0001
0100
0001
,
0100
0001
1000
0100
0010
0100
1000
0010
,
0100
0001
1000
0010
0100
0000
0100
0000
,
0001
0010
0100
0010
0001
1000
0010
1000
,
0001
0000
0100
0001
0100
0000
0001
1000
0001
0000
1000
0100
1000
0000
0001
1000
,
0001
0100
0001
0010
0001
1000
0010
0100
,
0001
1000
0010
0100
0001
1000
0100
0010
,
0100
1000
0010
0100
0001
1000
0100
0010
,
0100
1000
0001
0100
0010
1000
0001
1000
,
1100
0000
0100
1000
0000
1000
0010
0000
,
0111
0000
0100
0001
0000
0001
1000
0000
,
1101
0000
1111
0000
,
1111
0000
1111
0000
,
2112
0000
0000
0000
,
0000
0000
0000
0000
,
0000
0000
0000
0000
0000
3003
0000
0000
;
