#TITLE:Through the Fire and Flames;
#SUBTITLE:Inhuman Rampage;
#ARTIST:Dragonforce;
#TITLETRANSLIT:;
#SUBTITLETRANSLIT:;
#ARTISTTRANSLIT:;
#CREDIT:;
#BANNER:Through-the-Fire-and-Flames.png;
#BACKGROUND:Through the Fire and Flames-bg.png;
#LYRICSPATH:;
#CDTITLE:!asshat-cdtitle.png;
#MUSIC:Through the Fire and Flames.mp3;
#OFFSET:0.000;
#SAMPLESTART:91.140;
#SAMPLELENGTH:22.400;
#SELECTABLE:YES;
#BPMS:0.000=100.000,32.000=200.000,96.000=100.000,112.000=200.000,680.000=800.000,712.000=100.000,724.000=400.000,728.000=100.000,740.000=400.000,744.000=170.000,872.000=200.000,1136.000=100.000,1168.000=200.000,1288.000=100.000,1300.000=200.000;
#STOPS:724.000=1.800
,740.000=3.040
;
#BGCHANGES:;
// cache tags:
#FIRSTBEAT:0.000;
#LASTBEAT:1330.000;
#SONGFILENAME:Songs/CMDKDF Pack/Through the Fire and Flames (Asshat)/Through the Fire and Flames.sm;
#HASMUSIC:1;
#HASBANNER:1;
#MUSICLENGTH:440.528;
// end cache tags

//---------------dance-single - Asshat Steps----------------
#NOTES:
     dance-single:
     Asshat Steps:
     Challenge:
     13:
     1.000,1.000,0.951,0.733,1.000,3810.000,419.000,323.000,0.000,4.000:





1000
0000
0100
0000
0010
0000
1000
0000
0100
0000
0010
0000
0001
0000
0010
0000
0001
0000
0010
0000
0100
0000
1000
0000
0100
0000
0010
0000
0001
0010
0100
1000
,
0001
0010
0100
0001
0010
0100
1000
0100
1000
0100
0010
0001
0010
0100
1000
0001
,
2100
0010
0001
0010
0100
0010
0001
0010
0100
0010
0001
0100
0001
0100
3010
0100
,
1001
0100
0010
0001
0010
0100
1000
0100
0012
0100
1000
0010
0100
1000
0103
0010
,
0001
0000
0010
0000
0100
0000
0001
0000
0010
0000
0100
0000
1000
0000
0100
0000
1000
0000
0100
0000
0010
0000
0001
0000
0010
0000
0100
0000
1000
0100
0010
0001
,
1000
0100
0010
1000
0100
0010
0001
0010
0001
0010
0100
1000
0100
0010
0001
1000
,
0002
0010
0100
1000
0010
0100
1000
0100
0010
0100
1000
0010
1000
0010
0103
0010
,
1001
0010
0100
1000
0100
0010
0001
0010
1001
0000
0110
0000
1001
0000
0000
0000
,
1001
0100
1000
0100
1000
0100
1001
0100
1000
0100
1000
0100
1001
0100
1000
0100
,
1001
0100
1000
0100
1000
0100
1001
0100
1000
0100
1000
0100
1001
0100
1000
0100
,
1010
0100
0010
0100
0010
0100
1010
0100
0010
0100
0010
0100
1010
0100
0010
0100
,
1010
0100
0010
0100
0010
0100
1010
0100
0010
0100
0010
0100
1010
0100
0010
0100
,
1001
0010
0001
0010
0001
0010
1001
0010
0001
0010
0001
0010
1001
0010
0001
0010
,
1001
0010
0001
0010
0001
0010
1001
0010
0001
0010
0001
0010
1001
0010
0001
0010
,
0101
0010
0001
0010
0001
0010
0101
0010
0001
0010
0001
0010
0101
0010
0001
0010
,
0001
1000
0100
0010
0100
0010
1000
0001
1100
0000
0110
0000
0022
0000
0033
0000
,
1001
0010
0001
0010
0001
0010
1001
0010
0001
0010
0001
0010
1001
0010
0001
0010
,
1001
0010
0001
0010
0001
0010
1001
0010
0001
0010
0001
0010
1001
0010
0001
0010
,
0101
0010
0100
0010
0100
0010
0101
0010
0100
0010
0100
0010
0101
0010
0100
0010
,
0101
0010
0100
0010
0100
0010
0101
0010
0100
0010
0100
0010
0101
0010
0100
0010
,
1001
0100
1000
0100
1000
0100
1001
0100
1000
0100
1000
0100
1001
0100
1000
0100
,
1001
0100
1000
0100
1000
0100
1001
0100
1000
0100
1000
0100
1001
0100
1000
0100
,
1010
0100
1000
0100
1000
0100
1010
0100
1000
0100
1000
0100
1010
0100
1000
0100
,
2000
0000
0010
0010
0010
0010
0010
0010
0010
0010
0010
0010
0010
0010
0010
3010
,
1010
1010
1010
0101
0101
0101
1010
1010
1010
1010
1010
0101
0101
0101
1010
1010
,
0011
0011
0011
1010
1010
1010
0011
0011
0011
0011
0011
1010
1010
1010
0011
0011
,
0101
0101
0101
0110
0110
0110
0101
0101
0101
0101
0101
0110
0110
0110
0101
0101
,
0001
0010
0100
0000
0001
0010
0100
0000
0001
0010
0100
0000
0000
0000
0010
0000
0001
0010
0100
1000
0100
0010
0001
0010
0100
1000
0100
0010
0001
0010
0100
1000
,
0001
0010
0100
0010
0001
0100
0010
1000
0010
0100
0001
0010
0100
0010
0001
1000
,
0010
0100
0001
0010
0100
0010
0001
1000
0010
0100
0001
0010
0002
0000
0003
0000
,
1000
0010
0100
0010
0001
1000
0100
1000
0001
1000
0100
1000
0010
0100
0001
1000
,
0100
1000
0010
1000
0100
0010
0100
1000
0100
0010
0100
1000
0001
0100
0010
1000
,
0001
0000
1000
0001
1000
0001
2002
0000
0000
0000
3003
0000
1001
0000
0000
0000
,
0100
0000
0010
0100
0010
0100
0220
0000
0330
0000
0110
0000
1000
0000
0100
0000
,
0001
1000
0100
0001
0100
1000
0010
0001
,
1000
0200
0300
1000
0100
0001
0010
0001
,
0001
0010
0100
0010
0001
1000
0010
0100
0010
1000
0001
1000
0010
0100
0001
0010
,
0100
0010
0100
1000
0100
0010
0001
0100
0001
0010
0001
1000
0020
0030
0100
0001
,
0100
0010
1000
0100
0010
0001
1000
0010
0100
0010
1000
0100
0010
0001
1000
0001
,
0100
0010
1000
0001
0100
0010
1000
0100
0010
0001
1000
0100
0010
0001
1000
0001
,
0100
0000
1000
0100
1000
0000
0001
0000
0100
0000
0010
0000
1000
0000
0100
0000
,
0010
0000
0001
1000
0010
0000
1000
0000
0100
0000
1000
0000
0100
0000
0001
0000
,
1000
0010
0100
0001
1000
0010
1000
0100
0010
0001
1000
0100
1000
0010
0100
0001
,
1001
0000
0000
1001
0000
0000
0000
1001
0000
0000
0000
1001
0000
0000
1001
0000
,
1000
0100
1000
0100
1000
0100
0010
0001
0010
0001
0010
0001
0100
1000
0100
1000
,
0010
0100
0010
0100
0010
0100
0001
1000
0001
1000
0001
1000
0010
0100
0010
0100
,
0001
0010
0001
0010
0001
0010
0100
1000
0100
1000
0100
1000
0001
0010
0001
0010
,
0001
1000
0100
0001
0010
1000
0100
0001
0100
0001
0010
1000
0001
0010
1000
0010
,
0001
1000
0001
1000
0001
1000
0100
0010
0100
0010
0100
0010
0001
1000
0001
1000
,
0100
0001
0100
0001
0100
0001
1000
0010
1000
0010
1000
0010
0100
0001
0100
0001
,
0100
0000
1100
0110
0011
0101
1010
1100
,
2000
3002
0203
0320
,
1030
0000
0001
0000
0100
0010
0100
0000
1000
0000
0100
0000
0001
1000
0001
0000
,
0100
0000
0010
0000
0001
0010
0001
0000
0010
0000
0100
0000
1000
0100
1000
0000
,
0100
0000
1000
0000
0010
1000
0010
0000
1000
0000
0010
0000
0100
0001
0100
0000
,
0010
0000
1000
0000
0100
1000
0100
0000
0010
0000
0001
0000
0010
0001
0010
0000
,
0100
0000
1000
0000
0100
0010
0001
0000
1000
0000
0010
0000
0100
0010
1000
0000
,
0001
0000
0100
0000
0100
1000
0001
0000
1000
0000
0010
0000
1000
0001
1000
0000
,
0010
0000
0001
0000
1000
0010
0100
0000
0010
0000
0100
0000
0010
1000
0001
0000
,
1000
0010
1000
0010
1000
0010
1000
0010
0100
0001
0100
0001
0100
0001
0100
0001
,
0100
0000
0010
0000
0001
0010
0001
0000
0100
0000
1000
0000
0100
1000
0100
0000
,
0001
0000
0010
0000
0001
0100
1000
0000
0010
0000
0100
0000
0001
0100
0010
0000
,
1000
0000
0001
0000
0100
0010
1000
0000
0010
0000
0100
0000
0010
1000
0010
0000
,
0100
0000
1000
0000
0010
0100
0001
0000
0100
0000
0001
0000
0100
0010
1000
0000
,
0010
0100
0001
0010
0100
1000
0001
0100
0010
0100
0001
0010
0100
1000
0001
1000
,
0010
0100
0001
1000
0010
0100
0001
0010
0100
1000
0001
0010
0100
1000
0001
1000
,
0100
0010
0001
0100
0001
1000
0010
1000
0100
0010
1000
0100
0001
1000
0100
0001
,
2002
0000
0000
0000
0000
0000
0000
3003
,
0010
0000
1000
0000
0010
0001
0100
0000
1000
0000
0001
0000
0010
0001
1000
0000
,
0001
0000
0010
0000
0001
0100
1000
0000
0010
0000
0100
0000
0001
0100
0010
0000
,
1000
0000
0100
0000
1000
0010
0001
0000
0100
0000
0010
0000
1000
0010
0100
0000
,
0001
0000
0010
0000
0001
0100
1000
0000
0010
0000
0100
0000
0001
0100
0010
0000
,
0100
0010
0001
0100
0010
1000
0001
0010
0100
0010
0001
1000
0010
0100
0010
1000
,
0001
0100
0010
0100
0001
1000
0100
1000
0010
1000
0001
0100
0001
0010
0100
0010
,
0001
1000
0010
0100
0010
1000
0001
0010
0100
1000
0010
0100
0010
0100
0001
1000
,
0010
0100
0001
0010
0100
1000
0001
0100
0010
0100
0001
0010
0100
1000
0001
1000
,
0010
0000
0001
0000
0010
1000
0100
0000
0001
0000
1000
0000
0010
1000
0001
0000
,
0100
0000
0001
0000
0010
1000
0100
0000
0001
0000
1000
0000
0010
1000
0001
0000
,
0100
0000
1000
0000
0100
0010
0001
0000
1000
0000
0010
0000
0100
0010
1000
0000
,
0001
0000
0100
0000
0001
1000
0010
0000
0100
0000
1000
0000
0001
1000
0100
0000
,
0001
0010
0100
1000
0100
0010
0001
0010
0100
1000
0100
0010
0001
0010
0100
1000
,
0110
0000
0000
0000
,
1001
2002
3003
1000
0100
0010
0001
0100
,
1001
2002
3003
0010
0100
0001
0220
0330
,
1001
0000
2002
0000
3003
0000
0100
0100
0010
0010
0100
0100
0001
0001
0100
0100
,
0010
1000
0100
2002
0000
0000
0000
3003
,
1000
0100
0010
0002
0003
1000
0010
0100
,
0001
0000
0100
0000
0010
0000
2000
0000
3000
0000
1000
0000
1000
0100
0010
0000
,
0100
0100
0010
0100
0100
0010
0100
0010
,
0001
0010
0100
1000
0001
0010
0100
1000
0001
0010
0100
1000
0001
0010
0100
0000
,
1001
0000
2002
0000
3003
0000
1000
1000
0100
0100
1000
1000
0010
0010
0001
0001
,
1001
2002
3003
1000
0100
0010
2002
3003
,
1000
0100
1000
0100
1000
0100
0010
0001
0010
0001
0010
0001
0100
0001
0100
0001
,
1000
0100
0010
2002
0000
0000
0000
3003
,
1001
0000
2002
0000
3003
0000
1000
0001
1000
0000
1000
0000
0100
0000
0010
0000
,
1001
0000
2002
0000
3003
0000
0001
1000
0001
0000
0100
0000
0220
0000
0330
0000
,
1000
0010
1000
0010
1000
0010
1000
0100
1000
0010
1000
0100
1000
0010
1000
0010
,
0101
0101
0101
0000
2002
0000
3003
0000
0022
0000
0033
2200
3300
0000
0220
0330
,
1001
0000
0000
0000
,
0000
0000
0000
0000
,
0001
0001
1010
0100
0001
0010
0011
0100
,
1000
0100
0110
0100
0010
0100
0011
0001
,
1000
0010
0110
1000
0100
0001
1100
0001
,
0100
1000
0101
0010
0100
0001
0110
0001
,
0010
1000
0101
0010
0100
1000
1010
1000
,
0010
0001
0010
0100
1000
0100
0010
0001
0010
0100
1000
0100
0010
0001
0010
0100
,
1000
0100
0010
0001
0010
0100
1000
0100
0010
0001
0010
0100
1000
0100
0010
0001
0010
0100
1000
0100
0010
0001
0010
0100
,
2002
0000
0000
0000
0000
0000
0000
3003
,
0100
0001
1000
0001
0100
0001
0100
0010
1000
0100
0010
0001
0010
0001
0100
0001
,
1000
0010
0100
0001
0010
0100
1000
0100
0010
0100
1000
0010
0100
0001
0100
0001
,
0010
0100
1000
0100
0010
0100
0010
0001
0010
0001
0100
0001
0100
0010
1000
0100
,
0010
0001
0100
0001
1000
0100
0010
0100
0010
0100
1000
0100
0010
0001
1000
0100
,
0010
0000
1000
0001
1000
2002
0000
0000
3003
0000
0100
0000
0010
0000
0100
0000
,
1001
0000
1000
0001
1000
2002
0000
0000
3003
0000
0010
0000
0100
0000
0010
0000
,
0100
0010
0001
0010
0100
0001
0100
1000
,
0001
1000
0100
0010
1000
0100
2002
3003
,
1000
0100
1000
0100
1000
0100
0010
0001
0010
0001
0010
0001
0100
1000
0100
1000
,
0010
0100
0010
0100
0010
0100
0001
1000
0001
1000
0001
1000
0010
0100
0010
0100
,
0001
0010
0001
0010
0001
0010
0100
1000
0100
1000
0100
1000
0001
0010
0001
0010
,
0001
0000
1100
0000
0110
0000
0011
0000
0110
0000
1100
0000
,
0001
1000
0001
1000
0001
1000
0100
0010
0100
0010
0100
0010
0001
1000
0001
1000
,
0100
0001
0100
0001
0100
0001
1000
0010
1000
0010
1000
0010
0100
0001
0100
0001
,
0100
0000
1100
0110
0011
0101
1010
1100
,
2000
3200
0320
0032
,
1003
0000
0001
0000
0100
0010
0100
0000
1000
0000
0100
0000
0001
1000
0001
0000
,
0100
0000
0010
0000
0001
0010
0001
0000
0010
0000
0100
0000
1000
0100
1000
0000
,
0100
0000
1000
0000
0010
1000
0010
0000
1000
0000
0010
0000
0100
0001
0100
0000
,
0010
0000
1000
0000
0100
1000
0100
0000
0010
0000
0001
0000
0010
0001
0010
0000
,
0100
0000
1000
0000
0100
0010
0001
0000
1000
0000
0010
0000
0100
0010
1000
0000
,
0001
0000
0100
0000
0100
1000
0001
0000
1000
0000
0010
0000
1000
0001
1000
0000
,
0010
0000
0001
0000
1000
0010
0100
0000
0010
0000
0100
0000
0010
1000
0001
0000
,
1000
0100
1000
0100
0010
0001
0010
0001
0100
0010
0100
0010
0001
1000
0001
1000
,
0001
0000
0100
0000
0010
0001
1000
0000
0001
0000
1000
0000
0001
0010
0100
0000
,
0010
0000
0100
0000
0010
0001
1000
0000
0001
0000
1000
0000
0001
0010
0100
0000
,
0010
0000
0001
0000
1000
0010
0100
0000
0010
0000
0100
0000
0010
1000
0001
0000
,
0010
0000
0100
0000
0010
0001
1000
0000
0001
0000
1000
0000
0001
0010
0100
0000
,
0101
0001
0100
0001
1001
0001
1000
0001
1010
0010
1000
0010
1001
0001
0100
0001
,
1010
0010
1000
0001
0101
0001
1000
0001
1100
0001
1000
0001
1010
0010
1000
0001
,
1001
1000
0100
0010
0001
0010
0100
1000
0100
0010
0001
0010
0100
1000
0100
0010
,
0001
0010
0100
1000
0100
0010
0001
0010
0100
1000
0100
0010
0001
0010
0100
1000
0100
0010
0001
0010
0100
1000
0100
0010
,
0001
0000
1000
0000
0010
1000
0010
0000
0100
0000
0010
0000
1000
0100
1000
0000
,
0010
0000
0001
0000
1000
0001
1000
0000
0010
0000
0100
0000
0010
0100
0010
0000
,
1000
0000
0001
0000
1000
0010
0100
0000
0001
0000
0010
0000
1000
0010
0001
0000
,
0100
0000
1000
0000
1000
0001
0100
0000
0001
0000
0010
0000
0001
0100
0001
0000
,
1000
0100
1000
0100
1000
0100
0010
0001
0010
0001
0010
0001
0100
1000
0100
1000
,
0010
0100
0010
0100
0010
0100
1000
0001
1000
0001
1000
0001
0100
0010
0100
0010
,
1000
0001
1000
0001
1000
0001
0010
0001
0010
0001
0010
0001
0100
0010
0100
0010
,
1000
0010
0100
0001
1000
0010
0100
0001
1000
0010
0100
0001
1000
0010
0100
0001
,
1000
0000
0001
0000
0100
0001
0100
0000
0001
0000
0100
0000
1000
0010
1000
0000
,
0100
0000
0001
0000
1000
0001
1000
0000
0100
0000
0010
0000
0100
0010
0100
0000
,
1000
0000
0001
0000
1000
0100
0010
0000
0001
0000
0100
0000
1000
0100
0001
0000
,
0010
0000
1000
0000
1000
0001
0010
0000
0001
0000
0100
0000
0001
0010
0001
0000
,
0010
0001
0010
0100
1000
0100
0010
0001
0010
0100
1000
0100
0010
0001
0010
0100
,
1001
0000
0000
0000
,
1001
2002
3003
0100
0010
0100
0001
1000
,
1001
2002
3003
1000
0100
0010
2002
3003
,
1001
2002
3003
1000
0100
0010
0001
0010
,
0100
1000
0100
0010
0002
0000
0000
0003
,
1001
0100
0010
0200
0300
0100
1001
0110
,
0011
0000
0110
0000
1100
0000
0011
0000
0000
0000
1000
0000
0100
0010
0001
0000
,
2000
0100
3100
2000
0100
3100
0010
0001
,
0010
0100
1000
0100
0220
0000
0000
0330
,
0000
1010
0101
1010
0101
1010
1100
0110
,
0000
1010
0101
1010
0101
0011
2002
3003
,
1000
0100
1000
0100
1000
0100
0010
0001
0010
0001
0010
0001
0100
0001
0100
0001
,
0110
0000
0110
0000
1001
0000
0220
0000
0000
0000
0000
0000
0000
0330
0000
0000
,
1001
0000
2002
0000
3003
0000
0010
0100
0001
0000
0010
0000
0100
0000
1000
0000
,
1001
0000
2002
0000
3003
0000
0100
0010
0100
0000
1000
0000
0220
0000
0330
0000
,
1000
0100
0010
0100
0010
0001
1000
0010
0001
0100
0010
0001
0010
0100
1000
0001
,
0110
0110
0110
0110
0110
0110
0000
0000
0110
0000
0000
1010
0000
0000
0101
0000
,
2002
0000
0000
0000
,
0000
0000
0000
0000
,
0000
0000
0000
0000
,
0000
0000
0000
0000
,
0000
0000
0000
0000
,
0000
0000
0000
0000
,
0000
0000
0000
0000
,
0000
0000
0000
0000
0000
0000
0000
3003
,
1001
0000
0000
0000
2000
0000
0000
0000
3200
0000
0000
0000
0320
0000
0030
0001
,
0110
0000
0002
0003
0020
0030
0200
1300
,
1001
0000
0000
0000
2000
0000
3000
0000
0002
0000
0003
0200
0300
0000
0020
0030
,
2002
0000
0000
0000
0000
0000
0000
3003
,
1001
0000
0002
0000
0023
0000
0230
1300
,
0110
0000
0000
0000
2000
0000
3000
0000
0200
0000
0300
0000
0020
0000
0030
0001
,
1001
0000
0000
0000
0002
0000
0003
0000
2000
0000
3000
0020
0030
0000
0200
0300
,
2002
0000
0000
0000
0000
0000
0000
3003
,
1000
0100
0100
0100
0100
0100
1000
0100
0010
0100
0100
0100
0100
0100
0100
0100
,
1000
1000
1000
0100
0100
0100
0010
0010
0100
0100
0100
0010
0010
0010
0001
0001
,
0100
0001
0001
0001
0001
0001
0100
0001
1000
0001
0001
0001
0001
0001
0001
0001
,
0100
0100
0100
0001
0001
0001
1000
1000
0001
0001
0001
1000
1000
1000
0010
0010
,
0001
0010
0010
0010
0010
0010
0001
0010
0100
0010
0010
0010
0010
0010
0010
0010
,
0001
0001
0001
0010
0010
0010
0100
0100
0010
0010
0010
0100
0100
0100
1000
1000
,
0010
1000
1000
1000
1000
1000
0010
1000
0001
1000
1000
1000
1000
1000
1000
1000
,
0010
0010
0010
1000
1000
1000
0001
0001
1000
1000
1000
0001
0001
0001
0100
0100
,
1001
2002
3003
0100
0010
0001
0020
0030
,
1100
0000
2200
0000
3300
0000
0010
0000
0001
0010
0100
1000
0220
0000
0330
0000
,
2000
3010
2000
3010
0200
0301
0200
0301
2000
3100
2000
3100
0020
0031
0020
0031
,
1000
1000
0100
0100
0010
0010
0100
0100
0100
0100
1000
0100
1000
0100
0220
0330
,
1001
0000
2002
0000
3003
0000
1000
0100
0020
0030
0000
0001
0000
0000
0020
0000
,
0230
0300
0000
2000
3000
0000
0010
0000
1000
0100
1000
0100
0020
0000
0030
0000
,
1000
1000
1000
0100
1000
0010
1000
0100
1000
1000
1000
0100
1000
0010
1000
0100
,
0001
0010
0001
0100
0001
0010
0100
1000
0110
0000
0110
0000
0110
0000
0110
0000
,
0001
0010
0010
0010
0010
0010
0001
0010
0100
0010
0010
0010
0010
0010
0010
0010
,
0001
0001
0001
0010
0010
0010
0100
0100
0010
0010
0010
0100
0100
0100
1000
1000
,
0010
1000
1000
1000
1000
1000
0010
1000
0001
1000
1000
1000
1000
1000
1000
1000
,
0010
0010
0010
1000
1000
1000
0001
0001
1000
1000
1000
0001
0001
0001
0100
0100
,
1000
0100
0100
0100
0100
0100
1000
0100
0010
0100
0100
0100
0100
0100
0100
0100
,
1000
1000
1000
0100
0100
0100
0010
0010
0100
0100
0100
0010
0010
0010
0001
0001
,
0100
0001
0001
0001
0001
0001
0100
0001
1000
0001
0001
0001
0001
0001
0001
0001
,
0100
0100
0100
0001
0001
0001
1000
1000
0001
0001
0001
1000
1000
1000
0010
0010
,
1000
1000
1000
1000
0020
0030
0100
0100
0001
0000
1000
0000
0100
0000
0020
0030
,
1000
0000
0000
0100
0000
0000
0010
0000
0002
0000
2003
0000
3002
0000
2003
3000
,
1000
0100
0010
0001
0001
0010
0100
0010
0100
1000
0100
0010
0001
0010
0100
0010
,
0001
0100
0001
0010
0100
0010
0100
1000
0100
0010
0100
1000
0220
0000
0330
0000
,
0220
0000
0330
2002
0000
3003
0220
0300
2230
0000
3300
2002
0000
3003
1001
0000
,
2000
3010
2000
3010
0002
0000
0003
0000
0001
0010
0100
2000
0000
0000
0000
3000
,
0100
0001
0010
0001
1000
0010
0100
0010
1000
0100
0010
0001
1000
0010
0100
0010
,
0001
0010
0100
0010
0100
1000
0100
1000
0100
1000
0100
0010
0001
1000
0001
1000
,
1001
0000
1000
0001
1000
0000
0100
0000
0010
0000
0001
0000
0010
0000
0100
0000
,
1001
0000
1000
0001
1000
0000
0100
0000
0001
0000
0010
0000
0200
0000
0300
0000
,
1001
0000
1000
0001
1000
0000
0010
0000
0100
0000
1000
0000
0100
0000
0010
0000
,
0100
0010
0100
1000
0001
1000
0100
0010
0001
0010
1000
0100
0022
0000
0033
0000
,
1001
0000
0001
1000
0001
0000
0010
0000
0100
0000
1000
0000
0100
0000
0010
0000
,
1001
0000
0001
1000
0001
0000
0010
0000
1000
0000
0100
0000
0020
0000
0030
0000
,
1001
0000
0001
1000
0001
0000
0100
0000
0010
0000
0001
0000
0010
0000
0100
0000
,
1000
0100
0010
0001
0010
0100
1000
0100
0011
0000
0110
0000
1100
0000
1001
0000
,
0001
0010
0100
1000
0100
0010
0100
1000
1100
0000
0110
0000
0011
0000
1001
0000
,
1000
0100
0010
0001
0000
0000
0000
0000
0001
0010
0100
1000
0000
0000
0000
0000
1000
0100
0010
0001
0000
0000
0000
0000
0001
0010
0100
1000
0000
0000
0000
0000
,
1000
0100
0010
0100
0010
0001
1000
0100
0010
0001
1000
0100
0010
0100
0010
0001
,
0010
0100
1000
0001
0010
0100
1000
0100
1000
0010
0100
0010
0002
0000
0000
0003
,
1000
0100
0010
0001
0010
0001
0010
0100
1000
0100
1000
0010
1000
0010
0100
0001
,
1000
0010
0100
0010
1000
0100
0010
0100
2002
3003
2002
3003
2002
0000
0000
3003
,
0001
1000
0001
0100
0001
0010
0100
1000
0100
1000
0100
0010
0001
0010
0100
1000
,
0001
0010
0001
0100
0001
0010
0100
1000
0100
1000
0100
0010
0001
0001
0001
0001
,
1000
0100
0010
0100
0010
0001
0010
0100
0010
0100
1000
0100
1000
0100
0010
0001
,
0010
0100
0010
0001
0100
0010
1000
0100
1000
0100
0010
0001
1000
0100
0010
0001
,
2002
3003
0110
2002
3003
0110
1001
0110
,
1000
0100
0010
0001
0010
0100
2002
3003
,
1001
2001
3100
0101
1001
0220
2330
3000
,
2002
3003
2002
0003
3100
0000
0010
0000
0002
0000
0013
0000
0220
0000
0330
0000
,
2000
3200
0320
0032
2003
3100
0010
0100
2000
3002
0203
0302
2003
3002
0013
0200
,
1300
0100
0010
0001
0010
0200
2300
3200
2300
3002
2003
3200
0302
0000
0003
0000
,
1000
0010
1000
0010
1000
0010
0100
0010
1000
0010
1000
0010
1000
0010
0100
0010
,
1000
0010
1000
0010
1000
0010
0100
0010
0002
0000
0000
0000
0020
0000
0033
0000
,
1000
0000
0000
0100
0000
0000
0010
0000
1000
0000
0100
0000
0010
0000
0001
0000
1000
0000
0100
0000
0010
0000
0001
0000
1000
0000
0100
0000
0010
0000
0001
0000
,
1001
2002
3003
0010
0100
1000
0220
0330
,
1000
0010
0100
0001
0010
0100
1000
0010
0100
0001
0010
0100
1000
0010
0100
0001
0010
0100
1000
0010
0100
0001
0010
0100
,
1000
1000
1000
1000
0100
0000
0020
0000
0230
0000
0310
0000
0001
0000
1000
0000
,
0001
0010
0100
1000
0001
0010
0100
1000
0001
0010
0100
1000
0001
0010
0100
1000
0001
0010
0100
1000
0001
0010
0100
1000
0001
0010
0100
1000
0001
0010
0100
1000
,
0001
0010
0100
1000
1000
0100
0010
0001
1000
0100
1000
0010
0002
0000
2003
3000
,
1000
0001
1000
0001
1000
0010
1000
0010
2002
0000
0000
0000
0000
0000
0000
3003
,
1000
0100
0010
0001
1000
0100
0010
0001
1001
1001
1001
1001
1001
1001
1001
0000
,
2002
0000
0000
0000
0000
0000
3003
0000
2002
0000
0000
0000
3003
0000
0100
0010
,
0001
0000
0010
0000
0100
0000
2000
0000
0000
0000
0000
0000
3000
0000
1000
0100
,
0001
0010
0100
1000
1000
0100
0010
0001
,
0001
0100
1000
0010
2002
0000
0000
3003
,
0000
0000
2000
3000
0100
0000
0010
0001
,
0002
0000
0003
0020
0030
0200
0300
1000
,
2000
3100
0010
0001
0010
0100
1000
0200
,
0000
0300
1000
0100
2000
3100
0020
0030
,
1000
0001
0100
0020
0030
0001
0010
0100
,
1000
0000
0100
0000
0010
0000
0001
0000
1000
0100
0010
0100
2000
0000
3000
0000
,
2000
3100
0200
0310
0020
0031
0002
0013
,
1000
1000
1000
0010
0010
0010
0020
0030
,
1000
0000
0000
0100
0000
0000
0010
0000
0000
0001
0000
0000
0010
0000
0000
0100
0000
0000
1000
0000
0100
0000
0010
0000
0001
0000
0000
0010
0000
0000
0100
0000
0000
1000
0000
0000
0100
0000
0000
0010
0000
0000
0001
0000
0010
0000
0100
0000
,
1000
0100
0010
0001
1000
0100
0010
0001
1000
0010
0100
0001
1000
0000
0010
0000
,
1000
0000
1000
0100
0010
0001
0010
0100
0001
0010
0100
1000
0001
0010
0100
1000
,
0001
0010
0100
1000
0001
0010
0100
1000
0100
0010
0001
0010
0100
1000
0100
0000
,
2000
0000
0000
0000
0000
3000
0200
0000
0000
0300
0020
0000
0000
0030
0001
0000
,
1000
0100
0000
0020
0030
0001
0000
0100
,
1000
0100
0010
0001
1000
0010
1000
0100
2002
0000
0000
0000
0000
0000
3003
0000
,
1000
0001
0100
0020
0000
0000
0000
0030
,
1000
1000
0001
1000
1000
0001
1000
0001
,
1000
0100
0000
0010
0000
0001
2002
3003
,
1000
0100
0010
0001
1000
0010
0100
0001
0010
0001
1000
0100
0010
0001
1000
0100
,
0010
0001
1000
0001
1000
0100
0010
0001
1000
0010
1000
0010
1000
0100
0010
0001
,
1000
1000
0001
0001
0010
0010
0001
0001
0100
0100
0001
0001
0010
0010
0001
0001
,
1000
0100
0010
0001
0010
0100
1000
0100
0010
0001
0010
0100
1000
0100
0010
0001
0010
0100
1000
0100
0010
0001
0010
0100
,
1000
0100
1000
0010
0001
0010
0100
1000
0010
0100
1000
0100
0010
0001
0010
0100
,
1000
1000
0100
0010
0001
0001
0010
0010
0100
0010
0100
1000
2002
0000
3003
0000
,
0010
0100
0010
0200
0300
1000
0000
1000
,
0100
0010
0200
0000
0300
0000
1000
0000
0100
0000
0010
0000
0022
0000
0033
0000
,
1000
0100
0010
0001
1000
0100
0010
0001
1000
0010
1000
0010
1000
0010
1000
0010
,
1000
0100
0010
0001
0010
0100
1000
0100
0010
0001
0010
0100
1000
0100
0010
0001
0010
0100
1000
0100
0010
0001
0010
0100
,
2000
0000
0000
0000
0000
0200
3000
0000
0000
0000
0000
0020
0300
0000
0000
0002
0030
0000
0000
0000
0000
0020
0003
0000
0000
0000
0000
0200
0030
0000
0300
2002
,
0000
0000
0000
0000
3003
2000
3200
0320
,
0032
0000
0000
0000
0000
0020
0003
0000
0000
0000
0000
0200
0030
0000
0000
2000
0300
0000
0000
0000
0000
0220
3000
0000
0000
0000
0330
2002
0000
0000
3003
0220
,
0000
0000
0000
0000
0000
0000
0000
0000
0330
0000
0220
0330
2200
3300
0220
0330
,
0022
0000
0000
0000
0033
0220
0000
0000
0000
0000
0330
2200
0000
0000
3300
0220
0000
0000
0000
0000
0330
0202
0000
0000
0000
0000
0303
2020
0000
0000
3030
2002
,
0000
0000
0000
0000
3003
2200
0000
0000
0000
0000
3300
0022
0000
0000
0033
2002
0000
0000
0000
0000
0000
0000
0000
0000
0000
0000
0000
0000
3223
0000
0330
0000
,
2200
0000
0000
0000
3300
0220
0000
0000
0000
0000
0330
0022
0000
0000
0033
0220
0000
0000
0000
0000
0330
2200
0000
0000
0000
0000
3300
0220
0000
0000
0330
0000
,
1001
0000
0000
0000
,
0100
0000
0010
0000
0001
0010
0001
0000
0010
0000
0100
0000
1000
0100
1000
0000
,
0100
0000
1000
0000
0010
1000
0010
0000
1000
0000
0010
0000
0100
0001
0100
0000
,
1000
0000
0001
0000
0100
0001
0100
0000
0001
0000
1000
0000
0010
1000
0010
0000
,
1000
0000
0010
0000
0001
0010
0001
0000
0010
0000
0001
0000
1000
0100
1000
0000
,
1000
0100
1000
0100
1000
0100
0010
0001
0010
0001
0010
0001
0100
0010
0100
0010
,
1000
0001
1000
0001
1000
0001
0100
1000
0100
1000
0100
1000
0010
0100
0010
0100
,
0001
0010
0100
1000
0100
0010
0001
1000
0010
0100
0001
1000
0100
1000
0010
0100
,
1000
0100
0010
0001
0010
0100
1000
0001
0100
0010
1000
0001
0010
0001
0100
0010
,
0001
0000
1000
0000
0010
1000
0010
0000
1000
0000
0001
0000
0100
0001
0100
0000
,
0001
0000
0100
0000
1000
0100
1000
0000
0100
0000
1000
0000
0001
0010
0001
0000
,
1000
0100
0010
0001
1000
0100
1000
0100
0010
0001
0100
0001
1000
0010
0100
0001
,
1000
0100
0010
0001
0100
0010
1000
0001
0100
0001
0010
0100
1000
0001
0010
0100
,
1000
0100
1000
0100
1000
0100
0010
0001
0010
0001
0010
0001
0100
0010
0100
0010
,
1001
0000
0000
0000
,
1001
0100
1000
0100
1000
0100
1001
0100
1000
0100
1000
0100
1001
0100
1000
0100
,
1001
0100
1000
0100
1000
0100
1001
0100
1000
0100
1000
0100
1001
0100
1000
0100
,
1010
0100
0010
0100
0010
0100
1010
0100
0010
0100
0010
0100
1010
0100
0010
0100
,
1010
0100
0010
0100
0010
0100
1010
0100
0010
0100
0010
0100
1010
0100
0010
0100
,
1001
0010
0001
0010
0001
0010
1001
0010
0001
0010
0001
0010
1001
0010
0001
0010
,
1001
0010
0001
0010
0001
0010
1001
0010
0001
0010
0001
0010
1001
0010
0001
0010
,
0101
0010
0001
0010
0001
0010
0101
0010
0001
0010
0001
0010
0101
0010
0001
0010
,
0001
0010
0100
1000
0100
1000
0100
1000
0100
0010
0100
1010
0001
0010
0001
0010
,
1001
0010
0001
0010
0001
0010
1001
0010
0001
0010
0001
0010
1001
0010
0001
0010
,
1001
0010
0001
0010
0001
0010
1001
0010
0001
0010
0001
0010
1001
0010
0001
0010
,
0101
0010
0100
0010
0100
0010
0101
0010
0100
0010
0100
0010
0101
0010
0100
0010
,
0101
0010
0100
0010
0100
0010
0101
0010
0100
0010
0100
0010
0101
0010
0100
0010
,
1001
0100
1000
0100
1000
0100
1001
0100
1000
0100
1000
0100
1001
0100
1000
0100
,
1001
0100
1000
0100
1000
0100
1001
0100
1000
0100
1000
0100
1001
0100
1000
0100
,
1000
0000
0000
0100
0000
0000
0010
0000
0000
0001
0000
0000
0010
0000
0100
0000
0010
0000
0100
0000
0000
0010
0000
0000
0100
0000
0000
0010
0000
0000
1000
0000
0000
0010
0000
0000
1000
0000
0000
0001
0000
0000
0100
0000
0000
0001
0000
0000
,
1000
0000
0000
0100
0000
0000
0010
0000
0000
0001
0000
0000
0010
0000
0000
0100
0000
0000
0001
0000
0000
0010
0000
0000
1000
0000
0100
0000
0010
0000
0001
0000
0010
0000
0100
0000
1000
0000
0100
0000
0010
0000
0001
0000
0000
0010
0000
0000
,
1001
1001
0110
1001
0000
0110
0000
1001
0000
0110
0000
1001
0011
0110
1100
0110
,
0011
0110
0110
0110
0000
1001
0000
1001
0000
0110
0000
1010
0110
0101
0110
1010
,
1001
0110
1001
0110
0000
1001
0000
1001
0000
1001
0000
1001
0110
1001
0110
0000
,
0001
0010
0100
1000
0001
0010
0100
1000
0001
0010
0100
1000
0001
0010
0100
1000
,
0001
0010
0100
1000
0001
0010
0100
1000
0001
0010
0100
1000
0001
0010
0100
1000
,
0001
0010
0100
1000
0001
0010
0100
1000
0001
0010
0100
1000
0001
0010
0100
1000
,
0001
0010
0100
1000
0001
0010
0100
1000
0001
0010
0100
1000
0001
0010
0100
1000
,
0011
0110
1100
0110
0011
0110
1100
0110
,
0022
0000
0033
0000
,
1000
0000
0000
0100
0000
0000
0010
0000
0000
0001
0000
0000
1000
0000
0000
0100
0000
0000
0010
0000
0000
0001
0000
0000
1100
0000
0000
0000
0000
0000
0000
0000
0110
0000
0000
0000
0000
0000
0000
0000
0011
0000
0000
0000
0000
0000
0000
0000
,
2002
0000
3003
0000
;

//---------------dance-single - Asshat steps----------------
#NOTES:
     dance-single:
     Asshat steps:
     Hard:
     12:
     1.000,1.000,0.711,0.749,1.000,3658.000,313.000,330.000,0.000,4.000:

0001
0000
0010
0000
0100
0000
0001
0000
0010
0000
0100
0000
1000
0000
0100
0000
1000
0000
0100
0000
0010
0000
0001
0000
0010
0000
0100
0000
1000
0100
0010
0001
,
1000
0100
0010
1000
0100
0010
0001
0010
0001
0010
0100
1000
0100
0010
0001
1000
,
0012
0100
1000
0100
0010
0100
1000
0100
0010
0100
1000
0010
1000
0010
0103
0010
,
1001
0010
0100
1000
0100
0010
0001
0010
2100
0010
0001
0100
0010
0001
3010
0100
,
1000
0000
0100
0000
0010
0000
1000
0000
0100
0000
0010
0000
0001
0000
0010
0000
0001
0000
0010
0000
0100
0000
1000
0000
0100
0000
0010
0000
0001
0010
0100
1000
,
0001
0010
0100
0001
0010
0100
1000
0100
1000
0100
0010
0001
0010
0100
1000
0001
,
2000
0100
0010
0001
0100
0010
0001
0010
0100
0010
0001
0100
0001
0100
3010
0100
,
1001
0100
0010
0001
0010
0100
1000
0100
1001
0000
0110
0000
1001
0000
0000
0000
,
0100
0010
0001
0010
0001
0010
0100
0010
0001
0010
0001
0010
0100
0010
0001
0010
,
0100
0010
0001
0010
0001
0010
0100
0010
0001
0010
0001
0010
0100
0010
0001
0010
,
0001
1000
0100
1000
0100
1000
0001
1000
0100
1000
0100
1000
0001
1000
0100
1000
,
0001
1000
0100
1000
0100
1000
0001
1000
0100
1000
0100
1000
0001
1000
0100
1000
,
0010
0100
1000
0100
1000
0100
0010
0100
1000
0100
1000
0100
0010
0100
1000
0100
,
0010
0100
1000
0100
1000
0100
0010
0100
1000
0100
1000
0100
0010
0100
1000
0100
,
0001
1000
0010
1000
0010
1000
0001
1000
0010
1000
0010
1000
0001
1000
0010
1000
,
0100
1000
0100
0010
0100
0010
1000
0001
1100
0000
0110
0000
0022
0000
0033
0000
,
1000
0001
0100
0001
0100
0001
1000
0001
0100
0001
0100
0001
1000
0001
0100
0001
,
1000
0001
0100
0001
0100
0001
1000
0001
0100
0001
0100
0001
1000
0001
0100
0001
,
0100
0010
1000
0010
1000
0010
0100
0010
1000
0010
1000
0010
0100
0010
1000
0010
,
0100
0010
1000
0010
1000
0010
0100
0010
1000
0010
1000
0010
0100
0010
1000
0010
,
0001
1000
0010
1000
0010
1000
0001
1000
0010
1000
0010
1000
0001
1000
0010
1000
,
0001
1000
0010
1000
0010
1000
0001
1000
0010
1000
0010
1000
0001
1000
0010
1000
,
0100
0010
0001
0010
0001
0010
0100
0010
0001
0010
0001
0010
0100
0010
0001
0010
,
0102
0000
0100
0100
0100
0100
0100
0100
0100
0100
0100
0100
0100
0100
0100
0103
,
0101
0101
0101
1010
1010
1010
0101
0101
0101
0101
0101
1010
1010
1010
0101
0101
,
1100
1100
1100
0101
0101
0101
1100
1100
1100
1100
1100
0101
0101
0101
1100
1100
,
1010
1010
1010
0110
0110
0110
1010
1010
1010
1010
1010
0110
0110
0110
1010
1010
,
1001
0000
0000
0000
1001
0000
0000
0000
1001
0000
1001
0000
0000
0000
0100
0000
1000
0100
0010
0001
0010
0100
1000
0100
0010
0001
0010
0100
1000
0100
0010
0001
,
1000
0100
0010
0100
1000
0010
0100
0001
0100
0010
1000
0100
0010
0100
1000
0001
,
0100
0010
1000
0100
0010
0100
1000
0001
0100
0010
1000
0100
2000
0000
3000
0000
,
0001
0100
0010
0100
1000
0001
0010
0001
1000
0001
0010
0001
0100
0010
1000
0001
,
0010
0001
0100
0001
0010
0100
0010
0001
0010
0100
0010
0001
1000
0010
0100
0001
,
1000
0000
0001
1000
0001
1000
2002
0000
0000
0000
3003
0000
1001
0000
0000
0000
,
0010
0000
0100
0010
0100
0010
0220
0000
0330
0000
0110
0000
0001
0000
0010
0000
,
1000
0001
0010
1000
0010
0001
0100
1000
,
0001
0020
0030
0001
0010
1000
0100
1000
,
1000
0100
0010
0100
1000
0001
0100
0010
0100
0001
1000
0001
0100
0010
1000
0100
,
0010
0100
0010
0001
0010
0100
1000
0010
1000
0100
1000
0001
0200
0300
0010
1000
,
0010
0100
0001
0010
0100
1000
0001
0100
0010
0100
0001
0010
0100
1000
0001
1000
,
0010
0100
0001
1000
0010
0100
0001
0010
0100
1000
0001
0010
0100
1000
0001
1000
,
0010
0000
0001
0010
0001
0000
1000
0000
0010
0000
0100
0000
0001
0000
0010
0000
,
0100
0000
1000
0001
0100
0000
0001
0000
0010
0000
0001
0000
0010
0000
1000
0000
,
0001
0100
0010
1000
0001
0100
0001
0010
0100
1000
0001
0010
0001
0100
0010
1000
,
1001
0000
0000
1001
0000
0000
0000
1001
0000
0000
0000
1001
0000
0000
1001
0000
,
0001
0010
0001
0010
0001
0010
0100
1000
0100
1000
0100
1000
0010
0001
0010
0001
,
0100
0010
0100
0010
0100
0010
1000
0001
1000
0001
1000
0001
0100
0010
0100
0010
,
1000
0100
1000
0100
1000
0100
0010
0001
0010
0001
0010
0001
1000
0100
1000
0100
,
1000
0001
0010
1000
0100
0001
0010
1000
0010
1000
0100
0001
1000
0100
0001
0100
,
1000
0001
1000
0001
1000
0001
0010
0100
0010
0100
0010
0100
1000
0001
1000
0001
,
0010
1000
0010
1000
0010
1000
0001
0100
0001
0100
0001
0100
0010
1000
0010
1000
,
0010
0000
0011
0110
1100
1010
0101
0011
,
0002
2003
3020
0230
,
0301
0000
1000
0000
0010
0100
0010
0000
0001
0000
0010
0000
1000
0001
1000
0000
,
0010
0000
0100
0000
1000
0100
1000
0000
0100
0000
0010
0000
0001
0010
0001
0000
,
0010
0000
0001
0000
0100
0001
0100
0000
0001
0000
0100
0000
0010
1000
0010
0000
,
0100
0000
0001
0000
0010
0001
0010
0000
0100
0000
1000
0000
0100
1000
0100
0000
,
0010
0000
0001
0000
0010
0100
1000
0000
0001
0000
0100
0000
0010
0100
0001
0000
,
1000
0000
0010
0000
0010
0001
1000
0000
0001
0000
0100
0000
0001
1000
0001
0000
,
0100
0000
1000
0000
0001
0100
0010
0000
0100
0000
0010
0000
0100
0001
1000
0000
,
0001
0100
0001
0100
0001
0100
0001
0100
0010
1000
0010
1000
0010
1000
0010
1000
,
0010
0000
0100
0000
1000
0100
1000
0000
0010
0000
0001
0000
0010
0001
0010
0000
,
1000
0000
0100
0000
1000
0010
0001
0000
0100
0000
0010
0000
1000
0010
0100
0000
,
0001
0000
1000
0000
0010
0100
0001
0000
0100
0000
0010
0000
0100
0001
0100
0000
,
0010
0000
0001
0000
0100
0010
1000
0000
0010
0000
1000
0000
0010
0100
0001
0000
,
0100
0010
1000
0100
0010
0001
1000
0010
0100
0010
1000
0100
0010
0001
1000
0001
,
0100
0010
1000
0001
0100
0010
1000
0100
0010
0001
1000
0100
0010
0001
1000
0001
,
0010
0100
1000
0010
1000
0001
0100
0001
0010
0100
0001
0010
1000
0001
0010
1000
,
2002
0000
0000
0000
0000
0000
0000
3003
,
0100
0000
0001
0000
0100
1000
0010
0000
0001
0000
1000
0000
0100
1000
0001
0000
,
1000
0000
0100
0000
1000
0010
0001
0000
0100
0000
0010
0000
1000
0010
0100
0000
,
0001
0000
0010
0000
0001
0100
1000
0000
0010
0000
0100
0000
0001
0100
0010
0000
,
1000
0000
0100
0000
1000
0010
0001
0000
0100
0000
0010
0000
1000
0010
0100
0000
,
0010
0100
1000
0010
0100
0001
1000
0100
0010
0100
1000
0001
0100
0010
0100
0001
,
1000
0010
0100
0010
1000
0001
0010
0001
0100
0001
1000
0010
1000
0100
0010
0100
,
1000
0001
0100
0010
0100
0001
1000
0100
0010
0001
0100
0010
0100
0010
1000
0001
,
0100
0010
1000
0100
0010
0001
1000
0010
0100
0010
1000
0100
0010
0001
1000
0001
,
0100
0000
1000
0000
0100
0001
0010
0000
1000
0000
0001
0000
0100
0001
1000
0000
,
0010
0000
1000
0000
0100
0001
0010
0000
1000
0000
0001
0000
0100
0001
1000
0000
,
0010
0000
0001
0000
0010
0100
1000
0000
0001
0000
0100
0000
0010
0100
0001
0000
,
1000
0000
0010
0000
1000
0001
0100
0000
0010
0000
0001
0000
1000
0001
0010
0000
,
1000
0100
0010
0001
0010
0100
1000
0100
0010
0001
0010
0100
1000
0100
0010
0001
,
0110
0000
0000
0000
,
1001
2002
3003
0001
0010
0100
1000
0010
,
1001
2002
3003
0100
0010
1000
0220
0330
,
1001
0000
2002
0000
3003
0000
0010
0010
0100
0100
0010
0010
1000
1000
0010
0010
,
0100
0001
0010
2002
0000
0000
0000
3003
,
0001
0010
0100
2000
3000
0001
0100
0010
,
1000
0000
0010
0000
0100
0000
0002
0000
0003
0000
0001
0000
0001
0010
0100
0000
,
0010
0010
0100
0010
0010
0100
0010
0100
,
1000
0100
0010
0001
1000
0100
0010
0001
1000
0100
0010
0001
1000
0100
0010
0000
,
1001
0000
2002
0000
3003
0000
0001
0001
0010
0010
0001
0001
0100
0100
1000
1000
,
1001
2002
3003
0001
0010
0100
2002
3003
,
0001
0010
0001
0010
0001
0010
0100
1000
0100
1000
0100
1000
0010
1000
0010
1000
,
0001
0010
0100
2002
0000
0000
0000
3003
,
1001
0000
2002
0000
3003
0000
0001
1000
0001
0000
0001
0000
0010
0000
0100
0000
,
1001
0000
2002
0000
3003
0000
1000
0001
1000
0000
0010
0000
0220
0000
0330
0000
,
0001
0010
0100
1000
0001
0010
0100
1000
0001
0010
0100
1000
0001
0010
0100
1000
,
0011
0011
0011
0000
2002
0000
3003
0000
2200
0000
3300
0022
0033
0000
0220
0330
,
1001
0000
0000
0000
,
0000
0000
0000
0000
,
1000
1000
0101
0010
1000
0100
1100
0010
,
0001
0010
0110
0010
0100
0010
1100
1000
,
0001
0100
0110
0001
0010
1000
0011
1000
,
0010
0001
1010
0100
0010
1000
0110
1000
,
0100
0001
1010
0100
0010
0001
0101
0001
,
0100
1000
0100
0010
0001
0010
0100
1000
0100
0010
0001
0010
0100
1000
0100
0010
,
0001
0010
0100
1000
0000
0000
0001
0010
0100
1000
0000
0000
0001
0010
0100
1000
0000
0000
0001
0010
0100
1000
0000
0000
,
2002
0000
0000
0000
0000
0000
0000
3003
,
0010
1000
0001
1000
0010
1000
0010
0100
0001
0010
0100
1000
0100
1000
0010
1000
,
0001
0100
0010
1000
0100
0010
0001
0010
0100
0010
0001
0100
0010
1000
0010
1000
,
0100
0010
0001
0010
0100
0010
0100
1000
0100
1000
0010
1000
0010
0100
0001
0010
,
0100
1000
0010
1000
0001
0010
0100
0010
0100
0010
0001
0010
0100
1000
0001
0010
,
0100
0000
0001
1000
0001
2002
0000
0000
3003
0000
0010
0000
0100
0000
0010
0000
,
1001
0000
0001
1000
0001
2002
0000
0000
3003
0000
0100
0000
0010
0000
0100
0000
,
0010
0100
1000
0100
0010
1000
0010
0001
,
1000
0001
0010
0100
0001
0010
2002
3003
,
0001
0010
0001
0010
0001
0010
0100
1000
0100
1000
0100
1000
0010
0001
0010
0001
,
0100
0010
0100
0010
0100
0010
1000
0001
1000
0001
1000
0001
0100
0010
0100
0010
,
1000
0100
1000
0100
1000
0100
0010
0001
0010
0001
0010
0001
1000
0100
1000
0100
,
1000
0000
0010
0000
0100
0000
1000
0000
0100
0000
0010
0000
,
1000
0001
1000
0001
1000
0001
0010
0100
0010
0100
0010
0100
1000
0001
1000
0001
,
0010
1000
0010
1000
0010
1000
0001
0100
0001
0100
0001
0100
0010
1000
0010
1000
,
0010
0000
0011
0110
1100
1010
0101
0011
,
0002
0023
0230
2300
,
3001
0000
1000
0000
0010
0100
0010
0000
0001
0000
0010
0000
1000
0001
1000
0000
,
0010
0000
0100
0000
1000
0100
1000
0000
0100
0000
0010
0000
0001
0010
0001
0000
,
0010
0000
0001
0000
0100
0001
0100
0000
0001
0000
0100
0000
0010
1000
0010
0000
,
0100
0000
0001
0000
0010
0001
0010
0000
0100
0000
1000
0000
0100
1000
0100
0000
,
0010
0000
0001
0000
0010
0100
1000
0000
0001
0000
0100
0000
0010
0100
0001
0000
,
1000
0000
0010
0000
0010
0001
1000
0000
0001
0000
0100
0000
0001
1000
0001
0000
,
0100
0000
1000
0000
0001
0100
0010
0000
0100
0000
0010
0000
0100
0001
1000
0000
,
0001
0010
0001
0010
0100
1000
0100
1000
0010
0100
0010
0100
1000
0001
1000
0001
,
1000
0000
0010
0000
0100
1000
0001
0000
1000
0000
0001
0000
1000
0100
0010
0000
,
0100
0000
0010
0000
0100
1000
0001
0000
1000
0000
0001
0000
1000
0100
0010
0000
,
0100
0000
1000
0000
0001
0100
0010
0000
0100
0000
0010
0000
0100
0001
1000
0000
,
0100
0000
0010
0000
0100
1000
0001
0000
1000
0000
0001
0000
1000
0100
0010
0000
,
1000
0100
1000
0010
0100
0010
1000
0001
1000
0100
0010
0001
1000
0010
0100
0001
,
0100
0010
0100
0001
1000
0100
0010
0001
1000
0100
1000
0010
0100
0001
1000
0100
,
0010
0001
0010
0100
1000
0100
0010
0001
0010
0100
1000
0100
0010
0001
0010
0100
,
2002
0000
0000
0000
0000
0000
0000
3003
,
0100
0000
0001
0000
0100
0001
0100
0000
0010
0000
0100
0000
0001
0010
0001
0000
,
0100
0000
1000
0000
0001
1000
0001
0000
0100
0000
0010
0000
0100
0010
0100
0000
,
0001
0000
1000
0000
0001
0100
0010
0000
1000
0000
0100
0000
0001
0100
1000
0000
,
0010
0000
0001
0000
0001
1000
0010
0000
1000
0000
0100
0000
1000
0010
1000
0000
,
0001
0010
0001
0010
0001
0010
0100
1000
0100
1000
0100
1000
0010
0001
0010
0001
,
0100
0010
0100
0010
0100
0010
0001
1000
0001
1000
0001
1000
0010
0100
0010
0100
,
0001
1000
0001
1000
0001
1000
0100
1000
0100
1000
0100
1000
0010
0100
0010
0100
,
0001
0100
0010
1000
0001
0100
0010
1000
0001
0100
0010
1000
0001
0100
0010
1000
,
0001
0000
1000
0000
0010
1000
0010
0000
1000
0000
0010
0000
0001
0100
0001
0000
,
0010
0000
1000
0000
0001
1000
0001
0000
0010
0000
0100
0000
0010
0100
0010
0000
,
0001
0000
1000
0000
0001
0010
0100
0000
1000
0000
0010
0000
0001
0010
1000
0000
,
0100
0000
0001
0000
0001
1000
0100
0000
1000
0000
0010
0000
1000
0100
1000
0000
,
0100
1000
0100
0010
0001
0010
0100
1000
0100
0010
0001
0010
0100
1000
0100
0010
,
1001
0000
0000
0000
,
1001
2002
3003
0010
0100
0010
1000
0001
,
1001
2002
3003
0001
0010
0100
2002
3003
,
1001
2002
3003
0001
0010
0100
1000
0100
,
0010
0001
0010
0100
2000
0000
0000
3000
,
1001
0010
0100
0020
0030
0010
1001
0110
,
1100
0000
0110
0000
0011
0000
1100
0000
0000
0000
0001
0000
0010
0100
1000
0000
,
0002
0010
0013
0002
0010
0013
0100
1000
,
0100
0010
0001
0010
0220
0000
0000
0330
,
0000
0101
1010
0101
1010
0101
0011
0110
,
0000
0101
1010
0101
1010
1100
2002
3003
,
0001
0010
0001
0010
0001
0010
0100
1000
0100
1000
0100
1000
0010
1000
0010
1000
,
0110
0000
0110
0000
1001
0000
0220
0000
0000
0000
0000
0000
0000
0330
0000
0000
,
1001
0000
2002
0000
3003
0000
0100
0010
1000
0000
0100
0000
0010
0000
0001
0000
,
1001
0000
2002
0000
3003
0000
0010
0100
0010
0000
0001
0000
0220
0000
0330
0000
,
0001
0010
0100
0010
0100
1000
0001
0100
1000
0010
0100
1000
0100
0010
0001
1000
,
0110
0110
0110
0110
0110
0110
0000
0000
0110
0000
0000
0101
0000
0000
1010
0000
,
2002
0000
0000
0000
,
0000
0000
0000
0000
,
0000
0000
0000
0000
,
0000
0000
0000
0000
,
0000
0000
0000
0000
,
0000
0000
0000
0000
,
0000
0000
0000
0000
,
0000
0000
0000
0000
0000
0000
0000
3003
,
1001
0000
0000
0000
0002
0000
0000
0000
0023
0000
0000
0000
0230
0000
0300
1000
,
0110
0000
2000
3000
0200
0300
0020
0031
,
1001
0000
0000
0000
0002
0000
0003
0000
2000
0000
3000
0020
0030
0000
0200
0300
,
2002
0000
0000
0000
0000
0000
0000
3003
,
1001
0000
2000
0000
3200
0000
0320
0031
,
0110
0000
0000
0000
0002
0000
0003
0000
0020
0000
0030
0000
0200
0000
0300
1000
,
1001
0000
0000
0000
2000
0000
3000
0000
0002
0000
0003
0200
0300
0000
0020
0030
,
2002
0000
0000
0000
0000
0000
0000
3003
,
1000
0010
0001
0010
0001
0010
1000
0010
0100
0010
0001
0010
0001
0010
0001
0010
,
0001
0001
0001
0010
0010
0010
0100
0100
0010
0010
0010
0100
0100
0100
1000
1000
,
0001
0100
1000
0100
1000
0100
0001
0100
0010
0100
1000
0100
1000
0100
1000
0100
,
1000
1000
1000
0100
0100
0100
0010
0010
0100
0100
0100
0010
0010
0010
0001
0001
,
0100
1000
0010
1000
0010
1000
0100
1000
0001
1000
0010
1000
0010
1000
0010
1000
,
0010
0010
0010
1000
1000
1000
0001
0001
1000
1000
1000
0001
0001
0001
0100
0100
,
0010
0001
0100
0001
0100
0001
0010
0001
1000
0001
0100
0001
0100
0001
0100
0001
,
0100
0100
0100
0001
0001
0001
1000
1000
0001
0001
0001
1000
1000
1000
0010
0010
,
1001
2002
3003
0010
0100
1000
0200
0300
,
0011
0000
0022
0000
0033
0000
0100
0000
1000
0100
0010
0001
0220
0000
0330
0000
,
0002
0103
0002
0103
0020
1030
0020
1030
0002
0013
0002
0013
0200
1300
0200
1300
,
0001
0001
0010
0010
0100
0100
0010
0010
0010
0010
0001
0010
0001
0010
0220
0330
,
1001
0000
2002
0000
3003
0000
0001
0010
0200
0300
0000
1000
0000
0000
0200
0000
,
0320
0030
0000
0002
0003
0000
0100
0000
0001
0010
0001
0010
0200
0000
0300
0000
,
0001
1000
0001
0010
0001
0100
0001
0010
0001
1000
0001
0010
0001
0100
0001
0010
,
1000
0100
1000
0010
1000
0100
0010
0001
0110
0000
0110
0000
0110
0000
0110
0000
,
1000
0010
0001
0010
0001
0010
1000
0010
0100
0010
0001
0010
0001
0010
0001
0010
,
0001
0001
0001
0010
0010
0010
0100
0100
0010
0010
0010
0100
0100
0100
1000
1000
,
0010
0001
0100
0001
0100
0001
0010
0001
1000
0001
0100
0001
0100
0001
0100
0001
,
0100
0100
0100
0001
0001
0001
1000
1000
0001
0001
0001
1000
1000
1000
0010
0010
,
0100
1000
0010
1000
0010
1000
0100
1000
0001
1000
0010
1000
0010
1000
0010
1000
,
0010
0010
0010
1000
1000
1000
0001
0001
1000
1000
1000
0001
0001
0001
0100
0100
,
1000
0010
0001
0010
0001
0010
1000
0010
0100
0010
0001
0010
0001
0010
0001
0010
,
0001
0001
0001
0010
0010
0010
0100
0100
0010
0010
0010
0100
0100
0100
1000
1000
,
0001
1000
0001
1000
0200
0300
0010
0001
1000
0000
0001
0000
0010
0000
0200
0300
,
0001
0000
0000
0010
0000
0000
0100
0000
2000
0000
3002
0000
2003
0000
3002
0003
,
0001
0010
0100
1000
1000
0100
0010
0100
0010
0001
0010
0100
1000
0100
0010
0100
,
1000
0010
1000
0100
0010
0100
0010
0001
0010
0100
0010
0001
0220
0000
0330
0000
,
0220
0000
0330
2002
0000
3003
0220
0030
0322
0000
0033
2002
0000
3003
1001
0000
,
0002
0103
0002
0103
2000
0000
3000
0000
1000
0100
0010
0002
0000
0000
0000
0003
,
0010
1000
0100
1000
0001
0100
0010
0100
0001
0010
0100
1000
0001
0100
0010
0100
,
1000
0100
0010
0100
0010
0001
0010
0001
0010
0001
0010
0100
1000
0001
1000
0001
,
1001
0000
0001
1000
0001
0000
0010
0000
0100
0000
1000
0000
0100
0000
0010
0000
,
1001
0000
0001
1000
0001
0000
0010
0000
1000
0000
0100
0000
0020
0000
0030
0000
,
1001
0000
0001
1000
0001
0000
0100
0000
0010
0000
0001
0000
0010
0000
0100
0000
,
0001
0010
0100
1000
0001
0010
0100
1000
0001
0010
0100
1000
2200
0000
3300
0000
,
1001
0000
1000
0001
1000
0000
0100
0000
0010
0000
0001
0000
0010
0000
0100
0000
,
1001
0000
1000
0001
1000
0000
0100
0000
0001
0000
0010
0000
0200
0000
0300
0000
,
1001
0000
1000
0001
1000
0000
0010
0000
0100
0000
1000
0000
0100
0000
0010
0000
,
0001
0010
0100
1000
0100
0010
0001
0010
1100
0000
0110
0000
0011
0000
1001
0000
,
1000
0100
0010
0001
0010
0100
0010
0001
0011
0000
0110
0000
1100
0000
1001
0000
,
0000
0000
0000
0000
,
0001
0010
0100
0010
0100
1000
0001
0010
0100
1000
0001
0010
0100
0010
0100
1000
,
0100
0010
0001
1000
0100
0010
0001
0010
0001
0100
0010
0100
2000
0000
0000
3000
,
0001
0010
0100
1000
0100
1000
0100
0010
0001
0010
0001
0100
0001
0100
0010
1000
,
0001
0100
0010
0100
0001
0010
0100
0010
2002
3003
2002
3003
2002
0000
0000
3003
,
1000
0001
1000
0010
1000
0100
0010
0001
0010
0001
0010
0100
1000
0100
0010
0001
,
1000
0100
1000
0010
1000
0100
0010
0001
0010
0001
0010
0100
2000
0000
3000
0000
,
0001
0010
0100
0010
0100
1000
0100
0010
0100
0010
0001
0010
0001
0010
0100
1000
,
0100
0010
0100
1000
0010
0100
0001
0010
0001
0010
0100
1000
0001
0010
0100
1000
,
2002
3003
0110
2002
3003
0110
1001
0110
,
0001
0010
0100
1000
0100
0010
2002
3003
,
1001
1002
0013
1010
1001
0220
0332
0003
,
2002
3003
2002
3000
0013
0000
0100
0000
2000
0000
3100
0000
0220
0000
0330
0000
,
0002
0023
0230
2300
3002
0013
0100
0010
0002
2003
3020
2030
3002
2003
3100
0020
,
0031
0010
0100
1000
0100
0020
0032
0023
0032
2003
3002
0023
2030
0000
3000
0000
,
0001
0100
0001
0100
0001
0100
0010
0100
0001
0100
0001
0100
0001
0100
0010
0100
,
0001
0100
0001
0100
0001
0100
0010
0100
2000
0000
0000
0000
0200
0000
3300
0000
,
0001
0000
0000
0010
0000
0000
0100
0000
0001
0000
0010
0000
0100
0000
1000
0000
0001
0000
0010
0000
0100
0000
1000
0000
0001
0000
0010
0000
0100
0000
1000
0000
,
1001
2002
3003
0100
0010
0001
0220
0330
,
1000
0010
0100
0001
1000
0100
0010
0100
1000
0010
0100
0001
,
0010
0100
0010
0100
0010
0000
0200
0000
0320
0000
0130
0000
1000
0000
0001
0000
,
1000
0100
0010
0001
1000
0100
0010
0001
1000
0100
0010
0001
1000
0100
0010
0001
,
1000
0100
0010
0001
0001
0010
0100
1000
0001
0010
0001
0100
2000
0000
3002
0003
,
0001
1000
0001
1000
0001
0100
0001
0100
2002
0000
0000
0000
0000
0000
0000
3003
,
0001
0010
0100
1000
0001
0010
0100
1000
2002
0000
0000
0000
0000
0000
3003
0000
,
2002
0000
0000
0000
0000
0000
3003
0000
2002
0000
0000
0000
3003
0000
0010
0100
,
1000
0000
0100
0000
0010
0000
0002
0000
0000
0000
0000
0000
0003
0000
0001
0010
,
1000
0100
0010
0001
0001
0010
0100
1000
,
1000
0010
0001
0100
2002
0000
0000
3003
,
0000
0000
0002
0003
0010
0000
0100
1000
,
2000
0000
3000
0200
0300
0020
0030
0001
,
0002
0013
0100
1000
0100
0010
0001
0020
,
0000
0030
0001
0010
0002
0013
0200
0300
,
0001
1000
0010
0200
0300
1000
0100
0010
,
0001
0000
0010
0000
0100
0000
1000
0000
0001
0010
0100
0010
0002
0000
0003
0000
,
0002
0013
0020
0130
0200
1300
2000
3100
,
0001
0001
0001
0100
0100
0100
0200
0300
,
0001
0000
0000
0010
0000
0000
0100
0000
0000
1000
0000
0000
0100
0000
0000
0010
0000
0000
0001
0000
0010
0000
0100
0000
1000
0000
0000
0100
0000
0000
0010
0000
0000
0001
0000
0000
0010
0000
0000
0100
0000
0000
1000
0000
0100
0000
0010
0000
,
0001
0010
0100
1000
0001
0010
0100
1000
0001
0100
0010
1000
0001
0000
0100
0000
,
0001
0000
0001
0010
0100
1000
0100
0010
1000
0100
0010
0001
1000
0100
0010
0001
,
1000
0100
0010
0001
1000
0100
0010
0001
0010
0100
1000
0100
0010
0001
0010
0000
,
0002
0000
0000
0000
0000
0003
0020
0000
0000
0030
0200
0000
0000
0300
1000
0000
,
0001
0010
0000
0200
0300
1000
0000
0010
,
0001
0010
0100
1000
0001
0100
0001
0010
2002
0000
0000
0000
0000
0000
3003
0000
,
0001
1000
0010
0200
0000
0000
0000
0300
,
0001
0001
1000
0001
0001
1000
0001
1000
,
0001
0010
0000
0100
0000
1000
2002
3003
,
1000
0010
0100
0001
1000
0010
0100
0001
1000
0010
0100
0001
1000
0010
0100
0001
,
0100
1000
0001
1000
0001
0010
0100
1000
0001
0100
0001
0100
0001
0010
0100
1000
,
0001
0001
1000
1000
0100
0100
1000
1000
0010
0010
1000
1000
0100
0100
1000
1000
,
0001
1000
0001
1000
0001
1000
0001
1000
0001
1000
0001
1000
0001
1000
0001
1000
0001
1000
0001
1000
0001
1000
0001
1000
,
0001
0010
0001
0100
1000
0100
0010
0001
0100
0010
0001
0010
0100
1000
0100
0010
,
0001
0001
0010
0100
1000
1000
0100
0100
0010
0100
0010
0001
2002
0000
3003
0000
,
0100
0010
0100
0020
0030
0001
0000
0001
,
0010
0100
0020
0000
0030
0000
0001
0000
0010
0000
0100
0000
2200
0000
3300
0000
,
0001
0010
0100
1000
0001
0010
0100
1000
0001
0100
0001
0100
0001
0100
0001
0100
,
0001
1000
0001
1000
0001
1000
0001
1000
0001
1000
0001
1000
0001
1000
0001
1000
0001
1000
0001
1000
0001
1000
0001
1000
,
0002
0000
0000
0000
0000
0020
0003
0000
0000
0000
0000
0200
0030
0000
0000
2000
0300
0000
0000
0000
0000
0200
3000
0000
0000
0000
0000
0020
0300
0000
0030
2002
,
0000
0000
0000
0000
3003
0002
0023
0230
,
2300
0000
0000
0000
0000
0200
3000
0000
0000
0000
0000
0020
0300
0000
0000
0002
0030
0000
0000
0000
0000
0220
0003
0000
0000
0000
0330
2002
0000
0000
3003
0220
,
0000
0000
0000
0000
0000
0000
0000
0000
0330
0000
0220
0330
0022
0033
0220
0330
,
2200
0000
0000
0000
3300
0220
0000
0000
0000
0000
0330
0022
0000
0000
0033
0220
0000
0000
0000
0000
0330
2020
0000
0000
0000
0000
3030
0202
0000
0000
0303
2002
,
0000
0000
0000
0000
3003
0022
0000
0000
0000
0000
0033
2200
0000
0000
3300
2002
0000
0000
0000
0000
0000
0000
0000
0000
0000
0000
0000
0000
3223
0000
0330
0000
,
0022
0000
0000
0000
0033
0220
0000
0000
0000
0000
0330
2200
0000
0000
3300
0220
0000
0000
0000
0000
0330
0022
0000
0000
0000
0000
0033
0000
0220
0000
0330
0000
,
1001
0000
0000
0000
,
0010
0000
0100
0000
1000
0100
1000
0000
0100
0000
0010
0000
0001
0010
0001
0000
,
0010
0000
0001
0000
0100
0001
0100
0000
0001
0000
0100
0000
0010
1000
0010
0000
,
0001
0000
1000
0000
0010
1000
0010
0000
1000
0000
0001
0000
0100
0001
0100
0000
,
0001
0000
0100
0000
1000
0100
1000
0000
0100
0000
1000
0000
0001
0010
0001
0000
,
0001
0010
0001
0010
0001
0010
0100
1000
0100
1000
0100
1000
0010
0100
0010
0100
,
0001
1000
0001
1000
0001
1000
0010
0001
0010
0001
0010
0001
0100
0010
0100
0010
,
1000
0100
0010
0001
0010
0100
1000
0001
0100
0010
1000
0001
0010
0001
0100
0010
,
0001
0010
0100
1000
0100
0010
0001
1000
0010
0100
0001
1000
0100
1000
0010
0100
,
1000
0000
0001
0000
0100
0001
0100
0000
0001
0000
1000
0000
0010
1000
0010
0000
,
1000
0000
0010
0000
0001
0010
0001
0000
0010
0000
0001
0000
1000
0100
1000
0000
,
0001
0010
0100
1000
0001
0010
0001
0010
0100
1000
0010
1000
0001
0100
0010
1000
,
0001
0010
0100
1000
0010
0100
0001
1000
0010
1000
0100
0010
0001
1000
0100
0010
,
0001
0010
0001
0010
0001
0010
0100
1000
0100
1000
0100
1000
0010
0100
0010
0100
,
1001
0000
0000
0000
,
0100
0010
0001
0010
0001
0010
0100
0010
0001
0010
0001
0010
0100
0010
0001
0010
,
0100
0010
0001
0010
0001
0010
0100
0010
0001
0010
0001
0010
0100
0010
0001
0010
,
0001
1000
0100
1000
0100
1000
0001
1000
0100
1000
0100
1000
0001
1000
0100
1000
,
0001
1000
0100
1000
0100
1000
0001
1000
0100
1000
0100
1000
0001
1000
0100
1000
,
0010
0100
1000
0100
1000
0100
0010
0100
1000
0100
1000
0100
0010
0100
1000
0100
,
0010
0100
1000
0100
1000
0100
0010
0100
1000
0100
1000
0100
0010
0100
1000
0100
,
0001
1000
0010
1000
0010
1000
0001
1000
0010
1000
0010
1000
0001
1000
0010
1000
,
0100
0001
0010
0001
0010
0001
0010
0001
0010
0100
0010
0100
0010
0001
0010
0100
,
1000
0001
0100
0001
0100
0001
1000
0001
0100
0001
0100
0001
1000
0001
0100
0001
,
1000
0001
0100
0001
0100
0001
1000
0001
0100
0001
0100
0001
1000
0001
0100
0001
,
0010
0001
0100
0001
0100
0001
0010
0001
0100
0001
0100
0001
0010
0001
0100
0001
,
0010
0001
0100
0001
0100
0001
0010
0001
0100
0001
0100
0001
0010
0001
0100
0001
,
0100
1000
0001
1000
0001
1000
0100
1000
0001
1000
0001
1000
0100
1000
0001
1000
,
0100
1000
0001
1000
0001
1000
0100
1000
0001
1000
0001
1000
0100
1000
0001
1000
,
0001
0000
0000
0010
0000
0000
0100
0000
0000
1000
0000
0000
0100
0000
0010
0000
0001
0000
0010
0000
0000
0100
0000
0000
1000
0000
0000
0010
0000
0000
0100
0000
0000
0001
0000
0000
1000
0000
0000
0010
0000
0000
0100
0000
0000
0001
0000
0000
,
1000
0000
0000
0100
0000
0000
0010
0000
0000
0001
0000
0000
0010
0000
0000
0100
0000
0000
0001
0000
0000
0010
0000
0000
1000
0000
0100
0000
0010
0000
0001
0000
0010
0000
0100
0000
1000
0000
0100
0000
0010
0000
0001
0000
0000
0010
0000
0000
,
1001
1001
0110
1001
0000
0110
0000
1001
0000
0110
0000
1001
1100
0110
0011
0110
,
1100
0110
0110
0110
0000
1001
0000
1001
0000
0110
0000
0101
0110
1010
0110
0101
,
1001
0110
1001
0110
0000
1001
0000
1001
0000
1001
0000
1001
0110
0110
0110
0000
,
2002
0000
0000
0000
,
0000
0000
0000
0000
,
0000
0000
0000
0000
,
0000
0000
0000
0000
0000
0000
0000
0000
0000
0000
0000
0000
0000
0000
0000
3003
,
1000
0100
0010
0100
1000
0100
0010
0100
,
2200
0000
3300
0000
,
0001
0000
0000
0010
0000
0000
0100
0000
0000
1000
0000
0000
0001
0000
0000
0010
0000
0000
0100
0000
0000
1000
0000
0000
0001
0000
0000
0000
0000
0000
0000
0000
0010
0000
0000
0000
0000
0000
0000
0000
1000
0000
0000
0000
0000
0000
0000
0000
,
2002
0000
3003
0000
;
