#TITLE:Na De Na;
#SUBTITLE:;
#ARTIST:Angel y Kriss;
#TITLETRANSLIT:;
#SUBTITLETRANSLIT:;
#ARTISTTRANSLIT:;
#CREDIT:;
#BANNER:banner.JPG;
#BACKGROUND:DoLL-bg.png;
#LYRICSPATH:;
#CDTITLE:./CDTITLES/BEATMANIA IIDX.PNG;
#MUSIC:08 Na De Na Feat Gocho & Jon Eric.ogg;
#OFFSET:-0.212;
#SAMPLESTART:111.700;
#SAMPLELENGTH:16.000;
#SELECTABLE:YES;
#DISPLAYBPM:120.000;
#BPMS:0.000=120.000;
#STOPS:;
#BGCHANGES:;
// cache tags:
#FIRSTBEAT:12.000;
#LASTBEAT:400.000;
#SONGFILENAME:Songs/Reggaeton and more/Na De Na/Na De Na.sm;
#HASMUSIC:1;
#HASBANNER:1;
#MUSICLENGTH:202.775;
// end cache tags

//---------------dance-double - Blank----------------
#NOTES:
     dance-double:
     Blank:
     Challenge:
     11:
     0.402,0.578,0.118,0.212,0.185,502.000,24.000,43.000,0.000,0.000:



00000000
00000000
00000000
00000000
,
00000000
00000000
00000000
00000000
,
00000000
00000000
00000000
00000000
,
00000000
10000000
01000000
00100000
00010000
01000000
00100000
01000000
,
01010000
00000000
00000000
00000000
00010000
00000000
00100000
00001000
00010000
00000000
00001000
00010000
00001000
00000000
00010000
00000000
,
00010100
00000000
00000000
00000000
00000100
00000000
00001000
00000010
00000100
00000000
00000010
00000100
00000010
00000000
00001000
00000000
,
00001001
00000000
00000000
00000000
00000001
00000000
00001000
00000001
00000010
00000000
00000001
00001000
00000010
00000000
00001000
00000000
,
00000110
00000000
00001000
00000001
00000100
00000000
00000010
00001000
00000010
00000100
00000010
00001000
00000001
00000100
00000010
00001000
,
00000020
00000000
00000000
00000130
00000000
00000000
00000002
00000000
,
00000103
00001000
00010000
01000000
10000000
00100000
01000000
00010000
,
00200000
00000000
01000000
02000000
03300000
00000000
20000000
00000000
,
30100000
00010000
00001000
00000010
00000001
00000100
00000010
00001000
,
00000200
00000000
00000010
00000020
00000330
00000000
00000200
00000000
,
00010300
00001000
01000000
00100000
01000000
00010000
00100000
01000000
,
20000000
00000000
00000000
00000000
00000000
00000000
30010000
01000000
00100000
01000000
00010000
01000000
00100000
00000000
00000000
00000000
,
10000000
00010000
10000000
01000000
00100000
00010000
10000000
00100000
01000000
00100000
10000000
00010000
01000000
00010000
10000000
00100000
,
10000000
00010000
01000000
00001000
00100000
00001000
00010000
00001000
,
00000100
00000001
00000010
00000100
00000010
00000001
00001000
00001000
,
00001000
00000001
00000100
00000010
00010000
00001000
00010000
00010000
,
00010000
00001000
01000000
10000000
01000000
00010000
00100000
00100000
,
00100000
01000000
10000000
00010000
00100000
01000000
00100000
00001000
,
00010000
01000000
00010000
00001000
00000010
00000001
00001000
00001000
,
00001000
00000100
00010000
00001000
00100000
10000000
00100000
01000000
,
10000000
00010000
01000000
00001000
00010000
00010000
00010000
00000000
,
00000010
00000000
00000100
00000100
00000000
00000101
00000000
00001001
,
00000000
00010001
00000000
00010100
00000000
00000100
00010000
00001000
,
02000000
00000000
00000000
00100000
,
10000000
00010000
00001000
00000100
,
03000020
00000000
00000000
00000001
,
00000100
00001000
00010000
00100000
,
02000030
00000000
00000000
00000000
00000000
00000000
03001000
00010000
00001000
00010000
00001000
00010000
00001000
00010000
00001000
00010000
,
00011000
00000000
00000000
00100010
00000000
00000000
00010000
00000000
00001000
00000000
00000100
00000000
00000010
00000000
00001000
00000000
,
00000001
00000000
00000000
10000000
00000000
00000000
00000000
00000000
,
00000001
00000000
00000000
10000000
00000000
00000000
00000001
00000000
,
00000100
00000000
00000000
10000000
00100000
00000000
00000000
00000000
,
00022000
00033000
00000000
00000000
00000000
00000000
00000000
00000000
00020000
00000000
00000000
00000000
00031000
00000000
00000000
00000000
,
00010000
00000100
00000001
00000100
00020000
00000000
00031000
00000000
,
00010000
00000010
00000001
00000010
00020000
00000000
00031000
00000000
,
00010010
00000000
00000000
00011000
00020200
00000000
00000000
00000000
,
00030300
00000000
00011000
01001000
,
00002000
00000000
00000000
00103000
00000000
00000000
01000000
00000000
,
20000000
30020000
00032000
00003002
,
00000103
00000000
00001010
00001001
00000000
00000000
00000101
00000000
,
00000002
00002003
00023000
20030000
,
31000000
00000000
00110000
10010000
00000000
00000000
11000000
00000000
,
02000000
03200000
00302000
00003200
,
00000302
00000000
00000000
00000000
00000000
00000000
00000013
00000100
00000010
00000100
00001000
00000100
00010000
00000100
00010000
00000100
,
00010000
00001000
00010000
00001000
00010000
00001000
00100000
00001000
00100000
00001000
00100000
00010000
00100000
00010000
00100000
01000000
,
10000000
00000000
00010000
00000000
01000000
00000000
00010000
00000000
10000000
01000000
10000000
00000000
00010000
00000000
01000000
00000000
,
00001000
00000000
00010000
00000000
00000100
00000000
00010000
00000000
00000010
00001000
00000010
00000000
00001000
00000000
00000001
00000000
,
00000010
00000000
00000100
00000000
00010000
00000000
00001000
01000000
00001000
00000000
00010000
00000000
00001000
00000000
00100000
00000000
,
10000000
00000000
00100000
00000000
01000000
00000000
10000000
00010000
01000000
00010000
01000000
00000000
00100000
00000000
10000000
00000000
,
01000000
00000000
00010000
00000000
00001000
00000000
00010000
00000000
00000100
00001000
00000100
00000000
00010000
00000000
00000010
00000000
,
00000001
00000000
00000010
00000000
00000100
00000000
00000001
00000000
00000010
00000100
00000010
00000000
00000001
00000000
00001000
00000000
,
00000100
00000000
00010000
00000000
00000100
00000000
00001000
00000000
00000100
00010000
00000100
00000000
00010000
00000000
00001000
00000000
,
01000000
00000000
10000000
00000000
01000000
00000000
00100000
00000000
01000000
00010000
01000000
00000000
00001000
00000000
00100000
00010000
,
40000000
00000000
00000000
00000000
00000000
00000000
00000000
30000000
,
00100000
00000000
00000000
01000000
00000000
00000000
00000000
00000000
,
00000010
00000000
00000000
00000100
00000000
00000000
00002000
00000000
,
00020000
00000000
00033000
00000000
,
11000000
00000000
00000011
00000000
,
01000000
00000000
00000000
00000100
00000000
00000000
00100000
00000000
,
00000010
00000000
00000000
10000000
00000000
00000000
00001000
00000000
,
00020000
00000000
00000000
00030000
,
00000002
00000003
00002000
00003002
,
00001003
00000100
00000010
00000100
00010000
00001000
00010000
01000000
,
00100000
01000000
10000000
00010000
01000000
00100000
01000000
00001000
,
00010000
00001000
00000100
00000010
00000100
00000001
00000010
00000100
,
00000010
00000000
00000001
00000000
00000100
00000000
00000010
00001000
00000001
00000000
00001000
00000100
00000010
00000001
00000010
00000100
,
00001000
00000001
00010000
00000001
00010000
00001000
00010000
00001000
,
10000000
00001000
10000000
00001000
10000000
00010000
10000000
00010000
,
01000000
00000100
01000000
00000100
00010000
00001000
00010000
00001000
,
00100000
00000010
00100000
00000010
00001000
00000001
00001000
00000001
,
00010000
00001000
00010000
00001000
01000000
00000010
01000000
00000010
,
00010000
00001000
00010000
00000100
00100000
00000100
00100000
00001000
,
00020000
00000000
00000000
00000000
00031000
00000000
00100000
00010000
00100000
01000000
10000000
01000000
00100000
01000000
10000000
00010000
,
01000000
00100000
10000000
00100000
01000000
00010000
01000000
00100000
01000000
00001000
00010000
00001000
00020000
00000000
00000000
00000000
,
00031000
00000100
00001000
00010000
01000000
00010000
00001000
00000010
00001000
00010000
00100000
00020000
,
00002000
00000000
00000000
00000000
,
00000000
00000000
00000000
00000000
,
00000000
00000000
00000000
00000000
00000000
00000000
00000000
00033000
;

//---------------dance-double - Blank----------------
#NOTES:
     dance-double:
     Blank:
     Easy:
     3:
     0.169,0.239,0.133,0.128,0.000,187.000,27.000,26.000,0.000,0.000:












00000000
00000000
00000000
00000000
,
00000000
00000000
00000000
00000000
,
00000000
00000000
00000000
00000000
,
10000000
00010000
10000000
01000000
,
00100000
00010000
10000000
00000000
,
00010000
01000000
00001000
00000000
,
00020000
00000000
00000200
00000000
,
00030300
00000000
00000100
00001000
,
00000001
00000000
00000010
00000000
,
00000100
00000000
00001000
00000000
,
00000001
00000000
00000100
00000000
,
00001000
00000000
00010000
00000000
,
01000000
00000000
10000000
00000000
,
00100000
00000000
00010000
00000000
,
00001000
00000000
00022000
00000000
,
00000000
00000000
00000000
00033000
00000000
00000000
00000000
00000000
,
00000000
00010000
00010000
00010000
,
00001000
00001000
00001000
00000000
,
00000000
00010000
00000010
00000100
,
00000010
00000000
00001001
00000000
,
00000000
00000001
00000001
00000001
,
00000010
00000010
00000010
00000000
,
00000000
00000100
00001000
00000010
,
00010000
00000000
00011000
00000000
,
00001000
00001000
00100000
00100000
,
00010000
00010000
10000000
10000000
,
02000000
00000000
03000000
00100000
,
00010000
00100000
00010000
00100000
,
10010000
00000000
00000000
10000000
,
01000000
10000000
01000000
10000000
,
02200000
00000000
00000000
03300000
,
20020000
00000000
00000000
30030000
00000000
00000000
00000000
00000000
01000000
00000000
00000000
00000000
00100000
00000000
00000000
00000000
,
10010000
00000000
00000000
00000000
,
00011000
00000000
00000000
00000000
,
00001001
00000000
00000000
00000000
,
00000220
00000330
00000001
00001000
,
00000001
00000001
00000001
00000001
,
00000010
00000010
00000010
00000010
,
00000100
00000100
00000100
00000100
,
00010000
00010000
00001000
00100000
,
01000000
00000000
10000000
00000000
,
00010000
00010000
00010000
00010000
,
10000000
10000000
10000000
10000000
,
01000000
01000000
01000000
01000000
,
00100000
00100000
00100000
00100000
,
00010000
00010000
00010000
00010000
,
20000000
00000000
02000000
00000000
,
00000000
00000000
00000000
33000000
,
10010000
00000000
10000000
00000000
,
01010000
00000000
01000000
00000000
,
01100000
00000000
00100000
00000000
,
10100000
00000000
01000000
00000000
,
11000000
00000000
00100000
00000000
,
10010000
00000000
01000000
00000000
,
00101000
00000000
00010000
00000000
,
01001000
00000000
00000000
00000000
00000000
00000000
00000000
00000000
00011000
00000000
00000000
00000000
00022000
00000000
00000000
00033000
,
00000000
00000000
00000000
00000000
,
10010000
00000000
00000000
00000000
,
00011000
00000000
00000000
00000000
,
00001001
00000000
00000000
00000000
,
00000001
00000000
00000010
00000000
,
00000100
00000100
00001000
00000100
,
00000010
00000001
00000100
00000001
,
00002000
00000000
00000000
00003000
,
00000202
00000303
00000100
00000010
,
00001000
00000000
00000001
00000000
,
00000100
00000000
00000010
00000000
,
00001001
00000000
00000220
00000000
,
00000330
00000000
00000010
00001000
,
00000100
00000000
00010000
00000000
,
00001000
00001000
00001000
00001000
,
00002000
00000000
00103000
00000000
,
00010000
00010000
00010000
00010000
,
00020000
00000000
01030000
00000000
,
00100000
00100000
00100000
00100000
,
00200000
00000000
00000000
00000000
,
20000000
00000000
00000000
30300000
,
10000000
01000000
00010000
00001000
,
00022000
00000000
00000000
00000000
,
00000000
00000000
00000000
00000000
,
00000000
00000000
00000000
00000000
00000000
00000000
00000000
00033000
;

//---------------dance-double - Blank----------------
#NOTES:
     dance-double:
     Blank:
     Medium:
     5:
     0.241,0.299,0.118,0.168,0.015,284.000,24.000,34.000,0.000,0.000:











00000000
00000000
00000000
00000000
,
00000000
00000000
00000000
00000000
,
00000000
00000000
00000000
00000000
,
00000000
00001000
00010000
00010000
00002000
00000000
00203000
00000000
,
01300000
20000000
30100000
10000000
,
00020000
01030000
00001000
00020000
,
00030100
00000000
00000000
00001000
00000020
00000000
00000000
00000000
,
00000000
00000000
00000030
00000000
00000100
00000100
00000100
00000100
,
00000100
00000000
00000001
00000010
00000000
00000010
00000001
00000000
,
00001000
00000100
00000100
00000100
,
00000100
00000000
00001000
00000001
00000000
00000001
00000100
00000000
,
00000010
00001000
00001000
00001000
,
00001000
00000000
00000001
00000010
00000000
00000010
00000100
00000000
,
00010000
00001000
00001000
00001000
,
00001000
00000000
00000000
00010000
00001000
00000000
00001000
00100000
,
00010000
10000000
00100000
01010000
,
00000000
10000000
00010000
10000000
00010000
00000000
00000000
00100000
,
00000000
00001000
00000000
01000000
00000000
00000000
00000000
00000000
,
00000000
00100000
10000000
00010000
10000000
00000000
00000000
01100000
,
00000000
00000000
00000000
00000000
10010000
00000000
10000000
00100000
,
01000000
00010000
10000000
00010000
10000000
00000000
00000000
01000000
,
00000000
00100000
00000000
00010000
00000000
00000000
00000000
00000000
,
00000000
01000000
00001000
00100000
00001000
00000000
00000000
00101000
,
00000000
00010000
00001000
00010000
,
00000100
00000000
00000010
00000001
00000000
00000001
00000100
00001000
,
00000100
00000010
00000000
00010000
00000000
00000100
00001000
00000001
,
00001000
00000000
00000000
00000001
,
00000010
00000100
00000010
00000001
,
00001100
00000000
00000000
00010000
,
00000100
00010000
01000000
10000000
,
00200000
00000000
00000000
00000000
00000000
00000000
00000000
00300000
,
01000000
00000000
00000000
00010000
00000000
00000000
10000000
00000000
00100000
00000000
10000000
00000000
00100000
00000000
10000000
00000000
,
10100000
00000000
00000000
00000000
,
00011000
00000000
00000000
00000000
,
00000101
00000000
00000000
00000000
,
00002020
00003030
00001000
00000100
,
00010000
00000000
00001000
00100000
00000000
00100000
00010000
00000000
,
10000000
00000000
00100000
01000000
00000000
01000000
00010000
00000000
,
10000000
00000000
00000000
01000000
01000000
00000000
00000000
00000000
,
10010000
00000000
00010000
00100000
,
01000000
00000000
10000000
00010000
00000000
00010000
01000000
00000000
,
00010000
00100000
00001000
00010000
,
00002000
00000000
00013000
00000100
00000000
00000100
00001000
00000000
,
00001001
00000001
00000101
00000100
,
00000110
00000000
00000010
00001000
00000000
00001000
00000001
00000000
,
00000011
00000000
00001100
00000000
,
00010100
00000000
00011000
00000000
,
00010000
00001000
00010000
00001000
00010000
00000000
00002000
00000000
,
00103000
00010000
02000000
03100000
,
10000000
00010000
00200000
01300000
,
10000000
00010000
02000000
03010000
,
00100000
00001000
00020000
00030100
,
00001000
00000010
00002000
00003001
,
00000010
00000100
00000020
00000031
,
00001000
00000001
00000200
00000310
,
00001000
00000000
00000000
00000000
00000100
00000000
00000000
00000000
00020000
00000000
00000000
00000000
00031000
00000000
00000000
00011000
,
00000000
00000000
00000000
00000000
,
11000000
00000000
00000000
00000000
,
00011000
00000000
00000000
00000000
,
00000011
00000000
00000000
00000000
,
00002000
00003000
00000200
00000300
,
00000010
00000000
00000001
00001000
00000000
00001000
00000010
00000000
,
00000100
00000000
00000001
00001000
00000000
00001000
00000100
00000000
,
00020000
00000000
00000000
00030000
,
00202000
00303000
00001000
01000000
,
00100000
00000000
10000000
00010000
01000000
00100000
01000000
00000000
,
00100000
00000000
10000000
01000000
00100000
01000000
10000000
00000000
,
00020000
00000000
00030000
00100000
02000000
00000000
00000000
00000000
,
00000000
03000000
00000000
00000000
10000000
00000000
00010000
00000000
,
00100000
00000000
00001000
00010000
00001000
00010000
00000100
00000000
,
00001000
00000010
00000100
00000010
,
00002000
00000000
00003001
00000010
00000110
00000000
00000100
00000000
,
00001000
00000001
00000010
00000100
00000020
00000000
00000031
00000000
,
00001000
00000000
00000100
00010000
00011000
00000000
00002000
00000000
,
00103000
00020000
10030000
02000000
,
23000000
00000000
00000000
00000000
,
00020000
00000000
00000000
30030000
,
00100000
00000000
10000000
01000000
00000000
01000000
00100000
00000000
00010000
01000000
00000000
00001000
,
00020000
00000000
00000000
00000000
,
00000000
00000000
00000000
00000000
,
00000000
00000000
00000000
00000000
00000000
00000000
00000000
00030000
;

//---------------dance-double - Blank----------------
#NOTES:
     dance-double:
     Blank:
     Hard:
     9:
     0.359,0.459,0.247,0.108,0.052,436.000,50.000,22.000,0.000,5.000:










00000000
00000000
00000000
00000000
,
00000000
00000000
00000000
00000000
,
00000000
00000000
00000000
00000000
,
00000000
00001000
00010000
00100000
20000000
00000000
30020000
00000000
,
00130000
01000000
10000000
01000000
00100000
00010000
01000000
00000000
,
01000000
00010000
00100000
00001000
00010000
00001000
00000100
00000000
,
00000200
00000000
00000000
00000001
00000002
00000000
00000000
00000000
,
00000010
00000313
00000000
00000000
00001000
00001000
00000001
00000001
,
00000010
00000100
00001000
00000100
00000010
00000001
00000100
00000010
,
00000100
00000110
00001010
00010010
,
00001000
00010000
01000000
10000000
01000000
00100000
01000000
00000000
,
11000000
10010000
01010000
01001000
,
00001000
00010000
00001000
00000010
00000001
00000010
00000100
00000000
,
00001100
00010100
00000110
00000011
,
00000001
00000100
00001000
00000001
00000020
00000000
00000000
00000000
,
00001000
00000001
00000100
00010030
,
00000000
00001000
00000100
00000000
00010100
00000000
00000100
00010000
,
00000000
00001000
00010000
00010000
00001000
00000000
00100000
00000000
,
00001000
00100000
00010000
01000000
00001000
00010000
00100000
10000000
,
00000000
00000000
00000000
00000000
00010000
00000000
10000000
10000000
,
10000000
00010000
01000000
00000000
01001000
00000000
00001000
00010000
,
00000000
00010000
00000100
00000100
00010000
00000000
00000010
00000010
,
00000010
00000100
00000001
00000010
00000100
00000010
00000001
00002000
,
00000001
00000000
00000100
00000000
00003010
00000010
00000010
00000000
,
00000100
00000001
00000010
00000100
00000000
00000100
00001000
00000010
,
00010000
00001000
00010000
00001000
00000000
00001000
00100000
00010000
,
01000000
00000000
00100000
00000000
10000000
00000000
10000000
01000000
,
00010000
00001000
00000100
00000001
00000010
00001000
00010000
00100000
,
20000000
00000000
01000000
00000000
30010000
00000000
10000000
00100000
,
01000000
00100000
10000000
00010000
00100000
01000000
00100000
00001000
,
00010000
00000000
00010000
00000000
00000100
00000000
00000100
00000000
00000010
00000000
00000010
00000000
00000001
00001000
00000001
00001000
,
00000001
00000000
00000000
00001001
00000000
00000000
00004000
00000000
00000000
00000000
00000000
00000000
00000000
00000000
00000000
00000000
,
00003001
00000000
00000000
00000101
00000000
00000000
00000000
00000000
,
00011000
00000000
00000000
10100000
00000000
00000000
00011000
00000000
,
00020200
00000000
00000000
00000000
,
00001001
00030300
00000000
00000000
00000000
00000000
00000000
00000000
00000100
00001000
00000100
00001000
00000100
00001000
00000100
00000000
,
00001001
00000000
00000001
00000100
00000001
00000000
00001001
00000000
,
00001010
00000000
00000010
00010000
00001000
00000000
00011000
00000000
,
01001000
00000000
01000000
00010000
00200000
00000000
01000000
00000000
,
00001000
01300000
11000000
10010000
,
10000000
00010000
00100000
01000000
00100000
00010000
01000000
00001000
,
00021000
01000000
00000100
01030000
,
00010000
00001000
00010000
00000010
00010000
00000100
00010000
00001000
,
00012000
00000010
00100000
00003010
,
00000001
00000100
00000010
00001000
00000100
00010000
00001000
00010000
,
00011000
00000010
00100000
00000100
,
01000000
00000000
00000000
00001000
00100000
00000000
00010000
10000000
,
04000000
00400000
00000000
00000000
00000000
00000000
00000000
00000000
00000000
00000000
00000000
00000000
00000000
00000000
00000000
03300000
,
00010000
10000000
01000000
00100000
00010000
00010000
01000000
00001000
,
00100000
00010000
01000000
00001000
00010000
00010000
00001000
00000010
,
00000001
00001000
00000001
00000100
00001000
00001000
00010000
00100000
,
10000000
01000000
10000000
00100000
10000000
10000000
01000000
00010000
,
00001000
00000010
00000001
00001000
00000100
00000100
00000010
00000001
,
00001000
00000010
00000100
00000001
00001000
00001000
00000100
00010000
,
01000000
10000000
00100000
01000000
00010000
00010000
10000000
01000000
,
10000000
00000000
00010000
00000000
00100000
00000000
00001000
00000000
00000010
00000000
00000010
00000000
00000001
00000000
00001000
00000200
,
00000000
00000000
00000010
00000000
00001000
00001000
00001300
00000001
,
00001001
00000000
00000000
00000011
00000000
00000000
00000000
00000000
,
00011000
00000000
00000000
11000000
00000000
00000000
00011000
00000000
,
00010000
00000100
00001000
00000010
00000100
00000001
00000010
00000100
,
00001001
00001000
00000001
00001000
00001001
00000001
00001000
00000001
,
00000100
00000000
00000010
00010000
00000000
00001000
00010000
00001000
,
00000100
00000000
00000010
00010000
00000000
00000000
00001000
00000000
,
02002000
00000000
00000000
00000000
,
10010000
03003000
00000000
00000000
00000000
00000000
00000000
00000000
00001000
00000000
00000000
00000000
00010000
00000000
00000000
00000000
,
02000000
00000000
13000000
00100000
01000000
00000000
01000000
00010000
,
00100000
01000000
00010000
00001000
00020000
00000000
00030100
00000000
,
00002000
00000000
00000000
00003010
00000100
00000000
00000001
00000000
,
00000010
00000000
00000100
00001000
00000100
00000000
00001000
00000001
00001000
00000000
00000001
00000100
00000001
00000100
00000001
00000100
,
00000010
00001000
00000100
00001000
00000010
00010000
00001000
00010000
,
00011000
00001000
00100000
00010000
10000000
01000000
00100000
00010000
,
10010000
10000000
00100000
01000000
00010000
00100000
00001000
00010000
,
00011000
00001000
00000100
00000001
00000010
00000100
00001000
00000001
,
00001001
00001000
00000010
00000100
00000010
00001000
00000001
00000100
,
00000110
00001010
00001100
00010100
,
00020020
00000000
00000000
00000000
,
00001000
00000000
00000000
00030030
,
00010000
00001000
00010000
00000100
00001000
00000100
00001000
00000001
00000100
00000001
00001000
00000002
,
00000020
00000000
00000000
00000000
,
00000000
00000000
00000000
00000000
,
00000000
00000000
00000000
00000000
00000000
00000000
00000000
00000033
;

//---------------dance-single - ----------------
#NOTES:
     dance-single:
     :
     Challenge:
     11:
     0.664,0.764,0.735,0.296,0.483,732.000,149.000,60.000,472.000,55.000:

0000
0000
0000
0000
,
0000
0000
0000
0000
,
0000
0000
0000
0000
,
0000
0000
0000
0000
,
1000
0100
0010
0001
1000
0010
0100
0001
,
1000
0000
1001
0000
1000
0010
0100
0010
,
1010
0000
0101
0000
0001
0100
0010
0100
,
0101
0000
0000
0000
1010
0000
0000
0000
1000
0100
0000
0010
0001
0000
1000
0001
,
0000
1000
0100
0001
1000
0010
0001
1000
,
1001
0000
0101
0000
0001
0100
1000
0100
,
1001
0000
0110
0000
0001
0010
1000
0010
,
1001
0000
1010
1000
0010
1000
0100
0010
,
0011
0000
0110
0000
1100
0000
0001
0010
,
22MM
0000
001M
0000
00M1
3300
1100
1001
,
M2M2
0000
M010
0000
10M0
0000
1010
0303
,
0101
0000
0000
0100
0001
0000
0010
0000
1100
0000
0000
1000
0010
0000
0100
0000
,
M22M
0000
100M
0000
M001
0330
0010
0100
,
2MM2
0000
0M10
0000
01M0
3003
1000
0001
,
2M2M
0000
0M01
0000
0M01
0000
010M
3030
,
1MM1
0000
0000
1000
0100
0000
0010
0000
0001
0000
0000
0001
0100
0000
0010
0000
,
2M2M
0000
0M0M
0000
0M0M
0000
0M0M
0000
0M0M
0000
0M0M
0000
3M3M
0000
1000
0100
,
0010
0001
0100
1000
0001
0010
1000
0100
,
MM22
0000
MM00
0000
MM00
0000
MM00
0000
MM00
0000
MM00
0000
MM33
0000
0001
0100
,
0010
1000
0100
0001
1000
0010
0011
0001
,
2MM2
0000
0MM0
0000
0MM0
0000
0MM0
0000
0MM0
0000
0MM0
0000
3MM3
0000
1000
0100
,
001M
010M
100M
001M
010M
001M
100M
010M
,
011M
0000
0000
0010
MM01
0000
0011
0000
1MM1
0000
0000
1000
01MM
0000
1100
0000
,
1001
0000
M1M1
0000
0000
0000
1M1M
0000
0000
1000
0100
0010
0001
0010
0100
0000
,
1100
0000
M100
0010
M001
0000
M001
0100
0101
0000
100M
0010
010M
0010
100M
0000
,
1001
1000
0001
0100
0010
0000
1000
0100
0010
0000
0001
0010
0220
0000
0330
0000
,
1001
0000
0000
1000
0010
0100
0001
0000
1001
0000
1000
0100
1000
0000
0001
0010
,
0001
0000
0000
0000
0000
0000
1000
0000
0000
0010
0000
0000
0000
0000
0000
0001
0000
0000
0100
0000
0000
0000
0000
0000
0101
0000
0000
0000
1001
0000
0000
0000
1100
0000
0000
0000
0110
0000
0000
0000
0000
0000
0000
0000
0000
0000
0000
0000
,
1001
0000
0000
1000
0100
0000
0010
0001
0100
0000
0010
1000
0100
0000
1100
0000
,
1001
0000
0000
0100
0001
0000
0010
0100
1000
0000
0010
0100
0001
0000
1001
0000
,
0110
0000
0000
1000
01MM
0000
1000
0100
M01M
0000
0100
0010
MM01
0000
0011
0001
,
1001
1000
0100
0010
0001
1000
0010
0100
0001
0000
10M0
0100
00M1
0000
01M0
0000
,
11MM
0000
00MM
1000
1MMM
0000
0100
0010
0001
0000
0001
0100
0010
0000
1010
0000
,
0101
0000
0000
0001
0001
0000
0010
0100
1000
0000
1000
0010
0100
0000
0101
0000
,
1010
0000
0000
0010
0100
0000
1000
0001
0100
0000
0001
1000
0100
0000
1100
0000
,
1001
0001
0010
0100
1000
0000
1000
0010
0000
0100
0000
0001
1000
0000
0011
0000
,
22MM
0000
001M
0000
001M
3300
10MM
0100
,
22MM
0000
00M1
0000
00M1
3300
10MM
0100
,
M22M
0000
M001
0000
100M
0000
1001
0330
,
M11M
0000
0000
1000
001M
0000
010M
0000
001M
0000
000M
1000
010M
0000
M01M
0000
,
2MM2
0000
01M0
0000
0M10
3003
1MM0
0001
,
M2M2
0000
M010
0000
10M0
0303
M0M1
0100
,
MM22
0000
1M00
0000
1M00
0000
M100
0033
,
1MM1
0000
0000
1000
0010
0000
0100
0000
0001
0000
0000
1000
0100
0000
0010
0001
,
0010
0100
1000
0010
0100
0000
0100
0001
0000
0010
0000
0100
1000
0000
0100
0010
,
M001
0000
M001
0010
M100
0000
M100
0010
M000
0001
M000
0100
M010
0000
M110
0000
,
1MM1
0000
000M
0110
000M
0000
100M
0100
000M
0010
010M
1000
001M
0000
010M
0010
,
010M
0010
100M
0100
001M
0100
100M
0100
M01M
0000
M10M
0010
MM01
0000
MM10
0001
,
1MM1
0000
11MM
0000
M11M
0000
MM11
0001
M010
0100
10MM
0100
M01M
0000
MM11
0000
,
1MM1
0000
00MM
1100
00M0
0000
0M01
0010
0100
1000
01MM
0000
M11M
0000
MM11
0010
,
M001
0100
M010
0100
M001
0100
M010
0100
M001
0010
M100
0010
MM01
0000
1MM1
1000
,
0MM1
1000
0MM1
1000
0MM1
0000
M1M1
0001
M1M0
0002
M0M0
0000
M1M3
0000
1000
0010
,
0100
M001
0100
001M
100M
000M
M10M
M010
MM00
MM01
MM00
M01M
M10M
01MM
10MM
1000
,
0100
0010
M001
M010
0100
000M
100M
001M
000M
0100
M0M0
M0M1
M100
M10M
001M
001M
,
100M
0100
0010
M001
M010
000M
01M0
1000
0MMM
1MMM
00MM
10MM
010M
000M
0010
0000
,
1MM1
0000
0000
0000
0000
0000
0000
0000
0000
0000
0000
0000
MMMM
0000
0000
0000
0000
0000
0000
0000
0000
0000
0000
0000
1100
0000
0000
0000
0011
0000
0000
0000
0101
0000
0000
0000
1010
0000
0000
0000
0000
0000
1000
0000
0000
0010
0000
0000
,
0100
0001
1000
0100
0010
0000
M0M1
M1M0
M0MM
M1MM
M0MM
M1M0
M0M1
M0M1
M100
M10M
,
001M
100M
010M
001M
010M
000M
100M
001M
000M
010M
000M
001M
100M
100M
01MM
0100
,
M010
MM01
MM10
MM01
MM10
M000
M0M1
M100
M000
0M10
0M0M
10MM
01MM
M000
M100
M010
,
MM01
MM00
MM10
0M01
1MM0
00M0
10MM
010M
000M
0010
0000
0001
1001
0000
0000
0000
,
1100
0100
0001
1000
0010
0001
0100
1000
,
0001
0010
1010
0000
1000
0010
0100
0010
,
1000
0000
1100
0000
0001
0010
0100
0010
,
0001
0000
0000
0000
1001
0000
0000
0000
1MMM
1000
0000
M1MM
0100
0000
MM1M
0010
,
0000
MMM0
0001
0000
0100
0000
0010
0000
0100
0000
0001
0000
1000
0000
0100
0000
,
1010
0000
0101
0000
1100
0100
0110
0010
,
0011
0000
1001
0000
1010
0100
0011
0001
,
1010
0000
1001
1000
0100
0001
0010
1000
,
22MM
000M
001M
0000
00M1
33M0
10MM
0010
,
2M2M
000M
010M
0000
0M01
3M30
1M0M
0001
,
2MM2
0M00
0M10
0M00
0M10
0000
0110
3003
,
1MM1
0000
1100
0011
0101
0000
1010
0000
,
2MM2
00M0
01M0
0000
0M10
3003
M1MM
0010
,
M22M
000M
100M
0000
M001
0330
1000
0100
,
22MM
0000
001M
0000
00M1
0000
0011
3300
,
1MM1
0000
1010
0101
1001
1100
0011
0110
,
2200
0000
0000
0010
0001
0000
0010
0000
0011
0000
0000
00M0
330M
0000
1000
0100
,
0010
0001
0100
1000
0001
0010
1000
0100
,
0202
0000
0000
0010
1000
0000
1000
0000
1010
0000
0000
00M0
M303
0000
0001
0100
,
0010
1000
0010
0100
0001
0010
0110
1100
,
1001
0000
0000
1000
0010
0000
M100
0000
M010
0000
M000
0100
M001
0000
M010
0100
,
M001
010M
100M
001M
010M
001M
100M
010M
,
011M
0000
000M
1000
010M
0000
M01M
0000
M10M
0000
M000
0100
M001
0000
M100
0000
,
0010
1001
0000
1010
0000
0101
1010
0000
,
1001
0000
0000
0000
MMMM
0000
MMMM
0000
0000
0000
1000
0100
0010
0000
0001
0000
,
1001
0000
MMMM
MMMM
MMMM
0000
1100
0101
,
1001
0000
2000
0200
,
0001
0000
0000
3300
0000
0000
0000
0000
0000
0000
0000
0000
1100
0000
0110
0000
0011
0000
0110
0000
0000
0000
0000
0000
,
1100
0000
0000
0100
0010
0000
0001
0000
0011
0000
0000
0001
0100
0000
0010
0000
,
1010
0000
2000
0000
0002
0000
0010
3003
,
2000
3200
0302
2003
,
3020
0000
0032
2000
0010
0000
0100
3003
,
1000
0000
0000
0100
0000
0000
1000
0000
0000
0100
0000
0000
1000
0000
0000
0000
0100
0000
0000
0000
0010
0000
0000
0000
0001
0000
0000
0000
0010
0000
0000
0000
0100
0000
0000
0000
1000
0000
0000
0000
0010
0000
0000
0000
0100
0000
0000
0000
,
0001
0100
0010
1000
0100
0010
0100
1000
0010
0100
0010
1000
,
0100
2000
0200
0010
,
3301
0000
1000
0100
0010
0000
111M
0000
,
MMMM
0000
0000
0000
;
