#TITLE:Megaman X2 Intro;
#SUBTITLE:;
#ARTIST:Capcom;
#TITLETRANSLIT:;
#SUBTITLETRANSLIT:;
#ARTISTTRANSLIT:;
#CREDIT:;
#BANNER:Megaman X2 Intro Banner.bmp;
#BACKGROUND:MMX2 Background.bmp;
#LYRICSPATH:;
#CDTITLE:XMaxX.PNG;
#MUSIC:MMX2 Intro.mp3;
#OFFSET:0.000;
#SAMPLESTART:0.001;
#SAMPLELENGTH:16.000;
#SELECTABLE:YES;
#BPMS:0.000=197.199;
#STOPS:;
#BGCHANGES:;
// cache tags:
#FIRSTBEAT:5.000;
#LASTBEAT:166.500;
#SONGFILENAME:Songs/zelda et megaman/MMX2 Intro/MMX2 Intro.sm;
#HASMUSIC:1;
#HASBANNER:1;
#MUSICLENGTH:52.558;
// end cache tags

//---------------dance-single - ----------------
#NOTES:
     dance-single:
     :
     Hard:
     9:
     0.712,0.672,0.514,0.285,0.029,220.000,27.000,15.000,0.000,0.000:
0000
0000
0000
0000
,
0000
0000
1000
0001
0100
0010
1000
0100
,
0010
0001
0100
0010
1000
0001
1000
0001
,
0010
0100
1000
0001
0100
0010
2000
0000
,
0000
0002
3000
0000
1000
0003
1000
0000
,
0001
0000
1001
0000
0110
0000
0001
0100
,
0010
1000
0001
0000
1000
0001
0000
0001
,
1000
0000
1001
0000
0000
1001
0000
0001
,
0100
0010
1000
0000
0000
1001
0000
0000
,
0002
0000
2000
0003
0000
3001
0000
2000
,
0000
0000
3002
0000
0000
1003
0000
0001
,
0100
0010
1000
0000
0000
1001
0000
2000
,
0000
0000
3002
0000
0000
1003
0000
1001
,
0000
0001
0100
0010
1000
0100
0010
0100
,
0010
0001
0100
0010
1000
0001
0100
0010
,
1000
0010
1000
0100
0010
0001
0010
0001
,
0100
0010
1000
0001
0100
0010
1000
0100
,
0010
0001
0010
0100
1000
0001
0100
0010
,
1000
0100
1000
0100
0010
0001
0010
0001
,
0100
0010
1000
0001
0100
0010
1000
0100
,
0010
0001
0010
0100
1000
0001
1000
0001
,
1000
0010
0100
0000
0010
0000
1000
0000
,
1010
1010
0000
0010
1000
0000
0001
0000
,
0101
0101
0000
0100
0001
0000
1000
0000
,
1001
1001
0000
0001
1000
0000
0001
0000
,
1000
1001
1000
0100
,
1100
1100
0000
1000
0100
0000
0010
0000
,
0011
0011
0000
0010
0001
0000
1000
0000
,
1001
1001
0000
1000
0001
0000
1000
0000
,
0001
0000
1000
0001
0100
0010
1000
0100
,
0010
0001
0100
0010
1000
0001
1000
0001
,
0010
0100
1000
0001
0100
0010
2000
0000
,
0000
3002
1000
1003
,
0001
0000
1001
0000
0110
0000
0001
0100
,
0010
1000
0001
0000
1000
0001
0000
0001
,
1000
0000
1001
0000
0000
1001
0000
0001
,
0100
0010
1000
0000
0000
1001
0000
0002
,
0000
0000
2003
0000
0000
3001
0000
2000
,
0000
0000
0000
0000
3001
0000
1000
0001
0000
0000
0000
0000
0000
0000
0001
0000
,
0000
0000
1000
0000
0000
0000
0010
0100
0000
0000
0000
0000
0000
0000
0000
0000
,
0000
0220
0000
0000
0000
0000
0330
0000
,
1001
0000
0000
0000
1000
0000
0000
0000
0001
1000
0000
0000
0000
0000
0000
0000
;

//---------------dance-single - ----------------
#NOTES:
     dance-single:
     :
     Medium:
     6:
     0.522,0.475,0.362,0.381,0.000,153.000,19.000,20.000,0.000,0.000:
0000
0000
0000
0000
,
0000
0000
1000
0100
1000
0000
0001
0100
,
0001
0000
1000
0010
1000
0000
0001
0010
,
0001
0000
1000
0001
0010
0100
2000
0000
,
0000
3002
0000
0000
0003
0000
0000
1001
,
0000
0000
1001
0000
0000
0000
0001
1000
,
0001
0000
1000
0001
1000
0000
0001
1000
,
0001
0000
1001
0000
0000
0000
0000
1000
,
0100
0010
0001
0000
0000
1001
0000
0000
,
0002
0000
2003
0000
0000
3000
0000
2000
,
0000
0000
3002
0000
0000
0003
0000
0001
,
0100
0010
2000
0000
0000
0000
3000
0002
,
0000
0000
2003
0000
0000
3000
0000
1000
,
0000
0001
1000
0000
0001
0000
0100
0000
,
0010
1000
0100
0000
0010
0000
0001
0000
,
0100
0010
1000
0000
0001
0000
0100
0000
,
0010
1000
0100
0000
0010
0000
0001
1000
,
0001
1000
0100
0000
0010
0000
0001
0000
,
1000
0001
0100
0000
0010
0000
1000
0000
,
0010
1000
0100
0000
0010
0000
0001
0000
,
0100
0001
0010
0000
0100
0000
1000
0000
,
0001
2002
0000
3003
,
1000
1001
0000
0000
0000
0000
0000
0000
,
0001
0101
0000
0000
0000
0000
0000
0000
,
1000
1010
0000
0000
0000
0000
0000
0110
,
0000
2002
0000
3003
,
1000
1100
0000
0000
0000
0000
0000
0000
,
0001
1001
0000
0000
0000
0000
0000
0000
,
0100
0110
0000
0000
0000
0000
0000
0110
,
0000
0000
0001
0010
0001
0000
1000
0010
,
1000
0000
0001
0100
0001
0000
1000
0100
,
1000
0000
0001
1000
0100
0010
0002
0000
,
0000
2003
0000
0000
3000
0000
0000
1001
,
0000
0000
1001
0000
0000
0000
1000
0001
,
1000
0000
0001
1000
0001
0000
1000
0001
,
1000
0000
1001
0000
0000
0000
0000
0001
,
0010
0100
1000
0000
0000
1001
0000
0000
,
2000
0000
3002
0000
0000
0003
0000
0002
,
0000
0000
1003
0010
0100
0000
0000
0100
,
0000
0010
0000
1000
0001
0000
0000
0000
,
0000
2002
0000
0000
0000
0000
3003
0000
,
0001
0000
1000
0000
0100
0010
0000
0000
;

//---------------dance-single - ----------------
#NOTES:
     dance-single:
     :
     Easy:
     4:
     0.342,0.355,0.000,0.362,0.000,107.000,0.000,19.000,0.000,0.000:
0000
0000
0000
0000
,
0000
1000
0001
0100
,
0010
1000
0001
0100
,
0010
1000
0100
0010
,
0001
2000
0000
0000
,
0000
3002
0000
0103
,
0010
0100
0010
1000
,
0001
2000
0000
0000
,
3001
2000
0000
3000
,
1000
0002
0000
0003
,
0001
2000
0000
3000
,
0100
0020
0000
0030
,
0010
0200
0000
0300
,
0100
0001
1000
0001
,
0100
0010
1000
0100
,
0010
0001
0100
0001
,
0100
0001
0010
0100
,
1000
0100
1000
0001
,
0100
0010
1000
0100
,
0010
0001
1000
0010
,
0100
0001
1000
0001
,
1000
0001
0000
0000
,
2000
0000
0000
0000
,
3002
0000
0000
0000
,
2003
0000
0000
0000
,
3001
1000
0000
0000
,
0200
0000
0000
0000
,
0320
0000
0000
0000
,
2030
0000
0000
0000
,
3001
0001
1000
0010
,
0100
0001
1000
0010
,
0100
0001
0010
0100
,
1000
0002
0000
0000
,
0000
2003
0000
3010
,
0100
0010
0100
0001
,
1000
0002
0000
0000
,
1003
0002
0000
0003
,
0001
2000
0000
3000
,
1000
0001
0000
0000
,
1000
0001
1000
0000
,
0000
0000
0000
0000
,
0001
1000
0001
0000
;

//---------------dance-single - ----------------
#NOTES:
     dance-single:
     :
     Beginner:
     1:
     0.130,0.158,0.000,0.000,0.000,48.000,0.000,0.000,0.000,0.000:
0000
0000
0000
0000
,
0000
1000
0000
0000
,
0000
0001
0000
0000
,
0000
0100
0000
0000
,
0000
0010
0000
0000
,
0000
1000
0000
0000
,
0000
0001
0000
0000
,
0000
1000
0000
0000
,
0000
0001
0000
0000
,
0000
0100
0000
0000
,
0000
0010
0000
0000
,
0000
1000
0000
0000
,
0000
0001
0000
0000
,
0000
1000
0000
0000
,
0000
0001
0000
0000
,
0000
0100
0000
0000
,
0000
0010
0000
0000
,
0000
1000
0000
0000
,
0000
0001
0000
0000
,
0000
0100
0000
0000
,
0000
0010
0000
0000
,
0000
1000
0000
1000
,
0000
0001
0000
0001
,
0000
0100
0000
0100
,
0000
0010
0000
0010
,
0000
1000
0000
1000
,
0000
0001
0000
0001
,
0000
0010
0000
0010
,
0000
0100
0000
0100
,
0000
1000
0000
0000
,
0000
0001
0000
0000
,
0000
0100
0000
0000
,
0000
0010
0000
0000
,
0000
1000
0000
0000
,
0000
0001
0000
0000
,
0000
1000
0000
0000
,
0000
0001
0000
0000
,
0000
0100
0000
0000
,
0000
0010
0000
0000
,
0000
0000
0000
0000
,
0000
0000
0000
0000
,
1000
0000
0001
0000
;
