#TITLE:Camilla;
#SUBTITLE:[2007] X-Vision;
#ARTIST:Basshunter;
#TITLETRANSLIT:;
#SUBTITLETRANSLIT:;
#ARTISTTRANSLIT:;
#CREDIT:;
#BANNER:;
#BACKGROUND:;
#LYRICSPATH:;
#CDTITLE:;
#MUSIC:Basshunter - Camilla [2007] X-Vision.OGG;
#OFFSET:-0.200;
#SAMPLESTART:100.000;
#SAMPLELENGTH:12.000;
#SELECTABLE:YES;
#BPMS:0.000=145.000,136.000=290.000,140.000=145.000,177.000=200.000,178.000=145.000,179.000=205.000,180.000=145.000,212.000=145.000;
#STOPS:136.000=0.240
;
#BGCHANGES:;
// cache tags:
#FIRSTBEAT:4.000;
#LASTBEAT:312.000;
#SONGFILENAME:Songs/in the groove2/Basshunter - Camilla [2007] X-Vision/Basshunter - Camilla [2007] X-Vision.sm;
#HASMUSIC:1;
#HASBANNER:0;
#MUSICLENGTH:129.567;
// end cache tags

//---------------dance-single - ----------------
#NOTES:
     dance-single:
     :
     Hard:
     10:
     0.648,0.722,0.440,0.695,0.567,441.000,57.000,90.000,0.000,0.000:
0000
0000
0000
0000
,
2000
3001
2000
3001
,
2000
3001
1001
1010
,
0020
0130
0001
0001
,
1001
0002
1000
0100
,
0103
0001
1010
1000
,
1100
0200
0310
0002
,
0013
1100
1000
1000
,
1001
0100
0100
0110
,
1000
0000
0001
1000
0000
0010
1000
0000
0100
1000
0000
0001
,
0010
0000
0100
1000
0000
0000
0010
0000
0010
0010
0000
0010
,
0010
0000
0100
0001
0000
0010
0100
0000
0100
1000
0000
1000
,
0010
0000
1000
0001
0000
0000
0100
0000
0100
0100
0000
0100
,
0100
0000
0010
0100
0000
0001
0100
0000
0010
1000
0000
0001
,
1000
0000
0100
0010
0000
0000
0001
0000
0001
0001
0000
0001
,
0001
0000
0001
0010
0000
0010
0001
0000
0001
1000
0000
1000
,
0010
0000
0000
0100
0000
0001
0000
0000
0000
0110
0000
0000
,
1001
0000
0000
1000
0100
0010
0100
0010
0001
1000
0001
1000
,
2002
0000
0000
3003
0000
0000
0001
0000
0100
0010
1000
0001
,
0020
0000
0000
0230
0000
0000
2300
0000
0000
3001
0000
0100
,
0020
0000
0000
2030
0000
0000
3100
0000
1000
0100
0000
0010
,
0200
0000
0000
2300
0000
0000
3002
0000
0000
0013
0000
0001
,
0200
0000
0000
0320
0000
0000
0130
0000
0010
1000
0000
0001
,
0200
0000
0000
0302
0000
0000
0023
0000
0000
0130
0000
1000
,
0200
0000
0000
2300
0000
0000
3001
0000
0001
0010
0000
0010
,
0200
0000
0000
2300
0000
0000
3002
0000
0000
1003
0000
0001
,
0020
0000
0000
0032
0000
0000
0103
0000
0010
1000
0100
1000
,
0002
0000
0000
2003
0000
0000
3002
0000
0000
0013
0000
0110
,
2100
0000
0000
3002
0000
0000
0013
0000
0011
1100
0000
1010
,
0102
0000
0000
2003
0000
0000
3200
0000
0000
0310
0000
0110
,
0021
0000
0000
0032
0000
0000
0103
0000
0110
0101
0000
1001
,
2100
0000
0000
3020
0000
0000
0230
0000
0000
0301
0000
1010
,
1002
0000
0000
2003
0000
0000
3010
0000
1010
1001
0000
0101
,
0120
0000
0000
2030
0000
0000
3002
0000
0000
0013
0000
1100
,
1010
0000
0000
0000
,
0001
0000
1000
0100
0000
0010
0001
0000
1000
0001
0000
0010
,
0100
0000
1000
0010
0000
0000
0100
0000
0100
0100
0000
0100
,
0100
0000
0001
0100
0000
0010
1000
0000
0100
0010
0000
0001
,
0010
0000
0100
1000
0000
0000
0001
0000
0001
0001
0000
0001
,
0001
0000
1000
0001
0000
0100
0001
0000
0010
0001
0000
0100
,
0001
0000
0100
0010
0000
0000
1000
0000
1000
1000
0000
1000
,
1000
0000
0100
0010
0000
0010
0100
0000
0100
1000
0000
1000
,
0001
0000
0000
1000
0000
0100
0000
0000
0000
0110
0000
0000
,
1001
0000
0000
1000
0100
0010
0001
0010
0100
1000
0100
0010
,
0002
0003
0000
0000
,
0002
1003
0200
0310
,
0020
0130
2000
0001
,
0001
3001
0010
0100
,
1100
1001
0010
0001
,
1000
0010
0100
0001
,
0002
0100
0010
1000
,
1003
0100
1100
0011
,
1000
0001
0100
0010
,
1000
0000
0001
0100
0000
0001
0010
0000
0010
0100
0000
0100
,
1000
0000
0001
1000
0000
0000
0010
0000
0010
0010
0000
0010
,
0010
0000
1000
0001
0000
0001
0100
0000
0100
0001
0000
0001
,
0010
0000
0010
0100
0000
0000
1000
0000
1000
1000
0000
1000
,
1000
0000
0001
1000
0000
0010
1000
0000
0100
0010
0000
0001
,
0010
0000
0001
0100
0000
0000
0001
0000
0001
0001
0000
0001
,
0001
0000
0010
0100
0000
0010
0100
0000
1000
0001
0000
0010
,
0001
0000
0000
1000
0000
0010
0000
0000
0000
1001
0000
0000
,
1001
0000
0000
0001
0100
0010
1000
0100
0010
0100
1000
0001
,
0020
0000
0000
0030
0000
0000
1000
0000
0001
0100
0010
1000
,
0200
0000
0000
0320
0000
0000
0032
0000
0000
0013
0000
0100
,
2000
0000
0000
3200
0000
0000
1300
0000
0100
0010
0000
0100
,
0020
0000
0000
0032
0000
0000
0203
0000
0000
0310
0000
1000
,
0200
0000
0000
0320
0000
0000
0031
0000
1000
0001
0000
0001
,
0200
0000
0000
0320
0000
0000
2030
0000
0000
3010
0000
0100
,
0002
0000
0000
0203
0000
0000
0310
0000
1000
0100
0000
0010
,
0002
0000
0000
2003
0000
0000
3002
0000
0000
1003
0000
0001
,
2000
0000
0000
3200
0000
0000
1300
0000
0001
1000
0001
0010
,
0200
0000
0000
2300
0000
0000
3020
0000
0000
0130
0000
0110
,
2010
0000
0000
3001
0000
0000
0010
0000
0110
1100
0000
1001
,
0102
0000
0000
0023
0000
0000
0230
0000
0000
1300
0000
1001
,
1020
0000
0000
0230
0000
0000
0301
0000
0011
1100
0000
0110
,
0012
0000
0000
0023
0000
0000
0230
0000
0000
0310
0000
0011
,
0210
0000
0000
0302
0000
0000
0103
0000
1010
0101
0000
1001
,
2200
0000
0000
0000
,
3300
0000
0000
0000
;

//---------------dance-single - ----------------
#NOTES:
     dance-single:
     :
     Easy:
     1:
     0.000,0.000,0.000,0.000,0.000,0.000,0.000,0.000,0.000,0.000:
0000
0000
0000
0000
;
