#TITLE:Celestial Valley;
#SUBTITLE:;
#ARTIST:CorA;
#TITLETRANSLIT:;
#SUBTITLETRANSLIT:;
#ARTISTTRANSLIT:;
#CREDIT:;
#BANNER:;
#BACKGROUND:;
#LYRICSPATH:;
#CDTITLE:;
#MUSIC:05_-_CELESTIAL_VALLEY.mp3;
#OFFSET:0.000;
#SAMPLESTART:34.682;
#SAMPLELENGTH:12.000;
#SELECTABLE:YES;
#BPMS:0.000=173.000;
#STOPS:;
#BGCHANGES:;
// cache tags:
#FIRSTBEAT:1.500;
#LASTBEAT:373.250;
#SONGFILENAME:Songs/new cc/Nouveau dossier/CV.sm;
#HASMUSIC:1;
#HASBANNER:0;
#MUSICLENGTH:134.896;
// end cache tags

//---------------dance-single - ----------------
#NOTES:
     dance-single:
     :
     Challenge:
     1:
     0.550,0.968,0.541,0.326,0.719,399.000,73.000,44.000,0.000,2.000:
0000
0000
0000
0000
0000
0000
1000
0000
0100
0010
0000
1000
0000
0000
0000
0000
,
0001
0100
1000
0010
0000
0000
0000
0000
0000
0100
0010
0001
1000
0000
0100
0000
,
0000
0000
0000
0000
0000
0000
0000
0000
0000
0000
0000
0000
0000
0000
0000
0000
0100
0010
0100
0000
0000
0000
0000
0000
,
0000
0000
0000
0000
1000
0100
1000
0100
0000
0000
0000
0000
,
0000
0000
0000
0000
0000
0010
0001
0000
0010
0000
0001
0010
0000
0000
0000
0000
0000
0000
0000
0000
0000
0011
0000
0000
,
0000
1100
0000
0011
0000
0000
0000
0000
0000
0000
0000
0110
0000
0011
0000
1001
,
0000
0000
0000
0110
0000
0000
0000
0000
0000
0000
1000
0000
0000
0001
0000
0000
,
0000
0000
1000
0100
1000
0000
0000
0000
0000
0000
0000
0000
0000
0000
0000
0000
0000
0000
0000
0010
0001
0000
0010
0000
,
0000
0000
0000
0000
0000
0000
0000
0000
0000
0000
0000
0000
0000
0000
0000
0000
0000
0100
0000
1000
0000
0100
0000
0000
,
0000
0000
0000
0000
0000
0000
0220
0000
0000
0000
0000
0330
0000
0000
0000
2200
0000
0000
0000
0000
3300
0000
0000
0000
,
0010
0001
0010
0002
0000
0000
0000
0000
,
0003
0000
0000
0000
0000
0000
0000
0000
0000
0000
0000
0000
0000
1000
0000
0100
0000
1000
0000
0000
0000
0000
0000
0000
,
0000
0000
0000
0000
0000
0000
0010
0000
0100
0001
0000
0000
0000
0000
0000
0000
0000
0000
0000
0000
0000
0000
0000
0000
,
0000
0000
1000
0100
0010
0000
0000
0000
0011
0000
0000
1100
,
0000
0000
0000
0000
0000
0000
0000
0000
0000
0000
0000
1100
0000
0000
0011
0000
0000
0000
0110
0000
0000
0000
0000
0000
,
0000
0000
0000
0000
1100
0000
0000
0000
0000
0000
0000
0110
0000
0000
0000
0000
0000
0000
0101
0000
0000
0000
0000
0000
,
0000
0000
0000
1000
0000
0100
0000
1000
0000
0000
0000
0000
0000
0000
0000
0001
0000
0010
0001
0000
0000
0010
0000
0000
,
0000
0000
0000
0000
0000
0000
0000
0000
0000
0000
0000
0000
0000
0000
0000
0000
0000
0000
0100
0010
0100
0000
0000
0000
,
0000
0000
0000
0000
0000
0000
1100
0000
0000
0000
0110
0000
0000
0000
0022
0000
0000
0000
0000
0000
0000
0000
0000
0033
,
1000
0100
0010
0002
0000
0000
0000
0000
0000
0000
0000
0000
0000
0000
0000
0000
,
0000
0000
0003
0000
0000
0000
0000
0000
0000
0000
0000
2000
0000
3000
0000
0200
,
0000
0300
0000
0020
0000
0030
0000
0002
0000
0003
0000
2000
0000
3000
0000
0200
,
0000
0300
0000
0020
0000
0000
0000
0030
0000
0002
0000
0000
0000
0003
0000
2000
,
0000
0000
3000
0000
0000
0000
1000
0100
0000
0020
0000
0000
0000
0000
0000
0000
,
0000
0030
0000
0000
,
0110
0000
0000
0000
0000
0000
0110
0000
0000
0000
0000
0011
0000
0000
0000
0000
,
1100
0110
0011
0000
,
0000
0000
0110
0000
0000
0000
0000
0000
0011
0000
0000
0000
0000
0000
0000
1000
,
0000
0100
0000
1000
0100
1000
0000
0000
0000
0000
0000
0000
0010
0000
0000
0000
,
0000
0000
0000
0000
0000
0000
0000
1000
0100
0010
0001
0000
0001
0000
0001
0000
,
0001
0000
0001
0000
0001
0000
0001
0000
0001
0010
1100
0000
1000
0000
1000
0000
,
1000
0000
1000
0000
1000
0000
1000
0000
1000
0000
1000
0100
0011
0000
0001
0000
,
0001
0000
0001
0000
0001
0000
0001
0000
0001
0000
0001
0000
0001
0100
0010
0001
,
0000
0000
0000
1000
0000
0000
0100
0000
0000
0010
0000
0000
0001
0000
0100
0000
,
0000
0000
0110
0000
0000
0000
0000
1000
,
0000
0110
0000
0000
,
0001
0000
0000
0110
0000
0000
0000
0000
,
1000
0000
0000
0100
0000
0000
0010
0000
0000
0001
0000
0000
0100
0000
0000
1000
,
0000
0000
0100
0000
0000
0000
0000
2222
0000
0000
0000
0000
0000
0000
0000
0000
,
0000
0000
0000
0000
,
0000
0000
0000
0000
,
0000
0000
0000
0000
0000
0000
0000
3333
0000
0000
0000
0000
0000
0000
1001
0110
,
0000
2002
0000
0000
0000
0000
0000
0000
3003
0000
0000
0000
0000
1000
0100
1000
,
0100
1000
0000
0000
0000
0000
0000
0000
0010
0001
0010
0001
0010
0000
0000
0000
,
0000
0000
0000
0000
0000
0000
1000
0100
0010
1000
0100
0000
0000
0000
0000
0011
,
0000
0000
0000
1100
0000
0000
0000
0000
0000
0000
0000
0000
0011
0000
0000
0110
,
0000
1100
0000
0000
0000
0000
0011
0000
0000
0000
0000
0000
0000
0000
1000
0000
,
0001
0000
0000
1000
0000
0010
0100
1000
0100
0010
0000
0000
0000
0000
0000
0000
,
0000
0001
0010
0100
0010
0001
0000
0000
0000
0000
0000
0000
0000
0000
0010
0100
,
0010
1000
0100
0000
0000
0000
0000
0000
1100
0000
0000
0000
0110
0000
0000
0000
,
0000
0000
0000
0000
0001
0010
0001
0010
0002
0000
0000
0000
0000
0000
0000
0000
,
0000
0000
0000
0000
0003
0000
0000
0000
0000
0000
0000
0000
0001
0010
0001
0010
,
0001
0000
0000
0000
0000
0000
0000
0100
1000
0100
0010
0001
0000
0000
0000
0000
,
0000
0000
0000
0000
0100
0010
1000
0100
0010
0000
0000
0000
0000
0000
0000
0110
,
0000
0000
0000
1100
0000
0000
0000
0000
0000
0000
0110
0000
0011
0000
0110
0000
,
1100
0000
0000
0000
0100
0000
0000
0000
0000
0000
0000
0000
0000
1100
0000
0110
,
0000
0000
0000
0100
1000
0001
0010
0100
0000
0000
0000
0000
0000
0000
1000
0100
,
0010
0001
0010
0000
0000
0000
0000
0000
0000
0000
0000
0000
0000
0010
0001
0010
,
0001
0100
0000
0000
0000
0000
0110
0000
0000
0000
0011
0000
0000
0000
0000
0000
,
0000
0000
0000
0001
0010
0100
2000
0000
0000
0000
0000
0000
0000
0000
0000
0000
,
0000
0000
3000
0000
0000
0000
0000
2000
,
0000
3000
0200
0000
0000
0300
0020
0000
0000
0030
0002
0000
0000
0003
0220
0000
,
0000
0330
2000
0000
0000
3000
0020
0000
0000
0030
0000
0000
0000
0000
0010
0000
,
0000
0000
2000
0000
0000
0000
0000
0000
3000
0000
0100
0010
0001
0200
0000
0000
,
0000
0000
0300
0000
,
0000
0000
0000
0000
0110
0000
0000
0000
0000
0011
0000
0000
0000
0000
0000
0110
,
0000
0000
0000
0000
1100
0000
0000
0000
0000
0110
0000
0000
0000
0000
0011
0000
,
0000
0000
0000
0000
0000
0000
1000
0100
0000
0000
0000
0000
0000
0000
0000
0000
,
0000
0000
0010
0001
0010
0001
0100
0010
0022
0000
0000
0000
0000
0000
0000
0000
,
0033
0000
0000
0000
0000
0000
0000
1000
0100
0010
0001
0000
0001
0100
1000
0100
,
0010
0001
0000
0001
0100
0010
0001
1000
0000
1000
0100
0010
0001
0000
0001
0010
,
0100
1000
0100
0010
0001
0000
0001
0010
0100
0001
1000
0000
1000
0100
0010
0001
,
0010
0100
0010
0001
0000
0001
0000
0001
0000
0001
0000
0001
0000
0000
0000
0001
,
0000
0000
0010
0000
0000
0100
0000
0000
1000
0000
0100
0000
0000
0020
0001
0000
,
0000
0000
0000
0000
0000
0000
0000
0030
0110
0000
0000
0000
0000
0000
0000
0000
,
1000
0000
0110
0000
,
0000
0001
0000
0000
0000
0110
0000
0000
,
0000
0000
0000
0000
0000
0010
0000
0001
0000
0010
0000
0100
0000
0010
0000
0001
,
0000
0010
0000
0100
0000
2220
0000
0000
0000
0000
0000
0000
0000
0000
0000
0000
,
0000
0000
0000
0000
,
0000
0000
0000
0000
,
0000
3330
0000
0000
0000
0000
0000
0000
0000
0000
0000
0000
0000
0000
0000
0000
,
0100
0000
0010
0000
0001
0000
0000
0000
0000
0000
0000
0000
0000
0000
0000
1000
,
0100
1000
0100
0010
0000
0000
0000
0000
0000
0000
0000
0010
0001
0010
0100
0010
,
0000
0000
0000
0000
0000
0000
0000
0000
0000
1000
0100
0010
0001
0100
0000
0000
,
0000
0110
0000
0000
0000
1100
0000
0000
0000
0000
0000
0000
0000
0000
0011
0000
,
0000
0000
1100
0000
0000
0110
0000
0000
0011
0000
0000
0000
0000
0000
0000
0000
,
1000
0000
0100
0000
0000
0000
0000
0010
0001
0010
0100
1000
0000
0000
0000
0000
,
0000
0000
0000
1000
0100
0010
0100
0010
0000
0000
0000
0000
0000
0000
0000
0000
,
0001
0010
0100
0010
1000
0000
0000
0000
0000
1000
0000
0000
0100
0000
0000
0010
,
0000
0000
0001
0000
0000
0100
0000
1000
0000
0100
0000
0010
0000
0001
0000
0200
,
0000
0000
0000
0000
,
0000
0000
0000
0000
0000
0000
0000
0000
0000
0300
0200
0000
0000
0000
0000
0000
,
0000
0000
0000
0000
0000
0300
0000
0000
0000
0000
0000
0000
0000
0000
0000
0000
;
