#TITLE:War Horizon;
#SUBTITLE:;
#ARTIST:Zero Bass;
#TITLETRANSLIT:;
#SUBTITLETRANSLIT:;
#ARTISTTRANSLIT:;
#CREDIT:;
#BANNER:W-Horizon - banner.png;
#BACKGROUND:W-Horizon-bg.png;
#LYRICSPATH:;
#CDTITLE:!Syrus-CDTitle.png;
#MUSIC:Zero Bass - War Horizon.mp3;
#OFFSET:-0.015;
#SAMPLESTART:21.350;
#SAMPLELENGTH:23.800;
#SELECTABLE:YES;
#BPMS:0.000=180.000,64.000=120.000,69.333=180.000;
#STOPS:73.250=1.083
;
#BGCHANGES:;
// cache tags:
#FIRSTBEAT:8.000;
#LASTBEAT:193.500;
#SONGFILENAME:Songs/mongol/War Horizon/W-Horizon.sm;
#HASMUSIC:1;
#HASBANNER:1;
#MUSICLENGTH:66.638;
// end cache tags

//---------------dance-single - ----------------
#NOTES:
     dance-single:
     :
     Hard:
     12:
     1.000,1.000,1.000,1.000,1.000,473.000,106.000,79.000,0.000,0.000:
0000
0000
0000
0000
,
0000
0000
0000
0000
,
0220
0000
0330
0202
0000
0303
0220
0000
,
0330
2020
0000
3030
2002
3003
0220
0330
,
2200
0000
3300
0202
0000
0303
0022
0000
,
0033
2020
0000
3030
2200
3300
2020
3030
,
0011
0100
1000
0100
0010
0100
1010
0100
0010
0001
0100
0001
1010
0001
0100
0010
,
0100
1000
0011
0100
0001
0010
0100
0001
1100
0010
1000
0100
0011
1000
0100
0010
,
1001
0010
0100
0010
0100
1000
0101
0010
0001
0100
0010
1000
0011
1000
0010
0100
,
0001
0100
1001
0100
0010
0100
1000
0001
0110
0001
1000
0010
1001
0100
0010
1000
,
0010
0100
1000
0100
0010
0100
0010
0001
0010
0100
0010
1000
0010
0100
0001
0100
,
0001
1000
0001
0100
0001
0010
0001
0010
0001
0010
0100
0001
0100
0010
1000
0010
,
0100
0100
0000
0010
0000
0100
0000
0000
0001
0000
0000
0010
0000
0001
0000
1000
,
1000
0000
0000
0010
0000
0100
0000
0000
0010
0000
0000
0010
0000
0001
0000
0010
,
0110
0000
1000
0101
0000
0110
1000
0000
1010
0000
1000
0110
0000
0011
1000
0000
,
0110
0000
1000
0110
0000
0011
1000
0000
0110
0000
1000
0011
0000
0110
1000
0000
,
2002
0000
0000
0000
0000
0000
0000
0000
0000
3003
0000
0000
0000
0000
0000
0000
0000
0000
0000
0000
0000
0000
0000
0000
0000
0000
0000
0000
0000
0000
0000
0000
0220
0000
0000
0000
0000
0000
0000
0000
0330
0000
0000
0000
0000
0000
0000
0000
2002
0000
0000
0000
0000
0000
0000
0000
3003
0000
0000
0000
0000
0000
0000
0000
0000
0000
0000
0000
0000
0000
0000
0000
0000
0000
0000
0000
0000
0000
0000
0000
0202
0000
0000
0000
0000
0000
0000
0000
0303
0000
0000
0000
0000
0000
0000
0000
2020
0000
0000
0000
0000
0000
0000
0000
3030
0000
0000
0000
0000
0000
0000
0000
0000
0000
0000
0000
0000
0000
0000
0000
0000
0000
0000
0000
0000
0000
0000
0000
0202
0000
0000
0000
0000
0000
0000
0000
0303
0000
0000
0000
0000
0000
0000
0000
0022
0000
0000
0000
0000
0000
0000
0000
0033
0000
0000
0000
0000
0000
0000
0000
0000
0000
0000
0000
0000
0000
0000
0000
0000
0000
0000
0000
0000
0000
0000
0000
0220
0000
0000
0000
0000
0000
0000
0000
0330
0000
0000
0000
0000
0000
0000
0000
,
2020
0000
3030
0000
0220
0000
0330
0000
2020
0000
3030
0000
0202
0000
0303
0000
1001
0000
0000
0000
0000
0000
0000
0000
0000
0000
0000
0110
0000
0000
0000
0000
0000
1001
0000
0000
0000
0000
0000
0001
0000
0000
0010
0000
0000
1100
0000
0000
,
0000
0110
0000
1001
0000
0010
0000
0000
0101
0000
0010
0100
1000
0100
0010
0100
,
0010
1100
0010
0100
0001
0010
0100
0010
0001
0110
0001
0010
0100
0010
0100
0010
,
0100
1001
0010
0100
0001
1000
0010
0101
1010
0000
0010
0000
0110
0000
0100
0000
,
0101
0001
1001
1000
1100
0100
0101
0001
,
0011
0000
0010
0000
1010
0000
1000
0000
1001
0000
0100
0100
0000
0100
0100
0001
,
1010
0000
0001
0001
0000
0001
0001
0000
1100
0000
0010
0010
0000
0010
0010
0100
,
0011
0000
0100
0100
0000
0010
0010
0000
1100
0000
1000
1000
0000
0001
0001
0010
,
1001
0000
0100
0100
0000
1000
1000
0000
0110
0000
0001
0001
0000
0010
0010
0100
,
1001
0000
0010
0010
0000
0100
0100
0000
0011
0000
0100
0100
0000
1000
1000
0100
,
0011
0000
0010
0010
0000
0001
0001
0000
1010
0000
0100
0100
0000
1000
1000
0001
,
0110
0000
0010
0010
0000
1000
1000
0000
0202
0000
0000
0000
0303
0000
2020
0000
,
0000
3030
2002
0000
3003
0220
0000
0330
,
2200
3300
0022
0033
2020
0000
3030
0220
,
0000
0330
2020
0000
3030
0220
0000
0330
,
0102
0000
0103
0000
0210
0010
0310
0000
1000
0100
0010
0100
0010
0001
0010
0100
,
0010
0100
1000
0010
0100
0010
1000
0001
0100
0010
0100
0001
0010
0001
0100
0001
,
0010
0000
0000
1000
0000
0000
0001
0000
0000
0010
0000
0000
0100
0000
0000
0010
0000
0000
1000
0000
0000
0100
0000
0000
0010
0000
0000
0000
0000
0000
0000
0000
0100
0000
0000
0000
0010
0000
0000
0000
0000
0000
0000
0000
0010
0000
0000
0000
,
0001
0000
0001
0010
0000
0010
0001
0000
0001
0100
0000
0100
,
1000
0000
1000
0001
0000
0001
0010
0000
0010
1000
0000
1000
,
0100
0000
0100
1000
0000
0100
0010
0000
0010
0100
0000
0100
,
0010
0000
0000
0000
0000
0000
0000
0000
0010
0000
0000
0000
0100
0000
0000
0000
0000
0000
0000
0000
0000
0000
0000
0000
0110
0000
0000
0000
0000
0000
0000
0000
0000
0110
0000
0000
0000
0000
0000
0000
0000
0000
0110
0000
0000
0000
0000
0000
,
1001
0000
0000
1001
0000
0000
1001
0000
0110
0000
0000
0110
0000
0000
0110
0000
,
1001
0000
0000
1001
0000
0000
1001
0000
0010
0100
0001
0100
0010
0100
1000
0010
,
1000
0001
0100
0001
1000
0010
0100
0010
0001
0010
0100
0010
0100
1000
0100
0010
,
0100
0010
0001
0010
0001
0010
1000
0010
1000
0100
0010
1000
0100
0010
0001
0100
,
0001
0100
0001
1000
0100
0010
1000
0010
0001
0100
0010
1000
0010
0001
0010
0100
,
0001
0010
0100
1000
0100
0010
1000
0100
0010
0000
0010
0001
0000
0001
0010
0100
,
1000
0000
0001
0010
0000
0010
0001
0000
1000
0000
1000
0100
0000
1000
0100
0010
,
0001
0000
0000
0000
0100
0000
0010
0000
0000
0000
0100
0000
2000
3000
0000
0000
0220
0330
0000
0000
0000
0000
0000
0000
2000
3000
0000
0000
0220
0330
0001
0000
,
0000
0000
0000
0000
2000
3000
0001
0000
0220
0330
0001
0000
1000
0000
0000
0000
0100
0000
0000
0000
0010
0000
1000
0000
0000
0000
1000
0000
0100
0000
0010
0000
,
0001
0000
0001
1000
0000
0001
1000
0000
0000
0000
0000
0000
0000
0000
0000
0000
;
