#TITLE:AFRONOVA;
#SUBTITLE:JUNGLE BURNED AWAY;
#ARTIST:RE-VENGE;
#TITLETRANSLIT:;
#SUBTITLETRANSLIT:;
#ARTISTTRANSLIT:;
#CREDIT:;
#BANNER:AFRONOVA-bn.png;
#BACKGROUND:AFRONOVA-bg.png;
#LYRICSPATH:;
#CDTITLE:DANCE DANCE REVOLUTION 3RD MIX.PNG;
#MUSIC:AFRONOVA.mp3;
#OFFSET:-0.040;
#SAMPLESTART:28.830;
#SAMPLELENGTH:12.000;
#SELECTABLE:YES;
#DISPLAYBPM:200.000;
#BPMS:0.000=200.000,128.000=100.000,156.000=200.000;
#STOPS:;
#BGCHANGES:;
// cache tags:
#FIRSTBEAT:0.000;
#LASTBEAT:260.000;
#SONGFILENAME:Songs/toune 2/PROPELA - AFRONOVA JUNGLE BURNED AWAY/AFRONOVA JUNGLE BURNED AWAY.sm;
#HASMUSIC:1;
#HASBANNER:1;
#MUSICLENGTH:87.376;
// end cache tags

//---------------dance-single - Hard----------------
#NOTES:
     dance-single:
     Hard:
     Hard:
     10:
     0.989,1.000,0.870,0.286,0.532,504.000,76.000,25.000,0.000,0.000:




0020
0130
0200
0310
,
0020
0130
0200
0310
,
0020
1030
2000
3010
,
0020
1030
2000
3010
,
0200
0301
0002
0103
,
0200
0301
0002
0103
,
1000
0100
1000
0000
0001
0010
0001
0000
,
1000
0100
1000
0100
0001
0100
0001
0000
,
1000
0000
0100
0000
0010
0000
0001
0001
0100
0000
0010
0000
1000
0000
0000
0000
,
0001
0000
0100
0000
0010
0000
1000
1000
0100
0000
0010
0000
0001
0000
0000
0000
,
0001
0000
0010
0000
0100
0000
1000
1000
0010
0000
0100
0000
0001
0000
0000
0000
,
0001
0000
0100
0000
0010
0000
1000
1000
0100
0000
0010
0000
0001
0000
0000
0000
,
1010
0000
0100
0000
0001
0000
0010
0100
1000
0000
0001
0000
0110
0000
0000
0000
,
0011
0000
0100
0000
1000
0000
0001
0010
0001
0000
0100
0000
1001
0000
0000
0000
,
0101
0000
0010
0000
1000
0000
0100
0010
0001
0000
1000
0000
0110
0000
0000
0000
,
1100
0000
0010
0000
0001
0000
1000
0100
1000
0000
0010
0000
0101
0000
0000
0000
,
1000
0100
0010
0000
0001
0000
0010
0100
1000
0000
0010
0000
0100
0000
0010
0000
,
1000
0010
0100
0000
0001
0000
0100
0010
1000
0000
0100
0000
0010
0000
0100
0000
,
1000
0100
0010
0000
0001
0000
0010
0100
1000
0000
0010
0000
0100
0000
0010
0000
,
1000
0010
0100
0000
0001
0000
0100
0010
1000
0000
0010
0000
0010
0000
0010
0000
,
0001
0010
0100
0000
1000
0000
0100
0010
0001
0000
0100
0000
0010
0000
0100
0000
,
0001
0100
0010
0000
1000
0000
0010
0100
0001
0000
0010
0000
0100
0000
0010
0000
,
0001
0010
0100
0000
1000
0000
0100
0010
0001
0000
0100
0000
0010
0000
0100
0000
,
0001
0100
0010
0000
1000
0000
0010
0100
0001
0000
0100
0000
0100
0000
0100
0000
,
0110
0110
0000
1001
0001
1001
1000
0000
,
1100
0101
1100
0000
2002
3003
0000
0000
,
1001
1001
0000
0110
0100
0110
0010
0000
,
0011
1010
0011
0000
2002
3003
0000
0000
,
0011
0011
0000
1010
0010
1010
1000
0000
,
0110
1001
0110
0000
2002
3003
0000
0000
,
1100
1100
0000
0101
0100
0101
0001
0000
,
0110
1001
0110
0000
2002
0000
3003
0000
,
0001
0010
0100
0000
0100
0010
0001
0000
1000
0100
0010
0100
1000
0100
0010
0000
,
0001
0010
0100
0000
0100
0010
0001
0000
1000
0100
0010
0100
1000
0100
0010
0000
,
0001
0010
0100
0000
0100
0010
0001
0000
1000
0100
0010
0100
1000
0100
0010
0000
,
0001
0010
0100
0000
0100
0010
0001
0000
1000
0100
0010
0100
1000
0100
0010
0000
,
1002
0000
0013
0000
1000
0100
0010
0000
1001
0000
0011
0000
0100
1000
0001
0000
,
1200
0000
0310
0000
1000
0001
0010
0000
1001
0000
1010
0000
0001
0100
0010
0000
,
2010
0000
3100
0000
1000
0001
0100
0000
0101
0000
1010
0000
0001
0010
0100
0000
,
0000
0000
0000
0000
0000
0000
0000
0000
0110
0000
0000
0000
0000
0000
0000
0000
0000
0000
0000
0000
0000
0000
0000
0000
1010
0000
0000
0000
0000
1000
0000
0000
,
0000
0000
0000
0000
0000
1000
0000
0000
0000
0000
0000
0000
0000
0000
0000
0000
0110
0000
0000
0000
0000
0000
0000
0000
0000
0000
0100
0000
0000
0000
0000
0000
0000
0000
0000
0000
0000
0100
0000
0000
0000
0000
0000
0000
0000
0000
0000
0000
0011
0000
0000
0000
0000
0000
0000
0000
0000
0000
0001
0000
0000
0000
0000
0000
,
0000
0000
0110
0000
1001
0000
1000
0100
,
0010
0100
1000
0001
0010
0001
1000
0100
,
0010
0001
0010
0100
1000
0010
0100
0010
,
1000
0100
0010
0001
0010
0100
1000
0001
,
0010
0100
0010
0001
0100
0010
0100
0001
,
0010
0100
1000
0100
0010
0001
1000
0100
,
1000
0100
0010
0000
0110
0000
0000
0011
,
1100
0000
0000
0000
0110
0000
0000
0000
0001
0010
0100
0000
0010
0000
0100
0010
,
0001
0000
1000
0000
0100
0000
0010
0000
0100
0010
0001
0000
1000
0000
0001
0010
,
0100
0000
1000
0000
0010
0000
0100
0000
0010
0001
0100
0000
0010
0000
1000
0010
,
0100
0000
0001
0000
0010
0000
0001
0000
0010
0100
0010
0000
0001
0000
0010
0100
,
1000
0000
0001
0000
0010
0000
0001
0000
1000
0001
0010
0000
0100
0000
1000
0010
,
0100
0000
0001
0000
0100
0000
0010
0000
1000
0001
0010
0000
0100
0000
0010
0100
,
1000
0000
0100
0000
1000
0000
0100
0000
1000
0100
0010
0000
0100
0010
0100
0000
,
1000
0000
1100
0000
0100
0000
0000
0000
0110
0000
0000
0000
1000
0100
0010
0000
,
0000
0000
0000
0000
0001
0010
0100
0000
0000
0000
1000
0100
0010
0001
0010
0100
,
1000
0000
0100
0000
0011
0000
0000
0000
0101
0000
0000
0000
1000
0100
0010
0000
,
0000
0000
0000
0000
0010
0001
1000
0000
0000
0000
0100
1000
0001
0010
0100
0010
,
0001
0000
1000
0000
0101
0000
0000
0000
1100
0000
0000
0000
0100
0010
1000
0000
,
0000
0000
0000
0000
0001
0010
0100
0000
0000
0000
0001
0010
0100
0010
0100
1000
,
0001
0000
0100
0000
1001
0000
0000
0000
0110
0000
0000
0000
0100
0010
0001
0000
,
0000
0000
0000
0000
0010
0100
1000
0000
0000
0000
0100
1000
0010
1000
0100
0010
,
0001
0000
0001
0000
1010
0000
0000
0000
0202
0000
0000
0000
0000
0000
0000
0303
,
1001
0000
0000
0000
0000
0000
0000
0000
0000
0000
0101
0000
0000
0000
0000
0000
0000
0000
0000
0000
0000
1100
0000
0000
0000
0000
0000
0000
0000
0000
0000
0000
0011
0000
0000
0000
0000
0000
0000
0000
0000
0000
0101
0000
0000
0000
0000
0000
0000
0000
0000
0000
0000
0110
0000
0000
0000
0000
0000
0000
0000
0000
0000
0000
,
1010
0000
0000
0000
;

//---------------dance-single - Add.----------------
#NOTES:
     dance-single:
     Add.:
     Challenge:
     11:
     1.000,1.000,1.000,0.286,0.544,506.000,125.000,25.000,0.000,0.000:

0002
0103
0200
0301
,
0002
0103
0200
0301
,
0020
1030
2000
3010
,
0020
1030
2000
3010
,
0200
0310
0020
0130
,
0200
0310
0020
0130
,
1000
0100
1000
0000
0001
0010
0001
0000
,
1000
0100
1000
0100
0001
0100
0001
0000
,
1000
0000
0100
0000
0010
0000
0001
0001
0100
0000
0010
0000
1000
0000
0000
0000
,
0001
0000
0100
0000
0010
0000
1000
1000
0100
0000
0010
0000
0001
0000
0000
0000
,
0001
0000
0010
0000
0100
0000
1000
1000
0010
0000
0100
0000
0001
0000
0000
0000
,
0001
0000
0100
0000
0010
0000
1000
1000
0100
0000
0010
0000
0001
0000
0000
0000
,
1010
0000
0100
0000
0001
0000
0010
0100
1000
0000
0001
0000
0110
0000
0000
0000
,
0011
0000
0100
0000
1000
0000
0001
0010
0001
0000
0100
0000
1001
0000
0000
0000
,
0101
0000
0010
0000
1000
0000
0100
0010
0001
0000
1000
0000
0110
0000
0000
0000
,
1100
0000
0010
0000
0001
0000
1000
0100
1000
0000
0010
0000
0101
0000
0000
0000
,
1000
0100
0010
0000
0001
0000
0010
0100
1000
0000
0010
0000
0100
0000
0010
0000
,
1000
0010
0100
0000
0001
0000
0100
0010
1000
0000
0100
0000
0010
0000
0100
0000
,
1000
0100
0010
0000
0001
0000
0010
0100
1000
0000
0010
0000
0100
0000
0010
0000
,
1000
0010
0100
0000
0001
0000
0100
0010
1000
0000
0010
0000
0010
0000
0010
0000
,
0001
0010
0100
0000
1000
0000
0100
0010
0001
0000
0100
0000
0010
0000
0100
0000
,
0001
0100
0010
0000
1000
0000
0010
0100
0001
0000
0010
0000
0100
0000
0010
0000
,
0001
0010
0100
0000
1000
0000
0100
0010
0001
0000
0100
0000
0010
0000
0100
0000
,
0001
0100
0010
0000
1000
0000
0010
0100
0001
0000
0100
0000
0100
0000
0100
0000
,
0110
1001
0000
1010
0101
1100
0011
0000
,
1010
0011
1010
0000
2020
0000
3030
0000
,
0011
1100
0000
0011
1001
1100
1001
0000
,
1010
1100
1010
0000
2002
0000
3003
0000
,
1010
0101
0000
1001
0101
1001
1010
0000
,
0011
1010
0110
0000
2002
0000
3003
0000
,
1001
0110
0000
0101
1100
0110
1010
0000
,
0011
1010
0110
0000
2002
0000
3003
0000
,
0001
0010
0110
0000
1000
0100
0110
0000
1000
0100
0011
0010
0001
0010
1100
0000
,
0001
0010
1001
0000
0010
0100
1001
0000
1000
0100
0011
0100
1000
0011
1100
0011
,
1100
0010
0101
0000
0101
0010
1010
0000
1100
0100
0011
1000
0011
0100
1100
0000
,
1001
0010
0011
0000
0110
0100
1001
0000
1100
0001
0110
1000
0110
0010
0011
0001
,
1200
0000
0310
0000
1000
0100
0001
0000
1001
0000
0110
0000
1000
0010
0001
0000
,
0021
0000
0130
0000
0001
0010
1000
0000
1001
0000
0110
0000
0001
0100
1000
0000
,
1002
0000
1003
0000
1000
0100
0010
0000
1100
0000
0011
0000
0100
0010
0001
0000
,
0000
0000
0000
0000
0000
0000
0000
0000
0110
0000
0000
0000
0000
0000
0000
0000
0000
0000
0000
0000
0000
0000
0000
0000
1010
0000
0000
0000
0000
0110
0000
0000
,
0000
0000
0000
0000
0000
0101
0000
0000
0000
0000
0000
0000
0000
0000
0000
0000
0011
0000
0000
0000
0000
0000
0000
0000
0000
0000
1001
0000
0000
0000
0000
0000
0000
0000
0000
0000
0000
1100
0000
0000
0000
0000
0000
0000
0000
0000
0000
0000
0110
0000
0000
0000
0000
0000
0000
0000
0000
0000
1001
0000
0000
0000
0000
0000
,
0000
0000
0110
0000
1001
0000
1000
0100
,
0011
0010
0100
0010
0001
0010
1100
0010
,
0100
0001
1000
0100
0011
1000
0100
1000
,
0001
0010
1100
0011
0100
1000
0100
0010
,
1001
0100
0010
0100
1000
0001
0110
0010
,
0001
0010
0001
1000
0110
0001
0100
0010
,
1000
0110
0000
1001
0110
0000
0000
0011
,
1100
0000
0000
0000
0110
0000
0000
0000
0001
0010
0100
0000
0010
0000
0100
0010
,
0001
0000
1000
0000
0100
0000
0010
0000
0100
0010
0001
0000
1000
0000
0001
0010
,
0100
0000
1000
0000
0010
0000
0100
0000
0010
0001
0100
0000
0010
0000
1000
0010
,
0100
0000
0001
0000
0010
0000
0001
0000
0010
0100
0010
0000
0001
0000
0010
0100
,
1000
0000
0001
0000
0010
0000
0001
0000
1000
0001
0010
0000
0100
0000
1000
0010
,
0100
0000
0001
0000
0100
0000
0010
0000
1000
0001
0010
0000
0100
0000
0010
0100
,
1000
0000
0100
0000
1000
0000
0100
0000
1000
0100
0010
0000
0100
0010
0100
0000
,
1000
0000
1100
0000
0100
0000
0000
0000
0110
0000
0000
0000
1000
0100
0010
0000
,
0000
0000
0000
0000
0001
0010
0100
0000
0000
0000
1000
0100
0010
0001
0010
0100
,
1000
0000
0100
0000
0011
0000
0000
0000
0101
0000
0000
0000
1000
0100
0010
0000
,
0000
0000
0000
0000
0010
0001
1000
0000
0000
0000
0100
1000
0001
0010
0100
0010
,
0001
0000
1000
0000
0101
0000
0000
0000
1100
0000
0000
0000
0100
0010
1000
0000
,
0000
0000
0000
0000
0001
0010
0100
0000
0000
0000
0001
0010
0100
0010
0100
1000
,
0001
0000
0100
0000
1001
0000
0000
0000
0110
0000
0000
0000
0100
0010
0001
0000
,
0000
0000
0000
0000
0010
0100
1000
0000
0000
0000
0100
1000
0010
1000
0100
0010
,
0001
0000
0001
0000
1010
0000
0000
0000
0202
0000
0000
0000
0000
0000
0000
0303
,
1001
0000
0000
0000
0000
0000
0000
0000
0000
0000
0101
0000
0000
0000
0000
0000
0000
0000
0000
0000
0000
1100
0000
0000
0000
0000
0000
0000
0000
0000
0000
0000
0011
0000
0000
0000
0000
0000
0000
0000
0000
0000
0101
0000
0000
0000
0000
0000
0000
0000
0000
0000
0000
0110
0000
0000
0000
0000
0000
0000
0000
0000
0000
0000
,
1010
0000
0000
0000
;
