#TITLE:Storming The Burning Fields;
#SUBTITLE:Inhuman Rampage;
#ARTIST:Dragonforce;
#TITLETRANSLIT:;
#SUBTITLETRANSLIT:;
#ARTISTTRANSLIT:;
#CREDIT:Dog_E;
#BANNER:storming.PNG;
#BACKGROUND:storming-BG.PNG;
#LYRICSPATH:;
#CDTITLE:DogETitle.PNG;
#MUSIC:DragonForce - 03 - Storming The Burning Fields.mp3;
#OFFSET:-0.814;
#SAMPLESTART:110.564;
#SAMPLELENGTH:23.020;
#SELECTABLE:YES;
#BPMS:0.000=200.000;
#STOPS:;
#BGCHANGES:;
// cache tags:
#FIRSTBEAT:0.000;
#LASTBEAT:1048.250;
#SONGFILENAME:Songs/CMDKDF Pack/Storming The Burning Fields (Dog_E)/DragonForce - 03 - Storming The Burning Fields.sm;
#HASMUSIC:1;
#HASBANNER:1;
#MUSICLENGTH:319.791;
// end cache tags

//---------------dance-single - Blank----------------
#NOTES:
     dance-single:
     Blank:
     Hard:
     13:
     1.000,1.000,0.794,0.913,1.000,2915.000,254.000,292.000,0.000,8.000:

0020
0000
0030
0000
,
0022
0033
2200
3300
,
2020
3030
0202
0303
,
2002
0000
0000
0000
0000
0000
0000
3003
,
0001
0000
0010
0100
1000
0000
0100
0000
1001
0000
0010
0000
1001
0000
0010
0000
,
1000
0001
1000
0010
1000
0100
1000
0010
1000
0001
0100
0001
0010
0001
0100
0001
,
1000
0001
1000
0010
1000
0100
1000
0010
1000
0001
0100
0001
0010
0001
0100
0001
,
1000
0001
1000
0010
1000
0100
1000
0010
1000
0001
0100
0001
0010
0001
0100
0001
,
1000
0100
0010
0001
0010
0001
0100
0010
2000
0000
0000
0000
0000
0000
0000
3000
,
0100
0010
0100
1000
0100
0001
0100
1000
0100
0010
0001
0010
1000
0010
0001
0010
,
0100
0010
0100
1000
0100
0001
0100
1000
0100
0010
0001
0010
1000
0010
0001
0010
,
0100
0010
0001
1000
0001
0010
0100
1000
0100
0001
0010
0100
1000
0100
0010
0001
,
2000
0000
0000
3002
0000
0000
2003
0000
0000
3002
0000
0000
2003
0000
0000
3002
0000
0000
2003
0000
0000
3002
0000
0000
2003
0000
0000
3002
0000
0000
2003
0000
0000
3002
0000
0000
0023
0000
0000
0000
0000
0000
0000
0000
0000
0000
0030
0000
,
1000
0010
0100
0001
0100
0010
1000
0001
0010
0100
0001
0100
0010
1000
0100
0010
,
0001
0010
0100
1000
0001
0100
0010
1000
0010
1000
0100
0001
0100
0010
0001
1000
,
0100
0010
0100
0001
1000
0010
0100
1000
0100
0001
0010
0001
0100
0010
1000
0010
,
0200
0302
0203
0302
0203
0302
0203
0302
0203
0302
0203
0302
0203
0302
0203
0302
,
1003
0001
1000
0010
1000
0100
1000
0010
1000
0001
0100
0001
0010
0001
0100
0001
,
1000
0001
1000
0010
1000
0100
1000
0010
1000
0001
0100
0001
0010
0001
0100
0001
,
1000
0100
0010
0001
1000
0100
0010
0001
2000
0000
0000
3200
0000
0000
0320
0000
,
0001
0130
0010
1000
0001
0100
0010
1000
0001
0010
0100
1000
0001
0010
0100
1000
,
2000
0100
0100
0100
0100
0100
0100
3100
,
0002
2003
3002
2003
3002
2003
3002
2003
3002
2003
3002
2003
3002
2003
3000
0000
,
0001
0010
0100
1000
0000
0000
0000
0000
0000
0000
0000
0000
1000
0100
0010
0001
0000
0000
0000
0000
0000
0000
0000
0000
0001
0010
0100
1000
0000
0000
0000
0000
,
0000
0000
0000
0000
,
1000
0010
1000
0001
0100
0010
1000
0001
1000
0010
0100
0001
1000
0001
0010
0100
,
1000
0100
1000
0100
0010
0100
0010
0100
1000
0100
0010
1000
0002
0000
0000
0003
,
0010
0100
1000
0001
0100
0010
1000
0001
0100
0001
0010
0001
1000
0010
0001
0100
,
0010
1000
0100
0010
0001
1000
0001
1000
0001
0010
0001
0100
0020
0000
0000
0030
,
1000
0100
0010
0001
1000
0001
0010
0001
1000
0001
0010
1000
0100
0010
1000
0001
,
0010
0001
0100
0010
0001
0010
0100
1000
0100
0010
0001
0010
1001
0000
1001
0000
,
0100
1000
0010
0100
0001
1000
0100
1000
0010
1000
0100
0010
0001
1000
0100
0010
,
0001
0010
0100
1000
0001
0010
0100
1000
0001
1000
0010
0100
0001
0010
0001
0010
,
1000
0100
0010
0001
0010
0100
1000
0100
0010
0001
0010
0100
1000
0100
0010
0001
,
0010
1000
0100
0010
0001
0100
0010
1000
0100
0010
0001
0100
0010
1000
0100
0010
,
0001
0010
0100
1000
0100
0010
0001
0010
0100
1000
0100
0010
0001
0010
0100
1000
,
0100
0001
0010
0100
1000
0010
0100
0001
0010
0100
1000
0010
0100
0001
0010
0100
,
1000
0100
0010
0001
0010
0100
1000
0100
0010
0001
0010
0100
1000
0100
0010
0001
,
0010
1000
0100
0010
0001
0100
0010
1000
0100
0010
0001
0100
0010
1000
0100
0010
,
0001
0010
0100
1000
0100
0010
0001
0010
0100
1000
0100
0010
0001
0010
0100
1000
,
0001
0010
0100
1000
0100
0000
0001
0010
0100
1000
0100
0010
0001
1000
0100
0010
,
0101
1010
0011
1100
1001
0000
0110
0011
,
0000
0110
1100
0101
,
1000
0100
0010
0100
1000
0100
0010
0100
1000
0100
0010
0100
1000
0100
0010
0100
,
0010
0001
0010
0100
1000
0100
0010
0001
0010
0100
0010
0001
0010
0001
0010
0001
,
0010
1000
0001
0100
0010
1000
0100
0010
0001
0010
0100
1000
0001
0100
0010
1000
,
0100
0010
0001
0010
0100
1000
0001
0100
0010
1000
0001
0100
0010
0001
0010
0100
,
1000
0100
0010
0001
0010
0100
0010
0001
1000
0001
0100
0010
0100
1000
0100
0010
,
0002
0010
1000
0010
1000
0010
1000
0010
1000
0010
1000
0010
1000
0010
1000
0013
,
2200
3300
0010
0010
0220
0000
0000
0330
,
0011
0000
0000
0000
0100
0000
0100
0000
2200
3300
0010
0000
0100
0000
0001
0000
,
1100
0110
0011
0100
0011
1010
0110
0000
,
2002
3003
1001
0000
0110
0000
1000
0000
0110
0000
0001
0000
0020
0000
2000
0000
,
3131
1000
0110
0011
0110
1000
0001
0010
,
1100
0010
0101
0011
1100
0010
0100
1100
,
0110
0011
1100
0110
0101
0000
0110
0000
,
2002
3103
0010
0001
0010
0100
0010
0100
1000
0100
0010
0001
0010
0100
0010
0100
,
1001
0101
1100
0110
,
1001
0100
0010
0001
0100
0010
1000
0010
0100
0001
0100
0010
1000
0100
0010
0001
,
1000
0010
0100
0001
1000
0001
0010
0100
1000
0001
1000
0100
1000
0001
0100
0010
,
1000
0100
1000
0100
1000
0010
0001
0100
0010
1000
0001
0100
0010
1000
0100
0010
,
0001
1000
0001
0010
0001
0100
0001
1000
0001
0010
0100
1000
0100
0010
0001
0100
,
1000
0010
0100
0001
1000
0010
0100
0001
1000
0010
0100
1000
0001
0100
0010
0100
,
1000
0001
0100
0010
1000
0100
1000
0010
0100
0001
0010
0100
1000
0010
0100
1000
,
0001
0010
0100
1000
0100
0000
1000
0100
0010
0001
0010
0100
0010
0100
1000
0100
,
0010
0100
0010
0100
0010
1000
0010
0100
0001
0100
0010
0100
1000
0100
0010
0100
,
1001
0100
0010
0001
1000
0001
0010
0100
0010
0001
0010
0100
0010
0001
0010
0100
,
0001
1000
0100
1000
0001
1000
0100
1000
0010
0100
0001
0100
0010
0100
0001
0100
,
1000
0001
0010
0100
1000
0100
0010
0001
1000
0010
0100
0001
1000
0001
0010
0100
,
0001
0010
0100
0001
0100
1000
0100
0010
0001
1000
0010
0001
0100
0010
1000
0100
,
0010
0001
0010
0100
0001
0010
0100
1000
0001
0100
0010
1000
0001
0010
0100
1000
,
0001
1000
0100
0010
0100
1000
0100
0001
0010
0100
0001
1000
0100
0010
0001
0100
,
0001
0010
0100
1000
0100
0000
0001
0010
0100
1000
0100
0010
0001
0100
0010
0100
,
1002
0000
0000
1000
0000
0000
1000
0000
0000
1000
0000
0003
,
1001
0000
1001
0000
0010
0100
1001
0000
0110
0000
0110
0000
1000
0100
0010
0000
,
0001
0010
0100
0001
0010
0100
0001
0010
0100
1000
0100
1000
0020
0000
0000
0030
,
1000
0000
0000
0100
0000
0000
0010
0000
0000
0001
0000
0000
1000
0000
0100
0000
0010
0000
0001
0000
1000
0000
0100
0000
0010
0000
0000
0001
0000
0000
0010
0000
0000
0100
0000
0000
0010
0000
0000
0001
0000
0000
1000
0000
0000
0100
0000
0000
,
0022
0033
0000
0000
0202
0303
0000
0000
2020
3030
0100
0100
1200
0000
0300
0000
,
0011
0000
0011
0000
0010
0100
1000
0000
0011
0000
0011
0000
0010
0100
1000
0000
,
0101
0000
0101
0000
1000
0100
0010
0000
0101
0000
0101
0000
1000
0100
0010
0000
,
0200
0301
0000
0011
0000
0110
0000
1000
,
0001
0010
0100
1000
0002
0003
0002
0000
0000
0000
0000
0000
0000
0000
0003
0000
,
0120
1030
0000
0101
0000
1000
0010
0100
,
0010
0010
0102
0013
0000
0200
0000
0300
,
0010
0010
0100
0010
0000
0100
0000
0100
,
0010
0010
0001
0000
1000
0100
2000
3000
,
0001
0010
0100
1000
0001
0010
0100
0000
0000
1000
0000
0000
0000
0000
0000
0100
0000
0000
0000
0000
0000
0010
0000
0000
,
0002
0023
2030
3100
2000
3020
0032
0103
,
1000
0001
1000
0001
1000
0001
1000
0001
1000
0010
0100
0010
0100
0010
0100
0010
0100
0010
1000
0010
1000
0010
1000
0010
,
1000
0010
1000
0010
1000
0010
0202
0000
0000
0000
0000
0000
0000
0000
0000
0000
0000
0000
0000
0000
0000
0303
0000
0000
,
1000
0100
0010
0001
1000
0010
0100
0001
1000
0100
0010
0001
0010
0100
0010
0001
,
0100
0001
0100
1000
0100
0010
0100
1000
0100
0010
0001
0010
0200
0000
0000
0300
,
0010
1000
0100
0010
0001
0010
0100
0010
0001
0010
0100
1000
0100
0001
0010
0100
,
1000
0001
0010
0100
1000
0001
0100
0010
1000
0001
1000
0010
2000
0000
0000
3000
,
0100
0010
0001
0010
0100
0001
1000
0100
0001
0100
1000
0001
1000
0001
0100
0001
,
1000
0100
1000
0100
0010
0001
0010
0100
0010
0001
1000
0010
1001
0000
1001
0000
,
0220
0000
0000
0000
0000
0000
0000
0330
,
1000
0100
0010
0001
0010
0000
1000
0100
0010
0001
0010
0000
0010
0100
1000
0100
,
0010
1000
0100
0010
0001
0100
0010
1000
0100
0010
0001
1000
0100
0010
0001
0100
,
0020
0000
0130
0000
2000
0000
0010
3000
0200
0000
1000
0300
0020
0000
0100
0030
,
0002
0000
0010
0000
0100
0000
1003
0000
0020
0000
0001
0000
0230
0000
0010
0300
,
2000
0100
0001
0100
3002
0010
1000
0103
,
1010
0100
0101
1010
0001
0010
1100
0001
,
0110
1000
0101
1010
0100
0001
0110
1000
,
0011
1000
0110
1100
0001
0010
1100
0010
,
0001
0010
0100
1000
0001
0010
0100
1000
0001
1000
0100
0010
0001
1000
0100
0010
,
0101
1010
0011
1100
1001
0000
0110
0011
,
0000
0110
1100
0101
,
0100
0001
0010
0001
0100
0001
0010
0001
0100
0001
0010
0001
0100
0001
0010
0001
,
0010
1000
0010
0001
0100
0001
0010
1000
0010
0001
0010
1000
0010
1000
0010
1000
,
0010
1000
0001
0100
0010
1000
0100
0010
0001
0010
0100
1000
0001
0100
0010
1000
,
0100
0010
0001
0010
0100
1000
0001
0100
0010
1000
0001
0100
0010
0001
0010
0100
,
1000
0100
0010
0001
0010
0100
0010
0001
1000
0001
0100
0010
0100
1000
0100
0010
,
0001
0100
0010
1000
0001
0100
0010
1000
0010
0100
0001
1000
0010
0100
0001
0100
,
0022
0033
0100
0100
0220
0000
0000
0330
,
1100
0000
0000
0000
0010
0000
0010
0000
0022
0033
0100
0000
0010
0000
1000
0000
,
0011
0110
1100
0010
1100
0101
0110
0000
,
2002
3003
1001
0000
0110
0000
0001
0000
0110
0000
1000
0000
0200
0000
0002
0000
,
1313
0001
0110
1100
0110
0001
1000
0100
,
0011
0100
1010
1100
0011
0100
0010
0011
,
0110
1100
0011
0110
1010
0000
0110
0000
,
2002
3013
0100
1000
0100
0010
0100
0010
0001
0010
0100
1000
0100
0010
0100
0010
,
1001
1010
0011
0110
,
1001
0100
0010
0100
0010
0100
0010
0100
0001
0010
0001
0010
0001
0010
0001
0010
,
1000
0001
0010
0100
1000
0100
0010
0001
0100
0010
1000
0001
0100
0010
1000
0100
,
0010
0001
0100
0010
1000
0100
0010
0001
0100
0010
1000
0010
1000
0100
1000
0001
,
1000
0100
1000
0010
1000
0100
0010
0001
0010
0001
0100
0010
1000
0001
0100
0010
,
1000
0100
0010
0001
0100
0010
1000
0100
0010
0001
0100
0010
1000
0100
0001
0100
,
0001
0010
0001
0100
0001
0010
0001
0100
0010
0100
0010
1000
0100
0001
0010
0100
,
1000
0100
0010
0001
1000
0100
0010
0001
1000
0001
0010
0100
1000
0001
0010
0100
,
1000
0010
0100
0001
1000
0010
0100
0001
0100
0010
1000
0001
0100
0010
1000
0001
,
0100
0001
0100
0010
1000
0010
0100
0010
0100
0010
1000
0001
0010
0001
0100
0010
,
0001
0010
0100
1000
0100
0010
1000
0010
1000
0001
0100
0001
0100
0010
0100
0010
,
1000
0010
0100
0001
0100
0001
0100
0010
0100
0010
0001
0010
0100
0010
0001
0010
,
0100
1000
0010
0100
0010
0001
0100
0010
0001
1000
0100
0010
0001
0100
0010
0001
,
1000
0001
0010
0100
1000
0100
0010
1000
0010
1000
0010
0100
0001
0100
0010
0100
,
1010
0100
0010
0001
0110
1000
0001
1000
0101
0010
1000
0100
1001
0100
0010
0100
,
1001
0100
0010
0100
0010
0100
0010
0100
0010
0100
0010
0100
0010
0100
0010
0100
,
1001
0000
0000
0000
0000
0000
0001
0010
0100
1000
0001
0010
0100
1000
0001
0010
0100
1000
0001
0010
0100
1000
0001
0010
,
2200
0000
0000
0000
0000
0000
0000
3300
1100
0000
0010
0000
0001
0000
0010
0000
,
0100
1000
0100
0001
0100
1000
0100
0001
,
0010
1000
0100
0010
0001
0010
0100
0010
,
0001
0010
0100
1000
0010
0100
0001
1000
,
0100
0010
1000
0001
0010
0001
0100
0010
,
2100
0000
0000
0000
0000
0000
0000
0000
0000
0000
0000
0000
0000
0000
0000
0000
0000
0000
0000
0000
0000
0000
0000
0000
0000
0000
0000
0000
0000
0000
0000
0000
0000
0000
0000
0000
0000
0000
0000
0000
0000
0000
0000
0000
0000
0000
0000
0000
0000
0000
0000
0000
0000
0000
0000
0000
0000
0000
0000
0000
0000
0000
0000
0000
0000
0000
0000
0000
0000
0000
0000
0000
0000
0000
0000
0000
0000
0000
0000
0000
0000
0000
0000
0000
0000
0000
0000
0000
0000
0000
0000
0000
0000
0000
0000
3000
2010
0000
0000
0000
0000
0000
0000
0000
0000
0000
0000
0000
0000
0000
0000
0000
0000
0000
0000
0000
0000
0000
0000
0000
0000
0000
0000
0000
0000
0000
0000
0000
0000
0000
0000
0000
0000
0000
0000
0000
0000
0000
0000
0000
0000
0000
0000
0000
0000
0000
0000
0000
0000
0000
0000
0000
0000
0000
0000
0000
0000
0000
0000
0000
0000
0000
0000
0000
0000
0000
0000
0000
0000
0000
0000
0000
0000
0000
0000
0000
0000
0000
0000
0000
0000
0000
0000
0000
0000
0000
0000
0000
0000
0000
0000
0000
,
0000
0000
0000
0000
,
3002
0000
0000
0000
0000
0000
0013
0001
,
0200
0000
0000
0000
0000
0000
0000
0300
,
1100
0000
0110
0000
1100
0010
0001
0010
0100
0010
0001
0010
0100
0010
0001
0010
,
0100
0010
0001
0010
1100
0000
1010
0000
1100
0010
0001
0010
0100
1000
0100
0010
,
1100
0000
1010
0000
1100
0010
0001
0010
0100
0010
0001
0010
0100
0010
0001
0010
,
0100
1000
0100
0010
1100
0000
1010
0000
1200
0000
0010
0000
0010
0000
0310
0000
,
0002
0010
0100
1000
0100
0010
0100
1000
0100
0023
0100
0001
,
2030
0100
0010
0001
0010
0100
0010
0001
0010
0100
0010
0001
,
3200
0000
0000
0000
0010
0000
0000
0000
0001
0000
0000
0000
1000
0000
0000
0000
0001
0000
0020
0000
1000
0300
0000
0000
0001
0000
0000
0000
1000
0000
0000
0000
0100
0000
0000
0000
0032
0000
0000
0000
0010
0000
0000
0000
1000
0003
0000
0000
,
0200
0000
0010
0000
0001
0000
0010
0000
0001
2300
0100
0000
0010
0000
0001
0000
0010
0000
0100
0000
0010
3000
0001
0000
,
1001
0101
1001
0100
0010
0001
0100
0010
,
1000
0100
1001
0101
1001
0100
0010
0100
,
1001
0101
1001
0100
0010
0001
1000
0010
,
0100
0010
1001
0101
1001
0010
0100
1000
,
0001
1000
0001
1000
0001
1000
0001
0010
0100
0010
0100
0010
,
0100
1000
0100
1000
0100
0010
0100
0010
0001
0010
0100
0010
,
1000
0100
1000
0100
1000
0100
1000
0010
1000
0010
1000
0010
,
1000
0010
0001
0010
0100
1000
0100
0010
0001
0010
0100
0001
,
0010
0100
1000
0010
0100
0001
0100
1000
0100
0010
0001
0010
,
0100
0010
0001
0010
0100
1000
0100
0010
1000
0100
0010
0001
,
1000
0100
0010
0001
0010
0100
0010
0001
0010
0100
0010
0001
,
1000
0001
1000
0001
1000
0001
1000
0010
0100
0010
1000
0100
,
0022
0000
0000
0000
0000
0000
0000
0000
0033
0000
0000
0000
1000
0000
0000
0001
0000
0000
1000
0000
0000
0001
0000
0000
,
1000
0000
0001
0200
0320
0000
0000
0000
0000
0000
0230
0000
0320
0000
0000
0000
,
1031
0000
0000
0101
0000
0000
1010
0000
0000
0101
0000
0000
1100
0000
0010
0000
,
0001
0000
0000
0000
0010
0000
0000
0000
0100
0000
1000
0000
0100
0000
0010
0000
0001
0000
0000
0010
0000
1000
0000
0000
0001
0000
0000
0010
0000
0000
0000
0000
,
1001
0000
0000
0000
1001
0000
0000
0000
0000
0000
0000
0000
0000
0000
0000
0000
0220
0000
0000
0000
0000
0000
0000
0000
0000
0000
0000
0000
0330
0000
0000
0200
,
2000
0000
0300
0000
0000
0000
0000
3002
0020
0000
0003
0000
0030
0000
0000
0020
0200
0000
0030
0000
0000
0000
0300
2000
0002
0000
3000
0000
0000
0000
0003
0000
,
0000
0000
0200
0300
0020
0030
0002
0003
,
0020
0000
0000
0030
0100
0000
0020
0000
,
0030
0000
0000
0000
0020
0000
0000
0030
0200
0000
0000
0300
2000
0000
3000
0000
,
0200
0000
0000
0000
0000
0000
0300
0000
0020
0000
0000
0030
0002
0000
0000
0000
,
0000
0000
0003
0000
0200
0000
0000
0300
0020
0000
0000
0030
0002
0000
0000
0003
,
1000
1000
0100
0010
0100
0100
0010
0001
,
1000
0100
0010
0100
0010
0001
0100
0010
,
0001
0010
0100
0020
0000
0030
0000
0000
,
0022
0033
0022
0033
0022
0033
0220
0330
0022
0033
0022
0033
0022
0033
2200
3300
,
2002
3003
2002
3003
2002
3003
2200
3300
2020
3030
2020
3030
2002
0000
3003
0000
,
1000
0000
0000
0000
0100
0000
0000
0000
0010
0000
0000
0000
0001
0000
0000
0000
0010
0000
0001
0000
0000
0010
0000
0000
0001
0000
0000
0010
0000
0000
0100
0000
0000
0010
0000
0000
0001
0000
0000
0100
0000
0000
0010
0000
0000
0001
0000
0000
,
0010
0100
1000
0100
0010
0100
0010
0001
0100
1000
0100
0000
0002
0000
0000
0003
,
0001
0010
0100
1000
0100
0010
0001
0010
0100
1000
0100
0010
0001
0010
1000
0100
,
0010
0001
1000
0100
0010
0001
1000
0010
0100
0010
1000
0100
1000
0100
0010
0001
,
1000
0000
0100
0000
0010
0000
0001
0000
0000
0010
0000
0000
0100
0000
0000
0010
0000
0000
1000
0000
0000
0100
0000
0000
0001
0000
0000
0010
0000
0000
0100
0000
0000
0010
0000
0000
0001
0000
0000
0100
0000
0000
1000
0000
0000
0100
0000
0000
,
0010
0100
1000
0010
0100
0001
0010
0100
0010
0100
1000
0100
1000
0001
0001
0010
,
1100
1100
0000
0110
1100
1100
0202
0303
,
0110
0110
0011
0110
1010
0110
2200
3300
,
0011
0011
0110
1100
0110
0101
1010
0100
,
0001
0000
0001
1000
0020
0000
0000
0030
,
1000
0100
0010
0001
0010
0000
1000
0000
0100
0000
0010
0000
0001
0000
0010
0000
0100
0000
1000
0000
0100
0000
1000
0000
0020
0000
0000
0000
0030
0000
0000
0000
,
0001
0010
0100
1000
0100
0000
0010
0000
0001
0000
0010
0000
0100
0000
0010
0000
1000
0000
0100
0000
0010
0000
0001
0000
0020
0000
0000
0000
0030
0000
0000
0000
,
0001
0010
0100
1000
0001
0100
0010
1000
0001
0100
0010
1000
0001
0010
0100
1000
,
0001
0000
0000
1000
0000
0000
0100
0000
0000
0010
0000
0000
0001
0000
0000
1000
0000
0000
0100
0000
0000
0010
0000
0000
0001
0000
0010
0000
0100
0000
1000
0000
0001
0000
0010
0000
0100
0000
1000
0000
0001
0000
0010
0000
0100
0000
1000
0000
,
0001
0010
0100
1000
0001
0010
0100
1000
0010
1000
0100
0010
0001
1000
0100
0010
,
0001
0010
0100
1000
0001
0010
0100
1000
0010
1000
0100
0010
0002
0000
0000
0003
,
0020
0000
0000
0000
0000
0000
0000
0000
0000
0000
0000
0000
0000
0000
0000
0000
0000
0000
0030
0000
0000
0000
0000
0000
0100
0000
0000
0000
0000
0000
0000
0000
0000
0000
0000
0000
1000
0000
0000
0000
0000
0000
0000
0000
0000
0000
0000
0000
0100
0000
0000
0000
0000
0000
0000
0000
0010
0000
0000
0000
0000
0000
0000
0000
0000
0000
0000
0000
0000
0000
0000
0000
0000
0000
0000
0000
0000
0000
0000
0000
0000
0000
0000
0000
0100
0000
0000
0000
0000
0000
0000
0000
0000
0000
0000
0000
0010
0000
0000
0000
0000
0000
0000
0000
0000
0000
0000
0000
0001
0000
0000
0000
0000
0000
0000
0000
0000
0000
0000
0000
0010
0000
0000
0000
0000
0000
0000
0000
0000
0000
0000
0000
0001
0000
0000
0000
0000
0000
0000
0000
0000
0000
0000
0000
1000
0000
0000
0000
0000
0000
0000
0000
0000
0000
0000
0000
0001
0000
0000
0000
0000
0000
0000
0000
0000
0000
0000
0000
0010
0000
0000
0000
0000
0000
0000
0000
0000
0000
0000
0000
0001
0000
0000
0000
0000
0000
0000
0000
0000
0000
0000
0000
,
0010
0000
0000
0000
0000
0000
0100
0000
0000
0000
0000
0000
0001
0000
0000
0000
0000
0000
0000
0000
0000
0000
0001
0000
2000
0000
0000
0000
0000
0000
0000
0000
0000
0000
0000
0000
3200
0000
0000
0320
0000
0000
0200
0000
0000
0030
0000
0000
,
0301
0010
0100
1000
0100
0010
0001
1000
0100
0010
0001
1000
,
0100
0010
1000
0100
0010
0001
0010
0100
1000
0020
0000
0030
,
0102
0000
0000
0000
0000
0000
0000
0000
0000
0000
0000
0000
0000
0000
0000
0000
0000
0000
0010
0000
0000
0000
0000
0000
0100
0000
0000
0000
0000
0000
0000
0000
0003
0000
0000
0000
0000
0000
0000
0000
0000
0000
1000
0000
0000
0000
0000
0000
0100
0000
0000
0000
0000
0000
0000
0000
0000
0000
0000
0000
0000
0000
0000
0000
0000
0000
0010
0000
0000
0000
0000
0000
0001
0000
0000
0000
0000
0000
0000
0000
0000
0000
0000
0000
0000
0000
0000
0000
0000
0000
0100
0000
0000
0000
0000
0000
0010
0000
0000
0000
0000
0000
0000
0000
0000
0000
0000
0000
0000
0000
0000
0000
0000
0000
1000
0000
0000
0000
0000
0000
0001
0000
0000
0000
0000
0000
0000
0000
0000
0000
0000
0000
0000
0000
0000
0000
0000
0000
0100
0000
0000
0000
0000
0000
0020
0000
0000
0000
0000
0000
0000
0000
0000
0000
0000
0000
0000
0000
0000
0000
0000
0000
0000
0000
0000
0000
0000
0000
0000
0000
0000
0000
0000
0000
0000
0000
0000
0000
0000
0000
0030
0000
0000
0000
0000
0000
0000
0000
0000
0000
0000
0000
,
0001
0010
0100
0010
0100
1000
0100
0010
0001
0010
0100
0010
,
0001
0010
0100
1000
0100
0010
0100
1000
0001
1000
0001
1000
0010
0100
0010
0001
,
1200
1000
0010
0301
0000
0000
1000
0200
,
0000
0000
0000
0300
0000
0000
0020
0030
0000
0000
0000
0000
0002
0000
0003
0000
,
2000
0000
0000
0000
3000
0000
0200
0000
0000
0300
0000
0000
0020
0000
0030
0000
,
2000
0000
0000
0000
0000
0000
0000
0000
0000
0000
0000
0000
0000
0000
0000
3000
,
1000
0100
0010
0001
0010
0001
0010
0100
0010
0001
0010
0100
1000
0001
0100
0010
,
0001
0100
0010
1000
0001
0010
0001
0100
0001
0010
1000
0100
0010
0001
1000
0100
,
0010
0001
0010
1000
0010
0001
0010
1000
,
0100
0000
0010
0002
0000
0000
0000
0003
,
0001
0010
0100
1000
0001
0010
0100
1000
0001
0010
0100
1000
0001
0010
0100
1000
0001
0010
0100
1000
0001
0010
0100
0010
,
1000
0100
0010
0001
1000
0100
0010
0001
1000
0100
0010
0001
1000
0100
0010
0001
0010
0100
1000
0000
0000
0010
0000
0000
,
0001
0000
0010
0000
1000
0000
0002
0003
0100
0000
1000
0000
0220
0330
0022
0000
,
0033
0000
2200
3300
0220
0330
0010
0000
0001
0000
0100
0000
1000
0000
0010
0000
,
2020
3030
2020
3030
0202
0303
2020
0000
0000
3030
0100
0000
0010
0000
0001
0000
,
1000
0100
0010
0001
0010
0100
1000
0100
0010
0001
0010
0100
2000
0000
0000
0200
0000
3000
0020
0000
0300
0002
0000
0030
,
0013
1000
0100
0010
0001
1000
0100
0010
0001
0010
0100
1000
0001
1000
0100
0010
,
0002
0000
2003
3000
0002
0000
2003
0000
3000
0000
0200
0000
0000
0300
0020
0000
,
0032
0000
0000
2003
0000
3000
0200
0000
,
0320
0000
0000
0030
,
0002
0000
0000
0023
0000
0030
0200
0000
,
2300
3000
0200
0300
,
0020
0000
0000
2030
0000
3000
0020
0000
,
0230
0000
0300
0002
0000
0003
0020
0000
,
0230
0000
0000
0000
,
0000
0000
0000
0000
0000
0300
0000
0000
,
0010
0000
1001
0000
,
0000
0010
1001
0000
,
0010
0000
1001
0000
,
0000
0010
1001
0000
,
0010
0000
1001
0000
,
0000
0010
1001
0000
,
2002
0000
0000
0000
0000
0000
0000
3003
,
0110
0000
0000
0000
2200
3300
0000
0000
0220
0330
0000
0000
0202
0303
0000
0000
,
0110
0001
0010
0100
1000
0100
0010
0001
0010
0001
0100
0010
0100
1000
0100
0010
,
0001
0100
0001
0100
0001
0100
1000
0010
0100
0001
1000
0010
0100
1000
0001
0010
,
0100
0010
0001
0010
0100
1000
0010
0001
0100
0010
1000
0010
0100
0001
0100
0010
,
1000
0010
0100
0010
0100
0010
1000
0001
0010
0001
0100
0010
0001
0100
0010
0001
,
1000
0100
0010
0001
0010
0100
1000
0100
0010
0001
1000
0001
0010
0100
1000
0001
,
0010
0100
1000
0010
0100
0001
1000
0010
0100
0001
0100
0010
0001
0010
0001
0100
,
1000
0100
0010
0001
1000
0100
0010
0001
1000
0100
0010
0001
1000
0100
0010
0001
,
0010
1000
0001
0100
0010
1000
0001
0100
0010
1000
0100
0010
0001
0010
0100
1000
,
0100
0010
0100
0010
1000
0001
0010
0001
1000
0001
0010
0001
0100
0010
1000
0010
,
0100
0010
1000
0100
0010
0001
0100
0010
0100
1000
0100
0010
0001
0100
0010
1000
,
0001
0100
0010
1000
0100
0010
0001
0100
0010
0100
0010
0001
0100
1000
0100
0010
,
0001
0010
0100
1000
0100
0010
0001
0100
0001
0010
0001
0010
0100
1000
0100
0010
,
0100
0010
0001
0010
0001
0100
0010
0100
0010
0100
1000
0100
1000
0100
0010
0100
,
1001
0100
0010
0001
1100
0001
0010
0100
1001
0010
0100
1000
0101
0010
0100
0010
,
1001
0100
0010
0001
0010
0000
1000
0100
0010
0001
0010
0100
1000
0100
0010
0100
,
0022
0000
0000
0033
0220
0000
0000
0330
2200
0000
0000
3300
0022
0000
0000
0033
,
1000
0100
0010
0001
1000
0100
0010
0001
1000
0100
0010
0001
1000
0100
0010
0001
1000
0100
0010
0001
1000
0100
0010
0001
,
1000
0000
0100
0000
0010
0000
0001
0000
1000
0000
0100
0000
0010
0000
0001
0000
1000
0000
0100
0000
0010
0000
0001
0000
1000
0000
0100
0000
0010
0000
0001
0000
1000
0000
0100
0000
0010
0000
0000
1000
0000
0000
0001
0000
0000
1000
0000
0000
,
0120
0000
0100
0000
0100
0000
0100
0030
2001
0000
0001
0000
0001
0000
0001
3000
,
0210
0000
0010
0000
0010
0000
0010
0300
1002
0000
1000
0000
1000
0000
1000
0003
,
1000
0100
0010
0001
0010
0100
1000
0100
0010
0001
0010
0100
1000
0100
0010
0001
,
1000
0000
0000
0010
0000
0000
0100
0000
0000
0001
0000
0000
0010
0000
0000
0100
0000
0000
0010
0000
0000
0001
0000
0000
1000
0000
0100
0000
0010
0000
0001
0000
1000
0000
0100
0000
0010
0000
0001
1000
0000
0000
0100
0000
0000
0010
0000
0000
,
2002
0000
3003
0000
2002
0000
0000
0000
0000
0000
0000
0000
0000
0000
0000
0100
,
3013
0001
0000
0000
0000
0000
0000
0000
0000
0000
0000
0000
0000
0000
0000
0000
;
