#TITLE:Lord of the Thunder;
#SUBTITLE:;
#ARTIST:Rhapsody;
#TITLETRANSLIT:;
#SUBTITLETRANSLIT:;
#ARTISTTRANSLIT:;
#CREDIT:Arvin;
#BANNER:../bn-Rhapsody.png;
#BACKGROUND:../Rhapsody-bg.png;
#LYRICSPATH:;
#CDTITLE:;
#MUSIC:09 - Lord Of The Thunder.ogg;
#OFFSET:-0.086;
#SAMPLESTART:33.293;
#SAMPLELENGTH:12.000;
#SELECTABLE:YES;
#DISPLAYBPM:190.000;
#BPMS:0.000=180.120,60.000=144.000,63.000=136.570,72.000=190.013,460.000=180.013,461.500=190.013,490.000=200.013,492.000=190.013,550.000=185.013,552.000=190.013,648.000=180.513,654.000=190.013,682.000=180.513,688.000=190.013,788.000=187.013,792.000=190.013;
#STOPS:;
#BGCHANGES:;
// cache tags:
#FIRSTBEAT:0.000;
#LASTBEAT:1008.000;
#SONGFILENAME:Songs/Rhapsody of Fire/Lord of the Thunder - [Arvin]/thunderlord.sm;
#HASMUSIC:1;
#HASBANNER:1;
#MUSICLENGTH:334.497;
// end cache tags

//---------------dance-single - ----------------
#NOTES:
     dance-single:
     :
     Challenge:
     14:
     1.000,1.000,0.466,0.475,1.000,2188.000,156.000,159.000,8.000,1.000:

2002
3003
2020
3030
2200
3300
2002
0000
,
0000
0000
0000
3003
0011
0010
0110
0100
,
1100
1000
1001
0000
0000
0000
0000
0000
,
2002
3003
0022
0033
0202
0303
2002
3003
,
1100
0100
0110
0010
0011
0001
0101
0100
,
0101
0001
1001
0000
0000
0000
0000
0000
,
2002
3003
2200
3300
2020
3030
2002
3103
,
0000
0100
0110
0000
0010
0011
1001
0000
,
0010
1010
1001
0000
0000
0000
0000
0000
,
2002
3003
2020
3030
2200
3300
2002
3003
,
1000
0100
1000
0000
1010
0000
0010
0000
0110
0000
0101
0000
0001
0000
0100
0000
,
0010
1010
1001
0000
0000
0000
0000
0000
,
2002
3003
0202
0303
0022
0033
2002
3003
,
0101
0000
0100
0000
0010
1000
0010
0000
0100
0000
0001
0000
0101
0000
0100
0000
,
0101
0001
1001
0000
0000
0000
0000
0000
,
2002
3003
0022
0033
0202
0303
2002
0000
,
0000
0000
0000
0000
,
0000
0000
0000
0000
0000
0000
0000
3003
,
1000
0010
1000
0010
0100
0000
0001
0010
0001
0010
0100
0000
1000
0001
1000
0001
,
0010
0000
0100
0000
1000
0100
1000
0100
0010
0001
0010
0001
1000
0100
1000
0100
,
0010
0000
0001
0100
0001
0100
0010
0000
1000
0001
1000
0001
0100
0000
0010
0000
,
1000
0010
1000
0010
0100
0001
0100
0001
1000
0100
1000
0100
1000
0010
1000
0010
,
0100
0000
0001
0010
0001
0010
0100
0000
1000
0001
1000
0001
0010
0000
0100
0000
,
1000
0100
1000
0100
0010
0001
0010
0001
1000
0100
1000
0100
0010
0000
0001
0100
,
0001
0100
0010
0000
1000
0001
1000
0001
0100
0000
0010
0000
1000
0010
1000
0010
,
0100
0001
0100
0001
1000
0100
1000
0100
0010
0001
0010
0001
1000
0001
0100
0010
,
0100
0001
0100
0001
0010
0100
1000
0100
1000
0001
0100
0010
1000
0001
0010
0100
,
1000
0010
1000
0100
1000
0010
1000
0100
0010
0001
0010
0001
1000
0010
0100
0001
,
0100
0001
0010
0100
1000
0010
1000
0010
0100
0001
0010
0100
1000
0010
0100
0001
,
1000
0100
0010
0100
1000
0001
1000
0001
0010
0100
1000
0001
1000
0001
0010
0100
,
1000
0010
0100
0001
1000
0001
0100
0010
1000
0001
1000
0001
1000
0001
1000
0001
,
1000
0010
1000
0010
0100
0001
0010
0100
0010
0100
1000
0001
1000
0001
0010
0100
,
1000
0001
0010
0100
1000
0010
0100
0001
0010
0100
1000
0100
0010
0001
1000
0001
,
1000
0000
0010
0100
0010
0000
1000
0000
0001
0000
1000
0010
1000
0000
0001
0000
,
1000
0000
0100
0010
0001
0000
0100
0000
0010
0000
1000
0000
0001
0000
0010
0000
,
0100
0000
1000
0001
1000
0000
0100
0000
0010
0000
0001
1000
0001
0000
0100
0000
,
0010
0000
1000
0001
0010
0000
0100
0000
1000
0000
0001
0000
0100
0000
0010
0000
,
1010
0000
1000
0010
0100
0000
0001
0000
0010
0000
0100
0000
1000
0000
0001
0000
,
1001
0000
1000
0100
0010
0000
0001
0000
1000
0000
0010
0000
0100
0000
0001
0000
,
1001
0000
1010
0000
,
2200
0000
0000
0000
0000
0000
0000
3300
,
1000
0100
1000
0100
1000
0000
0100
0000
0010
0000
0001
0000
0100
0000
0001
0000
,
1000
0010
1000
0010
1000
0000
0001
0000
0100
0000
0010
0000
0100
0000
0001
0000
,
0010
0001
0010
0001
0010
0000
0100
0000
1000
0000
0001
0000
0100
0000
0001
0000
,
0100
0001
0100
0001
0100
0000
0010
0000
1010
0000
0000
1001
0000
0000
0101
0000
,
0001
0100
0001
0100
0001
0000
0010
0000
0001
0000
1000
0000
0100
0000
0010
0000
,
0100
1000
0100
1000
0100
0000
0010
0000
0001
0000
0100
0000
0010
0000
1000
0000
,
0001
1000
0001
1000
0001
0000
1000
0000
0100
0000
0010
0000
0001
0000
0100
0000
,
0001
1000
0001
1000
0001
0000
0100
0000
0110
0000
0000
0101
0000
0000
1001
0000
,
1000
0100
0010
0001
1000
0000
0100
0000
0010
0000
0001
0000
0100
0000
0001
0000
,
1000
0010
0100
0001
1000
0000
0100
0000
0010
0000
0100
0000
1000
0000
0010
0000
,
0100
0001
1000
0100
1000
0000
0010
0000
0100
0000
0001
0000
0010
0000
0100
0000
,
0010
0001
1000
0100
1000
0000
0001
0000
0101
0000
0000
1010
0000
0000
1001
0000
,
0001
0010
0100
1000
0001
0000
0010
0000
0100
0000
1000
0000
0010
0000
1000
0000
,
0001
0100
0010
1000
0001
0000
0010
0000
0100
0000
0010
0000
0001
0000
0100
0000
,
0010
1000
0001
0010
0001
0000
0100
0000
0010
0000
1000
0000
0100
0000
0010
0000
,
0100
1000
0001
0010
0001
0000
1000
0000
1010
0000
0000
0101
0000
0000
1001
0000
,
2002
0000
0000
0000
0000
0000
0000
3003
,
2020
0000
0000
0000
0000
0000
0000
3030
,
1000
0010
1000
0010
1000
0000
0010
0000
0100
0000
0001
0000
0010
0000
0001
0000
,
1000
0100
1000
0100
1000
0000
0001
0000
0010
0000
0100
0000
0010
0000
0001
0000
,
1000
1000
0100
0010
0100
1000
0010
0100
,
0001
0001
0100
0010
1000
0100
0010
0001
,
0100
0001
0100
0001
0100
0000
0010
0000
1000
0000
0001
0000
0010
0000
0001
0000
,
0010
0001
0010
0001
0010
0000
0100
0000
1000
0000
0010
0000
0100
0000
0001
0000
,
1000
1000
0100
0010
0100
1000
0010
0100
,
0001
0001
0100
0010
1000
0100
0010
0001
,
1000
0100
1000
0010
0100
0001
0011
0000
0101
0000
1001
0000
,
0001
0010
0001
0100
0010
1000
1010
0000
1100
0000
1001
0000
,
1000
0100
0010
0001
0100
0010
0110
0000
0101
0000
1001
0000
,
0001
1000
0001
1000
0001
0000
0100
0000
0010
0000
0000
1000
0000
0000
0001
0000
,
1000
0001
1000
0001
1000
0000
0100
0000
0010
0000
0000
0001
0000
0000
1000
0000
,
0001
0010
0001
0010
0001
0000
0100
0000
0220
0000
0330
0000
0202
0000
0303
0000
,
2002
0000
3003
0000
2200
0000
3300
0000
1000
0100
1000
0100
1000
0000
0100
0000
,
0010
0000
0001
0000
0100
0000
0001
0000
1000
0010
1000
0010
1000
0000
0001
0000
,
0100
0000
0010
0000
0100
0000
0001
0000
0010
0001
0010
0001
0010
0000
0100
0000
,
1000
0000
0001
0000
0100
0000
0001
0000
0100
0001
0100
0001
0100
0000
0010
0000
,
1010
0000
0000
1001
0000
0000
0101
0000
0001
0100
0001
0100
0001
0000
0010
0000
,
0001
0000
1000
0000
0100
0000
0010
0000
0100
1000
0100
1000
0100
0000
0010
0000
,
0001
0000
0100
0000
0010
0000
1000
0000
0001
1000
0001
1000
0001
0000
1000
0000
,
0100
0000
0010
0000
0001
0000
0100
0000
0001
1000
0001
1000
0001
0000
0100
0000
,
0110
0000
0000
0101
0000
0000
1001
0000
1000
0100
0010
0001
1000
0000
0100
0000
,
0010
0000
0001
0000
0100
0000
0001
0000
1000
0010
0100
0001
1000
0000
0100
0000
,
0010
0000
0100
0000
1000
0000
0010
0000
0100
0001
1000
0100
1000
0000
0010
0000
,
0100
0000
0001
0000
0010
0000
0100
0000
0010
0001
1000
0100
1000
0000
0001
0000
,
0101
0000
0000
1010
0000
0000
1001
0000
0001
0010
0100
1000
0001
0000
0010
0000
,
0100
0000
1000
0000
0010
0000
1000
0000
0001
0100
0010
1000
0001
0000
0010
0000
,
0100
0000
0010
0000
0001
0000
0100
0000
0010
1000
0001
0010
0001
0000
0100
0000
,
0010
0000
1000
0000
0100
0000
0010
0000
0100
1000
0001
0010
0001
0000
1000
0000
,
1010
0000
0000
0101
0000
0000
1001
0000
2002
0000
0000
0000
0000
0000
0000
0000
,
0000
0000
0000
3003
2020
0000
0000
0000
,
0000
0000
0000
0000
0000
0000
3030
0000
1000
0010
1000
0010
1000
0000
0010
0000
,
0100
0000
0001
0000
0010
0000
0001
0000
1000
0100
1000
0100
1000
0000
0001
0000
,
0010
0100
0010
0001
1000
1000
0100
0010
,
0100
1000
0010
0100
0001
0001
0100
0010
,
1000
0000
0100
0000
0010
0000
0001
0000
0100
0001
0100
0001
0100
0000
0010
0000
,
1000
0000
0001
0000
0010
0000
0001
0000
0010
0001
0010
0001
0010
0000
0100
0000
,
1000
0010
0100
0001
1000
1000
0100
0010
,
0100
1000
0010
0100
0001
0001
0100
0010
,
1000
0000
0000
0100
0000
0000
0010
0000
0000
0001
0000
0000
1000
0000
0100
0000
1000
0000
0010
0000
0100
0000
0001
0000
,
0011
0000
0101
0000
1001
0000
0001
0010
0001
0100
0010
1000
,
1010
0000
1100
0000
1001
0000
1000
0100
0010
0001
0100
0010
,
0110
0000
0000
0000
0000
0000
0000
0000
0101
0000
0000
0000
0000
0000
0000
0000
1001
0000
0000
0000
0000
0000
0000
0000
0001
0000
0000
1000
0000
0000
0001
0000
0000
1000
0000
0000
0001
0000
0000
0000
0000
0000
0100
0000
0000
0000
0000
0000
,
0010
0000
0000
1000
0000
0000
0001
0000
1000
0001
1000
0001
1000
0000
0100
0000
,
0010
0000
0000
0001
0000
0000
1000
0000
0001
0010
0001
0010
0001
0000
0100
0000
,
0220
0330
0202
0303
2002
3003
2200
3300
,
2000
0000
3001
0010
0100
0000
1000
0000
,
0002
0000
0103
0010
2000
0000
0000
0000
,
3002
0000
1003
0100
0010
0000
0100
0000
,
1000
0010
0100
0101
,
0002
0000
1003
0100
0010
0000
0001
0000
,
2000
0000
3010
0100
0002
0000
0000
0000
,
2003
0000
3001
0010
0100
0000
0010
0000
,
0002
0000
1003
0010
,
0200
0000
0000
0000
0000
0000
0000
0000
0301
0010
0001
0010
0001
1000
0010
1000
,
0002
0000
0000
1003
0010
1000
0001
0100
,
0002
0000
0000
1003
0200
0000
0000
0000
,
0310
0000
0000
0001
2000
0000
3000
0001
,
0200
0000
0310
0100
,
0002
0000
0000
1003
0200
0000
0000
0310
,
0001
0000
1000
0000
0010
0000
0200
0000
0000
0000
0000
0000
,
0301
0000
1000
0010
1000
0010
1000
0000
0001
0000
0010
0000
0100
0000
1000
0000
,
0001
0100
0001
0000
,
2MM1
0000
0000
0000
0000
0000
0000
0000
3000
0000
0001
0010
0001
0100
0010
1000
,
0002
0000
0000
1003
0200
0000
0000
0310
,
0001
0001
1000
1000
0010
0010
0100
0100
,
0002
0000
0000
0000
0000
0000
0000
0000
2003
0000
0000
3000
0001
0100
0001
1000
,
0020
0000
0000
0130
0002
0000
0000
1003
,
0100
0100
0010
0010
0001
0001
1000
1000
,
0010
0110
0101
MMMM
,
0002
0000
0000
0000
0000
0000
0000
0000
0003
0000
1000
0100
1000
0010
0100
0001
,
2000
0000
0000
3001
0020
0000
0000
0130
,
1000
1000
0001
0001
0100
0100
0010
0010
,
2000
0000
0000
3001
0200
0000
0300
0001
,
2000
0000
0000
0000
3010
0000
1000
0001
,
1000
1000
0100
0100
0020
0000
0000
0000
,
0032
0000
0000
0000
1003
0010
1000
0001
,
1000
1010
1001
0000
,
1001
0000
1000
0100
0010
0100
1000
0010
,
0100
0101
1001
1100
,
1001
0000
0001
0010
0100
0010
0001
0010
,
0100
1100
1001
0101
,
0002
0000
1003
0100
0010
0001
0010
0100
,
1000
0010
1000
0100
1000
0001
1000
0010
,
1000
0100
0010
0001
0100
0001
1000
0001
,
0010
0100
1000
0010
0100
0010
1000
0001
,
2000
0000
0000
0000
0000
0000
0000
3000
,
1001
0000
0001
0010
0100
0010
0001
0100
,
0010
1010
1001
0011
,
1001
0000
1000
0100
0010
0100
1000
0100
,
0010
0011
1001
1010
,
2000
0000
0000
3001
1000
0100
0100
0010
,
0010
0001
1000
0010
2000
0000
0000
3001
,
0020
0000
0000
0130
1000
0010
0100
0001
,
1001
0101
1001
0000
,
1000
0100
0010
0001
0100
0010
0100
0001
1000
0100
0010
0100
1000
0010
0100
0001
,
1000
0100
1000
0001
0010
0001
1000
0010
1000
0001
0100
0001
1000
0100
1000
0001
,
2000
0000
0000
0000
0000
0000
0000
0000
0000
0000
3100
0000
0010
0001
0010
0000
,
0200
0000
0000
0000
1300
0001
0001
0100
,
0010
1000
1000
0001
0010
0010
0100
1000
,
0001
0000
0001
0000
0100
0000
0010
0000
1000
0000
0000
0001
0000
0000
0100
0000
,
0020
0000
0000
0000
1030
0100
0010
0001
0010
0100
1000
0010
0100
0001
0010
0100
,
1000
0001
0010
0001
1000
0010
0100
0010
1000
0100
0010
0001
1000
0001
0100
0001
,
1000
0100
0010
0100
1000
0010
0100
0001
2000
0000
0000
0000
0000
0000
0000
0000
,
0000
0000
3001
0010
0100
0000
1000
0000
0002
0000
0000
0000
0000
0000
0203
0000
,
0000
0000
0310
1000
0002
0000
0000
0000
,
0000
1003
0100
0010
0200
0000
0000
0000
,
0300
0000
0000
0000
1000
0100
0010
0001
0200
0000
0000
0000
0000
0000
0320
0000
,
0000
0000
2030
0000
3002
0000
0000
2003
,
0000
3020
4030
0000
,
0000
0000
0000
0000
3001
0000
0000
0000
1000
0001
0010
0001
1000
0010
0100
0010
,
1000
0100
0010
0001
1000
0001
0100
0001
1000
0100
0010
0100
1000
0010
0100
0001
,
1000
0100
0010
0001
0100
0010
1000
0100
0010
0001
0100
0010
,
1000
0010
0100
0001
0010
0001
1000
0100
1000
0010
0100
0001
,
1000
0010
1000
0010
1000
0010
1000
0010
1000
0010
0100
0001
,
2000
0000
0000
0000
,
3001
0100
0010
1000
0001
0100
0002
0000
0000
0000
0000
0000
,
1003
0100
0010
0001
1000
0001
2000
0000
0000
0000
0000
0000
,
3020
0000
0000
0000
0000
0000
0000
0000
0000
0130
0001
1000
,
0020
0000
0000
0000
0000
0000
0000
0000
0000
0130
0001
0010
,
0100
1000
0100
0010
0001
0010
0100
1000
0100
0010
0001
0010
,
0100
1000
0100
0010
0001
0010
0100
1000
0100
0010
0001
0010
,
0100
1000
0010
0100
0001
0100
0010
1000
0010
0100
0001
0100
,
0010
1000
0010
0100
0001
0100
0010
1000
0010
0100
0001
0100
,
0010
1000
0100
0010
0001
0100
0010
1000
0100
0010
0001
0100
,
0010
1000
0100
0010
0001
0100
0010
1000
0100
0010
0001
1000
,
0001
0010
0100
1000
0010
0100
0001
0010
0100
1000
0010
0100
,
0001
0010
0001
1000
0010
0100
0001
1000
0100
0010
0001
1000
,
0001
0010
0001
1000
0001
0100
0001
0010
0100
1000
0100
0010
0001
1000
0001
1000
,
0010
0100
0001
0100
0010
1000
0001
0010
0100
1000
0001
1000
0010
0100
0001
1000
,
0001
0000
0000
0010
0000
0000
0100
0000
0000
1000
0000
0000
0010
0000
0000
0100
0000
0000
0001
0000
0000
1000
0000
0000
0001
0000
0000
0000
0100
0000
0010
0000
0000
1000
0000
0000
0001
0000
0000
0000
0010
0000
0100
0000
0000
1000
0000
0000
,
0004
0000
0000
0000
,
1003
0100
0010
0001
1000
0010
1000
0001
2000
0000
0000
0000
3001
0010
0100
1000
,
0002
0000
0000
0003
1000
0100
0010
0001
1000
0010
0100
0001
0100
0010
1000
0100
,
0010
0000
0001
0100
0010
0100
0001
0010
0100
1000
0001
1000
0010
0100
0001
1000
,
0100
0010
0001
0000
1000
0100
0010
0000
0001
0100
0010
1000
0010
0100
0001
0100
,
0010
0000
1000
0100
0010
0001
0010
0100
1000
0000
0001
0010
0100
0010
0001
0100
,
0010
0000
1000
0100
0010
0100
1000
0010
0200
0000
0000
0000
0300
0000
0000
0000
,
2002
0000
0000
0000
,
0000
3003
1000
0100
0010
0001
1000
0010
,
0200
0000
0000
0000
0000
0000
0301
0100
,
0010
1000
0010
1000
0010
1000
0010
1000
0010
1000
0010
1000
0010
1000
0010
1000
,
0001
0010
0001
0010
0001
0010
0001
0010
0100
1000
0100
1000
0100
1000
0100
1000
,
0001
0100
0001
0100
0001
0100
0001
0100
0010
1000
0010
1000
0010
1000
0010
1000
,
0001
0100
0001
0100
0001
0100
0001
0100
0010
1000
0010
1000
0010
1000
0010
1000
,
0001
0010
0001
0010
0001
0010
0001
0010
0100
1000
0100
1000
0100
1000
0100
1000
,
0001
0010
0001
0010
0001
0010
0001
0010
0100
1000
0100
1000
0100
1000
0100
1000
,
0001
0100
0001
0100
0001
0100
0001
0100
0010
1000
0010
1000
0010
1000
0010
1000
,
0001
0100
0001
0100
0001
0100
0001
0100
0010
1000
0010
1000
0010
1000
0010
1000
,
0001
0000
0101
0000
1001
0000
1010
0000
1100
0000
0110
0000
,
2002
0000
0000
0000
0000
0000
0000
3003
,
0202
0000
0000
0000
0000
0000
0000
0303
,
0001
0100
0001
0100
0001
0000
0100
0000
0010
0000
1000
0000
0100
0000
1000
0000
,
0001
0010
0001
0010
0001
0000
1000
0000
0100
0000
0010
0000
0100
0000
1000
0000
,
0001
0001
0010
0100
0010
0001
0100
0010
,
1000
1000
0010
0100
0001
0010
0100
1000
,
0010
1000
0010
1000
0010
0000
0100
0000
0001
0000
1000
0000
0100
0000
1000
0000
,
0100
1000
0100
1000
0100
0000
0010
0000
0001
0000
0100
0000
0010
0000
1000
0000
,
0001
0001
0010
0100
0010
0001
0100
0010
,
1000
1000
0010
0100
0001
0010
0100
1000
,
0001
0010
0001
0100
0010
1000
1100
0000
1010
0000
1001
0000
,
1000
0100
1000
0010
0100
0001
0101
0000
0011
0000
1001
0000
,
0001
0010
0100
1000
0010
0100
0110
0000
1010
0000
1001
0000
,
1000
0001
1000
0001
1000
0000
0010
0000
0100
0000
0000
0001
0000
0000
1000
0000
,
0001
1000
0001
1000
0001
0000
0010
0000
0100
0000
0000
1000
0000
0000
0001
0000
,
1000
0100
1000
0100
1000
0000
0010
0000
0220
0000
0330
0000
2020
0000
3030
0000
,
2002
3003
0022
0033
0002
0000
1003
0100
,
0010
0000
0001
0000
2000
0000
3010
0100
,
0002
0000
0000
0000
2003
0000
3001
0010
,
0100
0010
0001
0100
,
0010
0000
1010
0000
2000
0000
3001
0010
,
0100
0000
1000
0000
0002
0000
0103
0010
,
2000
0000
0000
0000
3002
0000
1003
0100
,
0010
0100
2000
0000
,
3001
0100
0020
0000
,
1030
0100
1000
0000
0001
0000
0100
0000
0010
1000
0010
1000
0010
1000
0010
1000
,
0001
0010
0001
0010
0001
0010
0001
0010
0100
1000
0100
1000
0100
1000
0100
1000
,
0001
0100
0001
0100
0001
0100
0001
0100
0010
1000
0010
1000
0010
1000
0010
1000
,
0001
0100
0001
0100
0001
0100
0001
0100
0010
1000
0010
1000
0001
0010
0001
0010
,
0100
1000
0100
1000
0100
1000
0100
1000
0010
1000
0010
1000
0010
1000
0010
1000
,
0001
0010
0001
0010
0001
0010
0001
0010
0100
1000
0100
1000
0100
1000
0100
1000
,
0001
0100
0001
0100
0001
0100
0001
0100
0010
1000
0010
1000
0010
1000
0010
1000
,
0001
0100
0001
0100
0001
0100
0001
0100
0010
1000
0010
1000
0010
1000
0010
1000
,
0001
1000
0001
1000
0010
0100
0010
0100
0001
1000
0001
1000
0001
1000
0001
1000
,
0001
1000
0001
1000
0001
1000
0001
1000
0100
1000
0100
1000
0001
1000
0010
0100
,
0010
1000
0010
1000
0100
0010
0001
0010
0001
1000
0010
0100
0001
1000
0100
0010
,
0001
0100
0001
0010
0001
0100
0001
0010
0100
1000
0100
1000
0001
0100
0010
1000
,
0010
1000
0100
0010
0001
0100
0001
0100
0010
1000
0100
0010
0001
0100
0010
1000
,
0001
0010
0100
0010
0001
1000
0001
1000
0100
0010
0001
1000
0001
1000
0100
0010
,
0001
0100
0010
1000
0001
1000
0010
0100
0001
1000
0001
1000
0001
1000
0001
1000
,
0001
0100
0001
0100
0010
1000
0100
0010
0100
0010
0001
1000
0001
1000
0100
0010
,
0001
1000
0100
0010
0001
0100
0010
1000
0100
0010
0001
0010
0100
1000
0001
1000
,
0MM1
0000
0000
0000
;
