#TITLE:Speedy Cat;
#SUBTITLE:;
#ARTIST:Y&Co.;
#TITLETRANSLIT:;
#SUBTITLETRANSLIT:;
#ARTISTTRANSLIT:;
#CREDIT:;
#BANNER:speedycat-bn.bmp;
#BACKGROUND:speedycat-bg.bmp;
#LYRICSPATH:;
#CDTITLE:;
#MUSIC:Speedy Cat.mp3;
#OFFSET:-6.680;
#SAMPLESTART:49.840;
#SAMPLELENGTH:13.480;
#SELECTABLE:YES;
#BPMS:0.000=155.000;
#STOPS:;
#BGCHANGES:;
// cache tags:
#FIRSTBEAT:11.500;
#LASTBEAT:276.000;
#SONGFILENAME:Songs/toune/Speedy Cat/Speedy Cat.sm;
#HASMUSIC:1;
#HASBANNER:1;
#MUSICLENGTH:116.070;
// end cache tags

//---------------dance-single - ----------------
#NOTES:
     dance-single:
     :
     Hard:
     8:
     0.549,0.535,0.302,0.362,0.078,369.000,35.000,42.000,0.000,0.000:
0000
0000
0000
0000
,
0000
0000
0000
0000
,
0000
0000
0000
0000
0000
0000
0000
2002
,
0000
0000
0000
0000
0000
0000
0000
3003
,
1000
0100
1000
0010
1000
0100
1000
0010
,
0100
0001
0100
0010
0100
0001
0200
0000
,
0310
0001
0010
0100
0010
0001
0010
0100
,
1000
0000
0000
0100
0000
0000
0001
0000
0000
0100
0000
0000
1000
0000
0000
0000
,
0001
1000
0001
0100
0001
1000
0001
0100
,
0010
1000
0010
0100
0010
1000
0020
0000
,
0130
1000
0100
0001
0100
1000
0100
0001
,
0100
0000
0000
1000
0000
0000
0010
0000
0000
0100
0000
0000
0001
0000
0000
0000
,
0000
0000
0001
0010
0100
1000
0000
0100
,
0000
1000
0100
0010
0001
0000
0000
1000
,
0000
0010
0100
0001
1000
0100
0000
0020
,
0000
2030
0000
3002
0000
0003
0000
0000
,
1001
0000
1000
0010
0100
0001
0000
1000
,
0000
0010
0100
0001
1000
0000
0000
0001
,
0000
0010
0100
1000
0100
0010
0001
0100
,
0101
0000
0011
0110
0000
1001
0101
0000
,
0002
0000
0000
0000
1003
0010
0001
0020
,
0000
2030
0000
3020
0000
0032
0010
0023
,
0000
0030
1000
0001
0000
0001
1000
0010
,
1020
0000
1030
0000
1000
0100
0010
0002
,
0000
0000
0003
0000
1000
0100
1000
0010
,
0000
1100
0000
0000
0020
0000
1030
0000
,
1010
1100
0101
1001
,
0110
0000
0011
0022
0000
0033
0000
1000
,
0100
0010
0001
0000
0100
0010
0001
0100
,
1000
0000
0000
1000
0000
0000
2000
0000
0000
3000
0000
0000
1100
0000
0000
0000
,
1001
0001
0100
0010
1000
1000
0000
0011
,
0000
1000
0010
0100
0001
0002
0000
0003
,
0001
0100
0010
0000
0001
0010
0100
1000
,
0001
0000
0000
0001
0000
0000
0002
0000
0000
0000
0003
0000
1010
0000
1100
0000
,
0100
0010
1000
0001
0010
0100
1000
0010
,
0001
0000
0000
0100
0000
0000
2000
0000
0000
0000
0000
0000
0000
0000
3000
0000
,
0010
1000
0010
0001
0010
1000
0010
0001
,
1000
0100
1000
0001
1000
0100
2000
0000
,
3001
0100
0001
1000
0001
0100
0001
1000
,
0010
0000
0000
1000
0000
0000
0100
0000
0000
1000
0000
0000
0010
0000
0000
0000
,
0100
0010
0100
1000
0100
0010
0100
1000
,
0001
0010
0001
1000
0001
0010
0002
0000
,
1003
0010
1000
0100
1000
0010
1000
0100
,
1000
0000
0000
0010
0000
0000
0001
0000
0000
1000
0000
0000
0100
0000
0000
0000
,
0002
0010
0010
0010
,
0010
0010
0010
0103
,
2000
0000
0001
0000
0000
3100
0001
0100
,
2000
3020
0230
0302
,
0023
0000
0000
0000
0000
0000
0031
0100
,
0001
0000
0010
0200
0000
0300
0000
0000
,
1001
0110
0101
1010
,
1100
0000
0011
0022
0000
0033
0000
0001
,
0010
0100
1000
0000
0001
0010
0100
1000
,
0100
0000
0000
0010
0000
0000
0001
0000
0000
0000
0000
0000
0101
0000
0001
0000
,
0000
0010
1000
0001
0100
0010
0000
1100
,
0000
0100
0001
0100
0010
2000
0000
3000
,
0100
0010
0001
0000
1000
0100
0010
0001
,
0010
0000
0000
0100
0000
0000
1000
0000
0000
0000
0000
0000
0110
0000
0100
0000
,
0000
0001
0100
1000
0010
0001
0100
1000
,
0101
0000
0000
1100
0000
0000
2002
0000
0000
0000
0000
0000
0000
0000
3003
0000
,
0010
1000
0010
0001
0010
1000
0010
0001
,
1000
0100
1000
0001
1000
0100
2000
0000
,
3001
0100
0001
1000
0001
0100
0001
1000
,
0010
0000
0000
1000
0000
0000
0100
0000
0000
1000
0000
0000
0010
0000
0000
0000
,
0100
0010
0100
1000
0100
0010
0100
1000
,
0001
0010
0001
1000
0001
0010
0002
0000
,
1003
0010
1000
0100
1000
0010
1000
0100
,
1000
0000
0000
0010
0000
0000
0001
0000
0000
1000
0000
0000
0200
0000
0300
0000
,
2002
0000
0000
0000
,
3003
0000
0000
0000
;

//---------------dance-single - ----------------
#NOTES:
     dance-single:
     :
     Medium:
     6:
     0.421,0.446,0.293,0.457,0.000,255.000,34.000,53.000,0.000,0.000:
0000
0000
0000
0000
,
0000
0000
0000
0000
,
0000
0000
0000
0000
0000
0000
0000
0220
,
0000
0000
0000
0330
,
1000
0100
1000
0100
,
0010
0100
0010
0100
,
0001
0100
0001
0100
,
0202
0000
0303
1100
,
1000
0010
1000
0010
,
0100
0010
0100
0010
,
0001
0010
0001
0010
,
0022
0000
0033
2020
,
3030
0000
1000
0100
1000
0100
0000
0000
,
0100
0000
0010
0000
0110
0000
0000
0010
,
0000
0001
0010
0100
1000
1000
0000
0000
,
1000
0010
0200
0300
,
0110
0000
0001
0010
0001
0010
0000
0000
,
0100
1000
1100
0000
,
0100
0001
0101
1001
,
2200
0000
0000
3300
,
0220
0000
0330
0000
0001
0010
0100
1000
,
0000
1000
0000
0010
0000
0100
0000
1001
,
0000
0000
1000
0100
0000
0000
0001
0100
,
0002
2003
3002
2003
,
3002
0000
0003
0000
0010
0100
0010
0100
,
0000
1001
0000
0000
0011
0000
0011
0000
,
0020
0230
0302
2003
,
3001
0000
0100
0020
0000
0000
0030
0001
,
0100
0001
0100
0000
1000
0100
1000
0100
,
0010
0000
0010
0000
0010
0000
0100
0010
,
0000
0001
0010
0100
1000
1000
0000
0001
,
0000
1000
0100
0010
0001
0001
0000
0000
,
0100
1000
0100
0000
0001
0010
0100
1000
,
2200
0000
3300
0011
,
1000
0000
0010
0100
0010
0100
0010
1000
,
2020
0000
3030
0000
,
0100
0001
0100
0001
,
0100
0010
0100
0010
,
0100
1000
0100
1000
,
2200
0000
3300
0101
,
0001
0010
0001
0010
,
0001
1000
0001
1000
,
0001
0100
0001
0100
,
0202
0000
0303
1100
,
2000
0000
0000
0000
,
0000
0000
0000
0100
,
3200
0000
0300
0000
0000
1000
0001
1000
,
0002
0203
0320
2030
,
3200
0000
0000
0000
0000
0000
0301
0010
,
0100
0000
1000
2000
0000
0000
3000
0000
,
1001
0110
1001
0110
,
1001
0000
0100
0010
0000
0000
0000
0100
,
0001
0100
0001
0000
1000
0010
0100
0001
,
0002
0000
0203
0000
0320
0000
1030
0100
,
0000
0001
0010
0100
1000
1000
0000
0100
,
0000
0001
0010
0100
1000
1000
0000
0000
,
1000
0010
1000
0000
0100
0010
0100
0010
,
0200
0000
0302
0000
0203
0000
1300
1000
,
0000
0001
0010
0100
1000
0100
0010
0100
,
0220
0000
0330
1001
,
1000
0100
0010
0001
,
0001
0100
0010
1000
,
0100
0010
0100
0010
,
0220
0000
0330
1001
,
1000
0010
0100
0001
,
0001
0010
0100
1000
,
1000
0001
1000
0001
,
2002
0000
0000
3003
,
0220
0000
0000
0000
,
0330
0000
0000
0000
;

//---------------dance-single - ----------------
#NOTES:
     dance-single:
     :
     Easy:
     4:
     0.283,0.357,0.034,0.164,0.000,207.000,4.000,19.000,0.000,0.000:
0000
0000
0000
0000
,
0000
0000
0000
0000
,
0000
0000
0000
0000
0000
0000
0000
0110
,
0000
0000
0000
0000
,
0100
0100
0100
0100
,
0010
0010
0010
0010
,
0100
0100
0100
0100
,
0200
0000
0000
0300
,
0001
0001
0001
0001
,
1000
1000
1000
1000
,
0001
0001
0001
0001
,
0002
0000
0000
0003
,
0000
1000
0100
0010
,
0001
0010
0100
0000
,
1000
0010
0001
0010
,
1000
1000
1000
0000
,
0000
0100
0001
0100
,
0001
0010
0100
0000
,
1000
0100
0001
0100
,
2002
0000
0000
3003
,
1001
0000
1000
0010
,
0100
0001
0100
1000
,
0100
0010
0001
0100
,
0010
1000
0100
0010
,
0001
0000
1001
1000
,
0001
0100
0010
0010
,
2000
3002
2003
3002
,
2003
0000
3001
0000
,
0100
0010
1000
0001
,
1000
0001
1000
0200
,
0301
0010
0100
0000
,
0010
0100
1000
0000
,
1000
0010
0100
0001
,
0100
0010
1000
0200
,
0301
0100
1000
0100
,
0010
0010
0010
0000
,
0001
0001
0001
0001
,
0010
0010
0010
0010
,
0001
0001
0001
0001
,
0020
0000
0000
0030
,
1000
1000
1000
1000
,
0100
0100
0100
0100
,
1000
1000
1000
1000
,
0200
0000
0000
0300
,
0200
0000
0000
0000
,
0300
0000
0000
0010
,
0010
0000
0000
0000
,
1000
0001
1000
0001
,
1000
0000
0000
0100
,
0010
0100
0010
0000
,
0010
0010
0010
0010
,
0010
0000
0000
0000
,
0100
0001
0100
1000
,
0100
0001
0100
0020
,
1030
0100
0010
0000
,
0100
0010
0001
0000
,
0001
0010
1000
0010
,
0001
0010
1000
0020
,
0031
0010
0100
1000
,
0100
0010
0001
0000
,
1000
1000
1000
1000
,
0010
0010
0010
0010
,
1000
1000
1000
1000
,
0020
0000
0000
0030
,
0001
0001
0001
0001
,
0100
0100
0100
0100
,
0001
0001
0001
0001
,
0200
0000
0000
0000
,
0020
0000
0000
0000
,
0330
0000
0000
0000
;

//---------------dance-single - ----------------
#NOTES:
     dance-single:
     :
     Beginner:
     1:
     0.129,0.205,0.026,0.009,0.000,101.000,3.000,1.000,0.000,0.000:
0000
0000
0000
0000
,
0000
0000
0000
0000
,
0000
0000
0000
0000
,
0100
0000
0000
0000
,
0010
0000
0000
0000
,
0100
0000
0000
0000
,
0010
0000
0000
0000
,
0100
0000
0000
0000
,
0001
0000
0000
0000
,
1000
0000
0000
0000
,
0001
0000
0000
0000
,
1000
0000
0000
0000
,
0000
0100
0100
0000
,
0100
0000
0000
0000
,
0001
0001
0001
0000
,
0001
0000
0000
0000
,
1000
1000
1000
0000
,
1000
0000
0000
0000
,
0100
0100
0100
0100
,
0100
0000
0000
0000
,
1001
0000
1000
0000
,
0001
0001
0001
0000
,
0001
0000
0100
0000
,
0010
0010
0010
0010
,
0010
0000
1000
0000
,
0001
0000
1000
1000
,
1000
0000
0000
0000
,
1001
0000
0000
0000
,
0001
0000
0100
0100
,
0100
0000
0000
0010
,
0010
0000
0000
0000
,
1000
0000
0000
0000
,
0100
0000
0000
0000
,
0010
0000
0000
0001
,
0001
0000
1000
0000
,
0001
0000
0000
0000
,
0100
0000
0000
0000
,
0010
0000
0000
0000
,
0100
0000
0000
0000
,
0010
0000
0000
0000
,
1000
0000
0000
0000
,
0001
0000
0000
0000
,
1000
0000
0000
0000
,
0001
0000
0000
0000
,
0200
0000
0000
0300
,
0000
0000
0000
0010
,
0010
0000
0000
1000
,
1000
0000
0000
0000
,
0001
0000
0000
0000
,
0100
0000
0000
0000
,
0010
0010
0010
0010
,
0010
0000
0000
0000
,
0100
0100
0100
0100
,
0100
0000
0000
1000
,
1000
0000
0000
0000
,
0100
0000
0000
0000
,
0010
0010
0010
0010
,
0010
0000
0000
0100
,
0100
0000
0000
0000
,
0001
0000
0000
0000
,
1000
0000
0000
0000
,
0100
0000
0000
0000
,
1000
0000
0000
0000
,
0001
0000
0000
0000
,
0010
0000
0000
0000
,
0001
0000
0000
0000
,
0010
0000
0000
0000
,
0100
0000
0000
0000
,
0110
0000
0000
0000
;
