#TITLE:Canon-D;
#SUBTITLE:(Part of the Memories #1);
#ARTIST:BanYa;
#TITLETRANSLIT:;
#SUBTITLETRANSLIT:;
#ARTISTTRANSLIT:;
#CREDIT:;
#BANNER:canon.jpg;
#BACKGROUND:canon-bg.jpg;
#LYRICSPATH:;
#CDTITLE:!moogycdtitle.png;
#MUSIC:canon.mp3;
#OFFSET:-0.040;
#SAMPLESTART:37.500;
#SAMPLELENGTH:12.000;
#SELECTABLE:YES;
#BPMS:0.000=80.000,16.000=160.000;
#STOPS:;
#BGCHANGES:;
// cache tags:
#FIRSTBEAT:0.000;
#LASTBEAT:256.000;
#SONGFILENAME:Songs/Community Keyboard Megapack - Volume 1/(Moogy) Canon-D/canon.sm;
#HASMUSIC:1;
#HASBANNER:1;
#MUSICLENGTH:103.583;
// end cache tags

//---------------dance-single - ----------------
#NOTES:
     dance-single:
     :
     Hard:
     11:
     0.942,1.000,0.029,0.531,0.975,625.000,3.000,55.000,0.000,0.000:  // measure 1
1000
0010
0200
0310
0010
0200
0010
0010
,  // measure 2
0320
0001
1030
0010
0100
0001
1000
0010
,  // measure 3
0100
0001
1000
0010
0100
0001
1000
0100
,  // measure 4
0010
1000
0010
0100
0001
1000
0010
0100
,  // measure 5
0001
1000
0010
0100
1000
0010
0100
0001
0010
0100
0001
1000
0100
0010
0001
0010
,  // measure 6
0100
0010
0100
1000
0100
0010
0100
0001
1000
0010
0100
0001
1000
0010
0100
0001
,  // measure 7
1000
0010
0100
1000
0010
1000
0100
0010
0001
0010
0100
0010
0100
0010
0001
0100
,  // measure 8
0010
1000
0001
1000
0010
0100
0001
0100
0001
0010
0100
1000
0100
0010
0001
1000
,  // measure 9
0100
0010
0001
0100
0010
1000
0001
0100
0010
1000
0010
0100
1000
0100
0010
0100
,  // measure 10
0001
0010
0100
0001
1000
0001
1000
0010
0100
0001
1000
0100
0010
1000
0001
1000
,  // measure 11
0010
1000
0001
0010
0100
0001
1000
0100
0010
1000
0001
0100
0010
0001
1000
0001
,  // measure 12
0010
0100
1000
0010
1000
0100
0010
0100
1000
0010
1000
0010
1000
0010
0100
0010
,  // measure 13
0002
0000
0000
0000
1003
0000
0100
0000
0010
0000
0000
0000
0001
1000
0010
0100
,  // measure 14
1000
0000
0010
0000
0100
0000
0001
0000
0010
0000
1000
0000
0100
0010
0001
1000
,  // measure 15
0010
0000
2000
0000
3000
0000
0001
0000
0200
0000
0300
0000
0010
0100
0010
0100
,  // measure 16
1000
0000
0010
0000
0001
0000
0010
0000
1000
0000
0010
0000
0100
0010
0001
1000
,  // measure 17
0200
0000
0300
0000
0010
0000
0001
0000
0020
0000
0030
0000
0010
1000
0100
0010
,  // measure 18
1000
0000
0100
0000
0010
0000
1000
0000
0010
0000
0100
0000
0001
1000
0010
0100
,  // measure 19
2000
0000
3000
0000
0010
0001
0010
0100
1000
0000
0010
0000
0100
0010
0001
0010
,  // measure 20
0100
0001
1000
0001
1000
0001
1000
0001
1000
0001
1000
0001
1000
0001
1000
0001
,  // measure 21
2002
0000
0000
0000
0000
0000
0000
0000
0000
0000
0000
0000
0000
0000
3003
0010
,  // measure 22
0200
0000
0010
0000
1000
0300
0021
0000
1000
0000
0100
0030
0002
0000
1000
0013
,  // measure 23
0200
0000
0001
0000
0010
0000
1000
0000
0001
0000
1000
0000
0301
1000
0010
0000
,  // measure 24
0200
0000
0010
0000
0001
0000
0010
0000
0001
0000
0001
0000
0010
0300
0001
0000
,  // measure 25
0002
0000
1000
0103
0020
0000
0230
0000
0010
0000
1000
0000
0001
0000
1300
0010
,  // measure 26
0002
0000
1000
0000
0100
0000
0010
0003
0020
0000
1000
0000
0001
0000
0031
0100
,  // measure 27
2000
0000
0010
0000
0100
0000
0001
3100
0020
0000
1000
0000
0100
0000
0001
1030
,  // measure 28
0200
0000
0010
0000
1000
0000
0001
0310
0002
0000
1000
0000
0010
0000
0100
0003
,  // measure 29
0020
1030
0100
0010
2000
0001
0010
0100
,  // measure 30
0001
3000
0010
0000
1000
0000
0001
0000
0010
0000
0100
0000
1000
0000
0010
0000
,  // measure 31
0200
0300
0001
1000
0020
0030
0001
1000
,  // measure 32
0010
0100
1000
0001
0100
1000
0010
0100
,  // measure 33
0002
0003
1000
0010
0200
0300
0001
1000
,  // measure 34
0100
0010
0001
0010
0100
1000
0100
0010
,  // measure 35
0002
0000
0003
0000
0010
0000
1000
0000
0200
0000
0300
0000
0002
0003
2000
3000
,  // measure 36
0020
0030
0200
0300
0002
0003
2000
3000
0200
0300
0002
0003
0200
0300
0020
0030
,  // measure 37
2000
0100
0010
0001
0000
0000
0100
3010
0100
0010
0001
0010
0100
1000
0001
0100
,  // measure 38
0010
1000
0001
0010
0100
1000
0010
0100
0001
1000
0001
0100
0010
1000
0001
0100
,  // measure 39
0020
0000
0000
0000
0001
1000
0001
1000
0001
1000
0001
1000
0001
1000
0001
1000
,  // measure 40
0031
0010
0100
1000
0100
0010
0001
1000
0010
0100
0001
1000
0010
0100
0001
0010
,  // measure 41
0100
0010
0100
0010
1000
0001
1000
0001
1000
0010
0100
0010
0100
0010
1000
0001
,  // measure 42
1000
0100
0010
0001
1000
0010
0100
0001
0010
0100
1000
0001
1000
0010
0100
0001
,  // measure 43
0010
0000
1000
0200
0320
0000
0030
0002
,  // measure 44
0023
0230
2300
3200
0320
0030
0000
0000
,  // measure 45
0001
0010
0100
1000
0000
0000
0001
1000
0100
0010
0001
0000
0000
0010
0100
0000
,  // measure 46
1000
0100
0010
0001
0000
0000
1000
0010
0100
0001
0010
0000
0000
0100
0010
0000
,  // measure 47
1000
0001
0100
0010
0000
0000
0100
0010
1000
0001
0100
0000
0000
0001
1000
0000
,  // measure 48
0001
1000
0010
0100
0000
0000
0010
0100
0001
1000
0010
0000
0000
0100
0010
0000
,  // measure 49
1000
0010
0100
1000
0000
0000
0001
1000
0100
0010
1000
0000
0000
1000
0001
0000
,  // measure 50
0010
0100
0001
1000
0000
0000
0010
1000
0001
0010
0001
0000
0000
0100
0001
0000
,  // measure 51
1000
0100
1000
0010
0000
0000
1000
0100
1000
0001
0100
0000
0000
0010
1000
0000
,  // measure 52
0010
0100
0001
1000
0000
0000
0010
1000
0001
0010
0100
0000
0000
1000
0100
0000
,  // measure 53
0010
0000
1000
0100
0010
0000
0000
0000
,  // measure 54
0001
1000
0010
0100
0001
1000
0010
0100
,  // measure 55
0010
0000
0001
0010
1000
0000
1000
0100
,  // measure 56
0001
0100
0010
1000
0001
0010
1000
0100
,  // measure 57
0010
1000
0010
0100
0000
0000
0001
1000
0010
0100
0001
0000
0000
0010
1000
0000
,  // measure 58
0010
0100
0001
0010
0000
0000
1000
0100
0010
1000
0001
0000
0000
0010
1000
0000
,  // measure 59
0001
0010
0100
0001
0000
0000
1000
0010
0100
0001
1000
0000
0000
0010
0100
0000
,  // measure 60
0010
0100
0010
0001
0000
0000
1000
0100
1000
0010
0100
0000
0000
0010
0100
0000
,  // measure 61
2002
0000
0000
0000
,  // measure 62
0000
0000
0000
0000
,  // measure 63
0000
0000
0000
0000
,  // measure 64
0000
0000
0000
0000
,  // measure 65
3003
0000
0000
0000
;
