#TITLE:The Ordeal Becomes Great;
#SUBTITLE:;
#ARTIST:S.S.H.;
#TITLETRANSLIT:;
#SUBTITLETRANSLIT:;
#ARTISTTRANSLIT:;
#CREDIT:Mad Matt;
#BANNER:../Tachyon Beta-bn.png;
#BACKGROUND:../Tachyon Beta-bg.png;
#LYRICSPATH:;
#CDTITLE:;
#MUSIC:The Ordeal Becomes Great.OGG;
#OFFSET:-0.200;
#SAMPLESTART:42.512;
#SAMPLELENGTH:12.000;
#SELECTABLE:YES;
#DISPLAYBPM:172.000;
#BPMS:0.000=171.960;
#STOPS:;
#BGCHANGES:;
// cache tags:
#FIRSTBEAT:3.000;
#LASTBEAT:701.000;
#SONGFILENAME:Songs/Tachyon Spectrum/The Ordeal Becomes Great - [Mad Matt]/The Ordeal Becomes Great.SM;
#HASMUSIC:1;
#HASBANNER:0;
#MUSICLENGTH:246.987;
// end cache tags

//---------------dance-single - Tachyon Beta----------------
#NOTES:
     dance-single:
     Tachyon Beta:
     Easy:
     17:
     1.000,1.000,0.069,0.721,1.000,1952.000,17.000,178.000,0.000,0.000:












0000
0000
0000
0000
0000
0000
0000
0000
0000
1000
0100
0010
,
0001
0100
0010
1000
0010
0100
0001
0000
0000
0001
0100
0010
,
1000
0100
0010
0001
0010
0100
1000
0000
0000
1000
0100
0010
,
0100
1000
0001
0100
0010
0100
0001
1000
0100
0010
0001
0010
,
0100
1000
0010
0100
0010
1000
0001
0000
0000
0001
0010
0100
,
1000
0001
0100
0001
1000
0010
1000
0100
1000
0001
0100
0001
,
1000
0010
1000
0100
1000
0001
0100
0001
0010
0100
0010
0001
,
1000
0100
0010
0001
1000
0100
1000
0001
0010
0100
1000
0001
0100
0001
0100
0010
1000
0010
1000
0001
0010
0100
1000
0100
,
0010
0001
1000
0100
1000
0001
0010
0001
1000
0010
1000
0001
0100
0000
0000
0000
0000
0000
0001
0000
0010
0000
0100
0000
,
0010
0001
1000
0010
1000
0001
0100
0000
0100
0001
1000
0100
,
0020
0000
0032
0000
0000
0023
0000
0000
0230
0000
0000
1300
,
0001
0100
0010
1000
0010
0100
0001
0000
0000
1000
0010
1000
,
0001
0000
0010
0000
0100
0000
1000
0000
0001
0000
0100
0000
0010
1000
0010
0000
0100
0000
0001
0000
0010
0000
0100
0000
,
1000
0000
0000
0001
0100
0001
0100
0000
0000
0010
1000
0010
,
1000
0001
0010
0100
0010
0001
1000
0010
0100
0001
1000
0100
,
0010
0000
0000
0001
0010
0100
1000
0000
0000
0001
0010
0001
,
1000
0010
0100
0001
1000
0010
1000
0001
0010
0100
0010
0001
,
1000
0010
0100
0001
1000
0100
0010
0000
0010
0001
0100
0010
,
2000
0000
3020
0000
0000
0230
0000
0000
0302
0000
0000
1003
,
0100
1000
0001
0100
0010
1000
0001
0000
0000
1000
0100
0010
,
0001
0000
1000
0000
0010
0000
0100
0000
0001
0000
1000
0000
0100
0010
0100
0000
1000
0000
0001
0000
0100
0000
0010
0000
,
1000
0000
0000
0001
0010
0001
0010
0000
0000
0100
1000
0100
,
1000
0001
0100
0010
1000
0010
0100
0001
1000
0100
0010
0001
,
1000
0000
1000
0010
0000
0010
0100
0000
0100
0001
0000
0001
,
1000
0000
0100
0000
0010
0000
0001
1000
0001
0000
0100
0000
0010
0000
1000
0000
0001
0000
0010
0000
0100
0000
0010
0000
,
0001
0000
0000
1000
0010
0100
0001
0000
2000
0000
0000
0000
,
3100
0000
0000
0010
0001
1000
0010
0000
0200
0000
0000
0000
,
0301
1000
0100
0010
0000
0000
0001
1000
0010
0100
0000
0000
,
0202
0000
0000
0000
0000
0000
0303
0000
0000
1000
0100
0010
,
0002
0000
2003
3020
,
1030
0100
0010
0001
1000
0100
1000
0001
0100
0001
1000
0100
1000
0001
0010
0100
1000
0001
0010
0001
1000
0100
1000
0001
,
0100
0000
0002
0000
2003
0000
3200
0000
0320
0000
0230
0000
,
2300
0000
0000
0000
3010
0100
0002
0000
0000
0000
0000
0000
,
0003
0000
2000
0000
3020
0000
0230
0000
0302
0000
2003
0000
,
3200
0000
2300
0000
,
3002
0000
0203
0000
,
0320
0000
2030
0000
3002
0000
0023
0000
0000
0000
0030
0000
,
0200
0000
0000
0000
0000
0000
1300
0010
0100
0001
0000
0000
,
1010
0000
0000
0110
0000
0000
0101
0000
0000
0001
0010
0100
,
1000
0010
0100
0001
0100
0010
1000
0000
0000
1000
0010
0100
,
0001
0010
0100
1000
0100
0010
0001
0000
0000
0001
0010
0100
,
0010
0001
1000
0010
0100
0010
1000
0001
0010
0100
1000
0100
,
0010
0001
0100
0010
0100
0001
1000
0000
0000
1000
0100
0010
,
0001
1000
0010
1000
0001
0100
0001
0010
0001
1000
0010
1000
,
0001
0100
0001
0010
0001
1000
0010
1000
0100
0010
0100
1000
,
0001
0010
0100
1000
0001
0010
0001
1000
0010
1000
0001
0100
0001
1000
0100
1000
0001
0100
0001
1000
0010
1000
0010
0100
,
0001
0100
0001
1000
0010
0100
0001
1000
0001
1000
0100
0010
0001
0000
0000
0000
0000
0000
1000
0000
0100
0000
0010
0000
,
0100
1000
0001
0100
0001
1000
0010
0000
0010
1000
0001
0010
,
0200
0000
2300
0000
0000
3200
0000
0000
0320
0000
0000
0031
,
1000
0010
0100
0001
0100
0010
1000
0000
0000
0001
0100
0001
,
1000
0000
0100
0000
0010
0000
0001
0000
1000
0000
0010
0000
0100
0001
0100
0000
0010
0000
1000
0000
0100
0000
0010
0000
,
0001
0000
0000
1000
0010
1000
0010
0000
0000
0100
0001
0100
,
0001
1000
0100
0010
0100
1000
0001
0100
0010
1000
0001
0010
,
0100
0000
0000
1000
0100
0010
0001
0000
0000
1000
0100
1000
,
0001
0100
0010
1000
0001
0100
0001
1000
0100
0010
0100
1000
,
0001
0100
0010
1000
0001
0010
0100
0000
0100
1000
0010
0100
,
0002
0000
0203
0000
0000
0320
0000
0000
2030
0000
0000
3001
,
0010
0001
1000
0010
0100
0001
1000
0000
0000
0001
0010
0100
,
1000
0000
0001
0000
0100
0000
0010
0000
1000
0000
0001
0000
0010
0100
0010
0000
0001
0000
1000
0000
0010
0000
0100
0000
,
0001
0000
0000
1000
0100
1000
0100
0000
0000
0010
0001
0010
,
0001
1000
0010
0100
0001
0100
0010
1000
0001
0010
0100
1000
,
0001
0000
0001
0100
0000
0100
0010
0000
0010
1000
0000
1000
,
0001
0000
0010
0000
0100
0000
1000
0001
1000
0000
0010
0000
0100
0000
0001
0000
1000
0000
0100
0000
0010
0000
0100
0000
,
1000
0000
0001
0000
0100
0000
0010
0000
1000
0000
0001
0000
0100
0000
0000
0000
0000
0000
0010
1000
0001
1000
0001
0010
,
0200
0000
0000
0000
0000
0000
0000
0000
2300
0000
3020
0000
,
0230
0000
0000
0000
0302
0000
0000
0000
2003
0000
0000
0000
3200
0000
0000
0000
0320
0000
0000
0000
0031
0000
1000
0100
,
0010
0001
1000
0100
0010
0001
1000
0100
1000
0001
0010
0100
1000
0001
0010
0001
1000
0010
1000
0001
0100
0001
1000
0010
,
1000
0001
0010
0001
1000
0100
1000
0001
0010
0100
1000
0001
0010
0100
1000
0001
0100
0001
0100
0010
1000
0010
1000
0001
,
0100
0000
0010
0000
1000
0000
0001
0000
0000
0010
0000
0000
0100
0000
0000
1000
0000
0000
0010
0000
0000
1000
0000
0000
0001
0000
0000
0100
0000
0000
0010
0000
0000
1000
0000
0000
0001
0000
0000
1000
0000
0000
0100
0000
0000
0010
0000
0000
,
0001
0010
0001
1000
0010
0100
0001
1000
0100
0010
0100
1000
0001
0100
0010
1000
,
0001
0010
0001
0010
0100
1000
0100
1000
0001
1000
0001
0100
0010
0100
0010
1000
,
0100
0000
0000
0010
0000
0000
0001
0000
0000
0010
0000
0000
0100
0000
0000
1000
0000
0000
0001
0000
0000
1000
0000
0000
0001
0000
0100
0000
0010
0000
1000
0000
0001
0000
0100
0000
0010
0000
1000
0000
0001
0000
1000
0000
0100
0000
0010
0000
,
0001
1000
0100
0010
0001
0010
0100
1000
0001
0100
0001
1000
0010
1000
0001
0100
,
0001
1000
0100
0010
0001
1000
0100
0010
0001
0010
0100
1000
0001
0010
0100
1000
0001
0100
0001
0100
0010
1000
0010
1000
,
0001
1000
0100
1000
0001
0100
0001
1000
0010
1000
0001
0010
0001
1000
0100
1000
,
0001
0000
0000
0100
0000
0000
0001
0000
1000
0000
0100
0000
0010
0000
0100
0000
1000
0000
0001
0000
0010
0000
0100
0000
1000
0000
0000
0001
0000
0000
0100
0000
0000
0001
0000
0000
1000
0000
0000
0100
0000
0000
0010
0000
0000
0001
0000
0000
,
1000
0100
1000
0001
0100
0001
1000
0010
0100
0001
1000
0010
0100
0001
1000
0100
,
0010
0000
0000
0001
0000
0000
1000
0000
0000
0100
0000
0000
0010
0000
0000
0001
0000
0000
1000
0000
0000
0010
0000
0000
0100
0000
0000
0001
0000
0000
1000
0000
0000
0010
0000
0000
0100
0000
0000
0001
0000
0000
1000
0000
0100
0000
0010
0000
,
0001
0000
0000
0000
0000
0000
0000
0000
0000
0000
0000
0000
1000
0000
0000
0000
0100
0000
0000
0000
1000
0000
0000
0000
0001
0000
0000
0000
0100
0000
0000
0000
0010
0000
0000
0000
1000
0000
0000
0100
0000
0000
0010
0000
0000
0001
0000
0000
,
2000
3000
0000
0200
0300
0000
0020
0030
0000
0002
0003
0000
2000
3000
0000
0020
0030
0000
0100
0001
1000
0001
1000
0100
,
0010
0001
1000
0010
1000
0001
0100
0010
1000
0001
1000
0100
1000
0001
0010
0100
,
1000
0000
0001
0000
1000
0000
0001
0000
0000
0100
0000
0000
0010
0000
0000
1000
0000
0000
0001
0000
0000
1000
0000
0000
0100
0000
0000
0010
0000
0000
0001
0000
0000
0010
0000
0000
0100
0000
0000
1000
0000
0000
0001
0000
0000
0100
0000
0000
,
0010
1000
0001
1000
0100
1000
0001
0100
0010
1000
0001
0100
0010
1000
0001
0010
,
0100
0010
0001
1000
0010
1000
0001
0100
0001
1000
0100
1000
0001
0010
0100
1000
,
0100
0010
0001
1000
0010
0100
0001
1000
0100
1000
0001
0010
,
0100
1000
0001
1000
0010
0100
0001
1000
0001
0100
0001
0010
0001
1000
0100
1000
,
0001
0010
0100
1000
0001
0010
0100
1000
0001
0100
0001
0100
0010
1000
0010
1000
0001
0100
0001
1000
0010
1000
0001
0010
,
0001
1000
0100
1000
0001
0010
0100
1000
0001
0010
0100
1000
0100
0010
0001
1000
0100
0010
0001
0000
1000
0000
0010
0000
,
0100
0001
1000
0100
0010
0001
1000
0100
1000
0001
0100
0001
1000
0100
0010
0001
,
0010
0100
1000
0001
0010
0100
1000
0001
0100
0010
1000
0001
1000
0010
0100
0001
,
1000
0100
1000
0100
0010
0001
0010
0001
1000
0010
1000
0010
0100
0001
0100
0001
,
1000
0100
1000
0100
0010
0100
0010
0001
0010
0001
1000
0001
1000
0010
1000
0010
,
0100
0001
1000
0001
0100
0001
1000
0001
0010
0001
1000
0100
1000
0010
1000
0001
,
1000
0010
0100
0001
1000
0001
0010
0001
1000
0100
0010
0001
0010
0100
1000
0001
,
0010
0100
0010
0001
1000
0100
0010
0001
1000
0010
0100
0001
1000
0100
0010
0001
,
1000
0000
0100
0000
0010
0000
0001
0000
1000
0000
0010
0000
0200
0000
0000
0000
0000
0000
0310
1000
0001
1000
0001
0010
,
0200
2300
3020
0230
,
0302
2003
0000
3200
,
0310
0001
0010
0100
1000
0001
0200
0000
0000
0320
0000
0000
,
2030
0000
0000
0000
,
3001
0000
0010
0000
0100
0000
1000
0000
0001
0000
0010
0000
0400
4000
0000
0000
0000
0000
0000
0000
0000
0000
3300
0000
,
0020
0000
0032
0000
0000
0000
0000
0000
0000
0203
0000
0000
,
0320
0000
2030
0000
3020
0000
0230
0000
0000
0000
0301
1000
,
0200
0000
0320
0000
0032
0000
0000
0000
0000
0023
0000
0000
,
0130
0000
1000
0000
0002
0000
0000
0000
0000
0000
0003
0000
1000
0000
0000
0000
0010
0100
0001
1000
0001
1000
0100
0010
,
0002
0000
0000
0000
0000
0000
0000
0000
0203
0000
0000
0000
0000
0000
0000
0000
0320
0000
0000
0000
0000
0000
0000
0000
1030
0000
0000
0001
0000
0000
0010
0000
0000
0001
0000
0000
1000
0000
0000
0010
0000
0000
0100
0000
0000
0001
0000
0000
,
1000
0100
0010
0100
1000
0001
0100
0010
1000
0001
0010
0100
,
2000
0000
3002
0000
0203
0000
0000
0000
0000
0000
0000
0000
,
0300
0000
0020
0000
2030
0000
3002
0000
0023
0000
0230
0000
,
2300
0000
0000
0000
0000
0000
0000
0000
0000
0001
3100
0001
0200
0000
0000
0000
0000
0000
0000
0000
0000
0000
0000
0000
,
0300
0000
0002
0000
2003
0000
3200
0000
2300
0000
3020
0000
,
2030
0000
3200
0000
,
0320
0000
0032
0000
,
2003
0000
3020
0000
0230
0000
0302
0000
0000
0000
0000
0000
,
2003
0000
0000
0000
0000
0000
3100
0010
0001
2000
0000
0000
,
3001
0100
0001
1000
0010
1000
0001
0010
0001
1000
0100
0010
0002
0000
0000
0000
0000
0000
0000
0000
0000
0000
0000
0000
,
4003
0000
0000
0000
0000
0000
0000
0000
0000
0000
0000
0000
3001
0010
0100
1000
0001
0010
0100
1000
0001
0100
0001
0100
,
0010
1000
0010
1000
0001
1000
0001
0010
0100
1000
0001
0010
0100
1000
0100
0010
0001
1000
0100
1000
0001
0100
0001
1000
,
0040
0000
0000
0000
0000
0000
0000
0000
0000
0000
0000
0000
0130
0001
0100
0001
1000
0010
1000
0010
0100
0001
1000
0001
,
0010
0100
1000
0001
0010
0100
1000
0100
0010
0001
1000
0100
0010
0001
1000
0100
1000
0001
0010
0001
1000
0010
1000
0001
,
0010
0001
1000
0100
0010
0001
1000
0100
0010
0001
1000
0100
1000
0001
0100
0001
1000
0100
1000
0001
0010
0100
1000
0001
,
0010
0100
1000
0100
0010
0001
1000
0100
0010
0001
1000
0100
1000
0100
0010
0001
0010
0001
1000
0010
0100
0001
0100
0010
,
1000
0001
0100
0001
0100
0010
1000
0010
1000
0001
1000
0001
0010
0001
0010
0100
,
0010
0100
1000
0100
1000
0001
1000
0001
0100
0001
0100
0010
0100
0010
1000
0001
,
1000
0010
0100
0001
1000
0010
0100
0001
1000
0010
1000
0001
0100
0001
1000
0100
1000
0001
0010
0001
1000
0100
0010
0001
,
0010
0100
1000
0001
0010
0100
1000
0001
0100
0001
0100
0010
1000
0010
1000
0001
1000
0001
0100
0010
1000
0001
0100
0010
,
1000
0000
0000
0000
1000
0000
0000
0000
0001
0000
0010
0000
0100
0000
0000
0000
0100
0000
1000
0100
1000
0001
0010
0001
,
1000
0100
0010
0001
1000
0100
0010
0001
0010
0100
1000
0001
0100
0001
0100
0010
1000
0010
1000
0001
0010
0100
1000
0100
,
0010
0001
1000
0010
0100
0001
1000
0100
0010
0001
0010
0100
1000
0001
0010
0100
,
1000
0001
0100
0010
1000
0001
0100
0010
1000
0001
0100
0001
1000
0100
1000
0001
,
0010
0100
1000
0001
0010
0100
1000
0001
0010
0001
1000
0100
1000
0001
0010
0100
1000
0001
0010
0100
1000
0001
0100
0001
,
0100
0000
0000
0010
0000
0000
1000
0000
0000
0001
0000
0000
1000
0000
0000
0100
0000
0000
0010
0000
0000
0001
0000
0000
0010
0000
0000
0100
0000
0000
1000
0000
0000
0001
0000
0000
0010
0000
0100
0000
1000
0000
0100
0000
0010
0000
0001
0000
,
1000
0100
0010
0001
0010
0100
1000
0001
0010
0100
1000
0001
1000
0001
0010
0100
1000
0001
1000
0001
0100
0010
1000
0001
,
1000
0001
0100
0010
1000
0001
0100
0001
1000
0001
1000
0100
0020
0000
0000
0000
0000
0000
0000
0000
0000
0000
0000
0000
,
0130
1000
0001
0100
0010
1000
0020
0000
0000
0000
0000
0000
,
1030
0000
0000
0000
0000
0000
0000
0000
0000
0000
0000
0000
0000
0000
0000
0000
0001
0000
0000
0000
0000
0000
0000
0000
0000
0000
0000
0000
0000
0000
0000
0000
0010
0000
0000
0000
0000
0000
0000
0000
0000
0000
0000
0000
0000
0000
0000
0000
0100
0000
0000
0000
0000
0000
0000
0000
0000
0000
0000
0000
0000
0000
0000
0000
1000
0000
0000
0000
0000
0000
0000
0000
0000
0000
0000
0000
0000
0000
0000
0000
0001
0000
0000
0000
0000
0000
0000
0000
0000
0000
0000
0000
0000
0000
0000
0000
0200
0000
0000
0000
0000
0000
0000
0000
0000
0000
0000
0000
0000
0000
0000
0000
0000
0000
0000
0000
0000
0000
0000
0000
0000
0000
0000
0000
0000
0000
0300
0000
0020
0000
0000
0000
2000
0000
0000
0000
0000
0000
0000
0000
0000
0000
0000
0000
0000
0000
0000
0000
0000
0000
0000
0000
0000
0000
0000
0000
0000
0000
0000
0000
0000
0000
0000
0000
0000
0000
0000
0000
3000
0000
0000
0000
0000
0000
0000
0000
0000
0000
0000
0000
0000
0000
0000
0000
0030
0000
0000
0000
0000
0000
0000
0000
,
1000
0100
0010
0001
0010
0100
2000
0000
0000
0000
0000
0000
,
3020
0000
0230
0000
0302
0000
2003
0000
0000
0000
0000
0000
,
3100
0010
0001
1000
0010
0100
0002
0000
0000
0000
0000
0000
,
1003
0000
0000
0000
0100
0000
0000
0000
1000
0000
0000
0000
0001
0000
0000
0000
0100
0000
0000
0000
0010
0000
0000
0000
2000
0000
0000
0000
0000
0000
0000
0000
3200
0020
0000
0000
0000
0000
0000
0000
0000
0000
0030
0000
0000
0000
0300
0000
,
0010
0000
0001
0000
1000
0000
0010
0000
0100
0000
0001
0000
2000
0000
0000
0000
0000
0000
0000
0000
0000
0000
3100
0010
,
0001
1000
0100
1000
0001
0010
0100
1000
0001
1000
0001
0100
0020
0000
0000
0000
0000
0000
0000
0000
0000
0000
0000
0000
,
1030
0001
1000
0100
0010
0001
0020
0000
0000
0000
0000
0000
,
0031
0000
0000
0000
1000
0000
0000
0000
0010
0000
0000
0000
0100
0000
0000
0000
0001
0000
0000
0000
0100
0000
0000
0000
0020
0000
0000
0000
0000
0000
0000
0000
2030
0200
0000
0000
0000
0000
0000
0000
0000
0000
0300
0000
0000
3000
0000
0000
,
0100
0010
0001
1000
0010
0100
0002
0000
0000
0000
0000
0003
,
2200
3300
0220
0330
0022
0033
0202
0000
0000
0000
0303
0000
,
0010
1000
0001
1000
0100
0010
0002
0000
0000
0000
0000
0000
,
1003
0000
0000
0000
0100
0000
0000
0000
1000
0000
0000
0000
0010
0000
0000
0000
0100
0000
0000
0000
0001
0000
0000
0000
2000
0000
0000
0000
0000
0000
0000
0000
3020
0200
0000
0000
0000
0000
0000
0000
0000
0000
0300
0000
0030
0000
0000
0000
,
0100
0000
0001
0000
1000
0000
0100
0000
0010
0000
0001
0000
0020
0000
0000
0000
0000
0000
0000
0000
0000
0130
1000
0001
,
1000
0100
0010
0001
0010
0100
1000
0001
0100
0010
1000
0001
0100
0000
0000
0000
0000
0000
0000
0000
0000
0000
0000
0000
,
0100
0000
0000
0001
1000
0100
0010
0000
0002
0000
0000
0000
,
0013
0000
0000
0100
1000
0001
1000
0000
0020
0000
0000
0000
,
0130
0001
1000
0010
0000
0000
0100
0001
1000
0100
0000
0000
,
0022
0000
0000
0000
0000
0000
0033
0000
0000
1000
0001
0100
,
0020
0000
2030
3200
,
1300
0100
1000
0001
0010
0100
1000
0100
0010
0001
1000
0100
1000
0001
0100
0001
1000
0010
1000
0001
0100
0001
1000
0010
,
0100
0000
0002
0000
2003
0000
3200
0000
0320
0000
0032
0000
,
2003
0000
0000
0000
3010
0100
0002
0000
0000
0000
0000
0000
,
0003
0000
2000
0000
3002
0000
0023
0000
0230
0000
0320
0000
,
0032
0000
0203
0000
,
0320
0000
2030
0000
,
3200
0000
0320
0000
0230
0000
2300
0000
0000
0000
0000
0000
,
3020
0000
0000
0000
0000
0000
0130
0001
1000
0100
0000
0000
,
0011
0000
0000
0110
0000
0000
1100
0000
0000
1000
0001
0100
,
0010
1000
0001
0010
0100
0010
0001
0000
0000
0001
0010
0001
,
1000
0010
0100
0001
0100
0010
1000
0000
0000
1000
0001
0010
,
0001
1000
0010
1000
0001
0010
0100
1000
0001
0100
0010
1000
,
0001
0100
0010
1000
0100
0010
0001
0000
0000
0001
0010
0100
,
1000
0001
0010
0001
1000
0100
0010
0100
1000
0001
0100
0010
,
1000
0001
0100
0010
1000
0001
0010
0100
1000
0100
0010
0001
,
1000
0100
1000
0001
0010
0100
1000
0001
0010
0001
1000
0010
1000
0001
0100
0001
1000
0100
1000
0001
0010
0100
1000
0100
,
0010
0001
1000
0100
1000
0001
0100
0010
1000
0001
1000
0001
0100
0000
0000
0000
0000
0000
0001
0000
0000
0000
0000
0000
,
1000
0100
0010
0100
1000
0001
0100
0010
2000
0000
0000
0000
3000
0000
0000
0000
,
0022
0033
0220
0000
,
0000
0000
0000
0000
0000
0000
0000
0000
0000
0330
0000
0000
1000
0000
0001
0000
0100
0000
0010
0000
1000
0000
0100
0000
,
0020
0030
0000
0000
0000
0000
0000
0000
;

//---------------dance-single - Mad Matt----------------
#NOTES:
     dance-single:
     Mad Matt:
     Medium:
     17:
     1.000,1.000,0.065,0.887,1.000,1876.000,16.000,219.000,0.000,0.000:





0000
0000
0000
0000
0000
0000
0000
0000
0000
1000
0100
0010
,
0001
0100
0010
1000
0010
0100
0002
0000
0000
0000
0000
0000
,
1003
0100
0010
0001
0010
0100
2000
0000
0000
0000
0000
0000
,
3100
1000
0001
0100
0010
0100
0001
1000
0100
0010
0001
0010
,
0100
1000
0010
0100
0010
1000
0002
0000
0000
0000
0000
0000
,
1003
0001
0100
0001
1000
0010
1000
0100
1000
0001
0100
0001
,
1000
0010
1000
0100
1000
0001
0100
0001
0010
0100
0010
0001
,
1000
0100
1000
0001
0100
0001
1000
0001
0100
0010
0100
0001
1000
0100
1000
0001
0010
0100
1000
0001
0010
0001
1000
0100
,
0010
0100
1000
0001
1000
0010
0100
0010
1000
0001
0100
0001
2000
0000
0000
0000
0000
0000
3001
0000
0010
0000
0100
0000
,
0010
0001
1000
0010
1000
0001
0200
0000
0000
0000
0300
0001
,
0020
0000
0000
0000
0000
0000
0000
0000
0000
0000
0000
0000
0000
0000
0000
0000
0000
0000
0000
0000
0000
0000
0000
0000
0000
0000
0000
0000
0000
0000
0000
0000
0032
0003
0000
0000
0000
0000
0000
0000
0000
0000
0000
0000
0000
0000
0000
0000
0000
0000
0000
0000
0000
0000
0000
0000
0000
0000
0000
0000
0000
0000
0000
0000
0000
0000
0000
0000
0000
0000
0000
0000
0000
0000
0000
0000
0000
0000
0000
0000
0020
0030
0000
0000
0000
0000
0000
0000
0000
0000
0000
0000
0000
0000
0000
0000
0000
0000
0000
0000
0000
0000
0000
0000
0000
0000
0000
0000
0000
0000
0000
0000
0000
0000
0000
0000
0000
0000
0000
0000
0000
0000
0000
0000
0000
0000
0000
0000
0200
0300
0000
0000
0000
0000
0000
0000
0000
0000
0000
0000
0000
0000
0000
0000
0000
0000
0000
0000
0000
0000
0000
0000
0000
0000
0000
0000
0000
0000
0000
0000
0000
0000
0000
0000
0000
0000
0000
0000
0000
0000
0000
0000
0000
0000
0000
0000
1000
0000
0000
0000
0000
0000
0000
0000
0000
0000
0000
0000
0000
0000
0000
0000
,
0001
0100
0010
1000
0010
0100
0002
0000
0000
0000
1003
0001
,
0010
0000
0100
0000
0010
0000
0001
0000
1000
0000
0010
0000
0100
0001
0100
0000
0010
0000
1000
0000
0100
0000
0010
0000
,
0002
0000
0000
1003
0100
1000
0002
0000
0000
0103
0010
0100
,
0001
0000
1000
0000
0100
0000
0010
0000
0100
0000
1000
0000
0001
0000
0100
0000
0010
0000
1000
0001
1000
0000
0010
0000
,
0200
0000
0000
0301
0010
0100
0020
0000
0000
0130
1000
0001
,
2000
0000
0000
3001
0100
0001
2000
0000
0000
0000
0000
0000
,
3001
0100
0010
1000
0001
0010
0200
0000
0000
0000
0300
0010
,
0002
0000
0000
0000
0000
0000
0000
0000
0000
0000
0000
0000
0000
0000
0000
0000
0000
0000
0000
0000
0000
0000
0000
0000
0000
0000
0000
0000
0000
0000
0000
0000
0203
0300
0000
0000
0000
0000
0000
0000
0000
0000
0000
0000
0000
0000
0000
0000
0000
0000
0000
0000
0000
0000
0000
0000
0000
0000
0000
0000
0000
0000
0000
0000
0000
0000
0000
0000
0000
0000
0000
0000
0000
0000
0000
0000
0000
0000
0000
0000
0020
0030
0000
0000
0000
0000
0000
0000
0000
0000
0000
0000
0000
0000
0000
0000
0000
0000
0000
0000
0000
0000
0000
0000
0000
0000
0000
0000
0000
0000
0000
0000
0000
0000
0000
0000
0000
0000
0000
0000
0000
0000
0000
0000
0000
0000
0000
0000
2000
3000
0000
0000
0000
0000
0000
0000
0000
0000
0000
0000
0000
0000
0000
0000
0000
0000
0000
0000
0000
0000
0000
0000
0000
0000
0000
0000
0000
0000
0000
0000
0000
0000
0000
0000
0000
0000
0000
0000
0000
0000
0000
0000
0000
0000
0000
0000
0001
0000
0000
0000
0000
0000
0000
0000
0000
0000
0000
0000
0000
0000
0000
0000
,
0010
0001
1000
0010
0100
0001
2000
0000
0000
0000
3100
0010
,
0001
0000
1000
0000
0010
0000
0100
0000
0001
0000
1000
0000
0100
0010
0100
0000
1000
0000
0001
0000
0100
0000
0010
0000
,
2000
0000
0000
3001
0100
0010
0200
0000
0000
0310
1000
0010
,
0100
0000
0001
0000
0100
0000
0010
0000
1000
0000
0010
0000
0100
0000
0001
0000
1000
0000
0100
0010
0100
0000
1000
0000
,
0002
0000
0000
0000
0000
0000
0103
0010
1000
0100
1000
0001
,
0200
0000
0000
0000
,
0301
0000
0000
1000
0010
0100
0001
0000
2000
0000
0000
0000
,
3100
0000
0000
0010
0001
1000
0010
0000
0200
0000
0000
0000
,
0301
1000
0100
0010
0000
0000
0001
1000
0010
0100
0000
0000
,
0202
0000
0000
0000
0000
0000
0303
0000
0000
1000
0100
0010
,
0002
0000
2003
3020
,
1030
0100
0010
0001
1000
0100
1000
0001
0100
0001
1000
0100
1000
0001
0010
0100
1000
0001
0010
0001
1000
0100
1000
0001
,
0100
0000
0002
0000
2003
0000
3200
0000
0320
0000
0230
0000
,
2300
0000
0000
0000
3010
0100
0002
0000
0000
0000
0000
0000
,
0003
0000
2000
0000
3020
0000
0230
0000
0302
0000
2003
0000
,
3200
0000
2300
0000
,
3002
0000
0203
0000
,
0320
0000
2030
0000
3002
0000
0023
0000
0000
0000
0030
0000
,
0200
0000
0000
0000
0000
0000
1300
0010
0100
0001
0000
0000
,
0101
0000
0000
0110
0000
0000
1010
0000
0000
0001
0010
0100
,
1000
0010
0100
0001
0100
0010
2000
0000
0000
0000
0000
0000
,
3001
0010
0100
1000
0100
0010
0002
0000
0000
0000
0000
0000
,
0013
0001
1000
0010
0100
0010
1000
0001
0010
0100
1000
0100
,
0010
0001
0100
0010
0100
0001
2000
0000
0000
0000
0000
0000
,
3001
1000
0010
1000
0001
0100
0001
0010
0001
1000
0010
1000
,
0001
0100
0001
0010
0001
1000
0010
1000
0100
0010
0100
1000
,
0001
0100
0001
1000
0100
1000
0001
1000
0100
0010
0100
1000
0001
0100
0001
1000
0010
0100
0001
1000
0010
1000
0001
0100
,
0010
0100
0001
1000
0001
0010
0100
0010
0001
1000
0100
1000
0002
0000
0000
0000
0000
0000
1003
0000
0100
0000
0010
0000
,
0100
1000
0001
0100
0001
1000
0020
0000
0000
0000
0030
0100
,
0002
0000
0000
0000
0000
0000
0000
0000
0000
0000
0000
0000
0000
0000
0000
0000
0000
0000
0000
0000
0000
0000
0000
0000
0000
0000
0000
0000
0000
0000
0000
0000
2003
3000
0000
0000
0000
0000
0000
0000
0000
0000
0000
0000
0000
0000
0000
0000
0000
0000
0000
0000
0000
0000
0000
0000
0000
0000
0000
0000
0000
0000
0000
0000
0000
0000
0000
0000
0000
0000
0000
0000
0000
0000
0000
0000
0000
0000
0000
0000
0020
0030
0000
0000
0000
0000
0000
0000
0000
0000
0000
0000
0000
0000
0000
0000
0000
0000
0000
0000
0000
0000
0000
0000
0000
0000
0000
0000
0000
0000
0000
0000
0000
0000
0000
0000
0000
0000
0000
0000
0000
0000
0000
0000
0000
0000
0000
0000
0200
0300
0000
0000
0000
0000
0000
0000
0000
0000
0000
0000
0000
0000
0000
0000
0000
0000
0000
0000
0000
0000
0000
0000
0000
0000
0000
0000
0000
0000
0000
0000
0000
0000
0000
0000
0000
0000
0000
0000
0000
0000
0000
0000
0000
0000
0000
0000
0001
0000
0000
0000
0000
0000
0000
0000
0000
0000
0000
0000
0000
0000
0000
0000
,
1000
0010
0100
0001
0100
0010
2000
0000
0000
0000
3100
0010
,
0001
0000
0100
0000
0010
0000
1000
0000
0001
0000
0010
0000
0100
1000
0100
0000
0010
0000
0001
0000
0100
0000
0010
0000
,
2000
0000
0000
3001
0010
0100
0020
0000
0000
0130
1000
0100
,
0010
0000
0001
0000
0100
0000
0010
0000
0100
0000
0001
0000
1000
0000
0100
0000
0010
0000
0001
1000
0001
0000
0100
0000
,
0020
0000
0000
1030
0100
1000
0002
0000
0000
1003
0100
1000
,
0020
0000
0000
1030
0100
0010
0200
0000
0000
0000
0000
0000
,
1300
0100
0010
0001
1000
0010
0200
0000
0000
0000
0300
0010
,
2000
0000
0000
0000
0000
0000
0000
0000
0000
0000
0000
0000
0000
0000
0000
0000
0000
0000
0000
0000
0000
0000
0000
0000
0000
0000
0000
0000
0000
0000
0000
0000
3200
0300
0000
0000
0000
0000
0000
0000
0000
0000
0000
0000
0000
0000
0000
0000
0000
0000
0000
0000
0000
0000
0000
0000
0000
0000
0000
0000
0000
0000
0000
0000
0000
0000
0000
0000
0000
0000
0000
0000
0000
0000
0000
0000
0000
0000
0000
0000
0020
0030
0000
0000
0000
0000
0000
0000
0000
0000
0000
0000
0000
0000
0000
0000
0000
0000
0000
0000
0000
0000
0000
0000
0000
0000
0000
0000
0000
0000
0000
0000
0000
0000
0000
0000
0000
0000
0000
0000
0000
0000
0000
0000
0000
0000
0000
0000
0002
0003
0000
0000
0000
0000
0000
0000
0000
0000
0000
0000
0000
0000
0000
0000
0000
0000
0000
0000
0000
0000
0000
0000
0000
0000
0000
0000
0000
0000
0000
0000
0000
0000
0000
0000
0000
0000
0000
0000
0000
0000
0000
0000
0000
0000
0000
0000
1000
0000
0000
0000
0000
0000
0000
0000
0000
0000
0000
0000
0000
0000
0000
0000
,
0010
1000
0001
0010
0100
1000
0002
0000
0000
0000
0013
0100
,
1000
0000
0001
0000
0100
0000
0010
0000
1000
0000
0001
0000
0010
0100
0010
0000
0001
0000
1000
0000
0010
0000
0100
0000
,
0002
0000
0000
1003
0001
1000
0200
0000
0000
0310
0001
0010
,
0100
0000
1000
0000
0010
0000
0100
0000
0001
0000
0100
0000
0010
0000
1000
0000
0001
0000
0010
0100
0010
0000
0001
0000
,
2000
0000
0000
0000
0000
0000
3001
0100
0010
0100
0001
1000
,
0200
0000
0000
0000
,
0320
0000
0000
0000
0000
0000
0000
0000
0000
0000
0000
0000
0000
0000
0000
0000
0000
0000
0031
1000
0100
1000
0001
0100
,
0020
0000
0000
0000
0000
0000
0000
0000
2030
0000
3020
0000
,
0230
0000
0000
0000
0302
0000
0000
0000
2003
0000
0000
0000
3200
0000
0000
0000
0320
0000
0000
0000
0031
0000
1000
0100
,
1000
0001
1000
0010
0100
0010
1000
0001
0100
0010
1000
0001
0100
0001
1000
0100
1000
0001
0010
0100
0010
0001
1000
0001
,
0100
0001
1000
0010
1000
0001
0100
0010
1000
0001
1000
0100
0010
0100
1000
0001
0010
0100
1000
0001
0100
0001
1000
0001
,
0010
0000
0001
0000
1000
0000
0100
0000
0010
0000
0100
0000
1000
0000
0000
0001
0000
0000
0010
0000
0000
0001
0000
0000
1000
0000
0000
0100
0000
0000
0010
0000
0000
0001
0000
0000
1000
0000
0000
0010
0000
0000
0100
0000
0001
0000
0100
0000
,
0001
1000
0100
1000
0010
0100
0001
1000
0100
0010
0100
1000
0001
0100
0010
1000
,
0100
0000
0000
0010
0000
0000
0001
0000
1000
0000
0001
0000
1000
0000
0000
0010
0000
0000
0100
0000
0001
0000
0100
0000
0001
0000
0000
1000
0000
0000
0010
0000
0100
0000
0010
0000
0100
0000
0000
0001
0000
0000
0010
0000
0000
0100
0000
0000
,
1000
0000
0000
0001
0000
0000
0100
0000
0001
0000
1000
0000
0100
0000
1000
0000
0001
0000
0010
0000
0100
0000
0010
0000
0001
0000
1000
0000
0001
0000
0100
0000
0001
0000
1000
0000
0010
0000
0100
0000
0010
0000
1000
0000
0001
0000
0100
0000
,
0001
1000
0100
0010
0001
0010
0100
1000
0001
0100
0001
1000
0010
1000
0001
0100
,
0001
1000
0100
0010
0001
1000
0100
0010
0001
0010
0100
1000
0001
0010
0100
1000
0001
0100
0001
1000
0010
0100
0010
1000
,
0001
1000
0100
1000
0001
0100
0001
1000
0010
1000
0001
0010
0001
1000
0100
1000
,
0001
0000
0000
0100
0000
0000
0001
0000
0000
1000
0000
0000
0100
0000
0010
0000
0001
0000
1000
0000
0100
0000
0010
0000
0001
0000
0000
1000
0000
0000
0010
0000
0000
1000
0000
0000
0001
0000
0000
0010
0000
0000
0100
0000
0000
1000
0000
0000
,
0001
0000
0000
0010
0000
0000
0001
0000
0000
1000
0000
0000
0010
0000
0000
1000
0000
0000
0001
0000
0000
0100
0000
0000
0001
0000
1000
0000
0100
0000
1000
0000
0001
0000
0010
0000
0100
0000
0000
1000
0000
0000
0001
0000
0000
0100
0000
0000
,
0010
0000
0000
1000
0000
0000
0001
0000
0000
0100
0000
0000
0010
0000
0000
1000
0000
0000
0001
0000
0000
0010
0000
0000
0100
0000
0000
1000
0000
0000
0001
0000
0000
0010
0000
0000
0100
0000
0000
1000
0000
0000
0001
0000
0100
0000
0010
0000
,
1000
0000
0000
0000
0000
0000
0000
0000
0000
0000
0000
0000
0001
0000
0000
0000
0010
0000
0000
0000
0001
0000
0000
0000
1000
0000
0000
0000
0010
0000
0000
0000
0100
0000
0000
0000
0001
0000
0000
0010
0000
0000
0100
0000
0000
1000
0000
0000
,
0002
0000
0003
0000
0000
0000
0020
0000
0030
0000
0000
0000
0200
0000
0300
0000
0000
0000
2000
0000
3000
0000
0000
0000
0002
0000
0003
0000
0000
0000
0200
0000
0300
0000
0000
0000
0010
0000
0000
1000
0000
0000
0001
0000
0100
0000
0001
0000
,
0100
0010
1000
0100
1000
0001
0100
0010
1000
0001
1000
0100
1000
0001
0010
0100
,
1000
0000
0001
0000
1000
0000
0001
0000
0000
0100
0000
0000
0010
0000
0000
1000
0000
0000
0001
0000
0000
1000
0000
0000
0100
0000
0000
0010
0000
0000
0001
0000
0000
0010
0000
0000
0100
0000
0000
1000
0000
0000
0001
0000
0000
0100
0000
0000
,
0010
1000
0001
1000
0100
1000
0001
0100
0010
1000
0001
0100
0010
1000
0001
0010
,
0100
0000
0000
0010
0000
0000
0001
0000
0000
1000
0000
0000
0010
0000
0100
0000
0001
0000
1000
0000
0100
0000
1000
0000
0001
0000
0010
0000
0100
0000
0010
0000
0001
0000
1000
0000
0001
0000
0000
0010
0000
0000
0100
0000
0000
1000
0000
0000
,
0100
0010
0001
1000
0010
0100
0001
1000
0100
1000
0001
0010
,
0100
0000
0000
1000
0000
0000
0001
0000
0000
1000
0000
0000
0010
0000
0000
0100
0000
0000
0001
0000
0000
1000
0000
0000
0001
0000
0100
0000
0001
0000
1000
0000
0010
0000
0100
0000
0010
0000
1000
0000
0001
0000
0010
0000
0001
0000
1000
0000
,
0100
0010
0100
1000
0001
0010
0100
1000
0001
0100
0010
0100
0001
1000
0100
1000
0001
0010
0100
0010
0001
1000
0100
0010
,
0100
0000
1000
0000
0001
0000
1000
0000
0010
0000
0100
0000
0001
0000
0000
1000
0000
0000
0100
0000
0000
0010
0000
0000
0001
0000
0000
0100
0000
0000
0001
0000
0000
1000
0000
0000
0100
0000
0000
0000
1000
0000
0000
0000
0010
0000
0000
0000
,
0100
0001
1000
0100
0010
0001
1000
0100
1000
0001
0100
0001
1000
0100
0010
0001
,
0010
0100
1000
0001
0010
0100
1000
0001
0100
0010
1000
0001
1000
0010
0100
0001
,
1000
0100
1000
0100
0010
0001
0010
0001
1000
0010
1000
0010
0100
0001
0100
0001
,
1000
0100
1000
0100
0010
0100
0010
0001
0010
0001
1000
0001
1000
0010
1000
0010
,
0100
0001
1000
0001
0100
0001
1000
0001
0010
0001
1000
0100
1000
0010
1000
0001
,
1000
0010
0100
0001
1000
0001
0010
0001
1000
0100
0010
0001
0010
0100
1000
0001
,
0010
0100
0010
0001
1000
0100
0010
0001
1000
0010
0100
0001
1000
0100
0010
0001
,
1000
0000
0100
0000
0010
0000
0001
0000
1000
0000
0010
0000
0200
0000
0000
0000
0000
0000
0310
1000
0001
0100
0001
1000
,
0200
2300
3020
0230
,
0302
2003
0000
3200
,
0310
0001
0010
0100
1000
0001
0200
0000
0000
0320
0000
0000
,
2030
0000
0000
0000
,
3001
0010
0100
1000
0001
0010
0400
0000
0000
0000
0000
0300
,
0020
0000
0032
0000
0000
0000
0000
0000
0000
0203
0000
0000
,
0320
0000
2030
0000
3020
0000
0230
0000
0000
0000
0301
1000
,
0200
0000
0320
0000
0032
0000
0000
0000
0000
0023
0000
0000
,
0130
0000
1000
0000
0002
0000
0000
0000
0000
0000
0003
0000
1000
0000
0000
0000
0010
0100
0001
1000
0010
0100
0010
1000
,
0002
0000
0000
0000
0000
0000
0000
0000
0203
0000
0000
0000
0000
0000
0000
0000
0320
0000
0000
0000
0000
0000
0000
0000
1030
0000
0000
0001
0000
0000
0010
0000
0000
0001
0000
0000
1000
0000
0000
0010
0000
0000
0100
0000
0000
0001
0000
0000
,
1000
0100
0010
0100
1000
0001
0100
0010
1000
0001
0010
0100
,
2000
0000
3002
0000
0203
0000
0000
0000
0000
0000
0000
0000
,
0300
0000
0020
0000
2030
0000
3002
0000
0023
0000
0230
0000
,
2300
0000
0000
0000
0000
0000
0000
0000
0000
0001
3100
0001
0200
0000
0000
0000
0000
0000
0000
0000
0000
0000
0000
0000
,
0300
0000
0002
0000
2003
0000
3200
0000
2300
0000
3020
0000
,
2030
0000
3200
0000
,
0320
0000
0032
0000
,
2003
0000
3020
0000
0230
0000
0302
0000
0000
0000
0000
0000
,
2003
0000
0000
0000
0000
0000
3100
0010
0001
2000
0000
0000
,
3001
0100
0010
1000
0100
1000
0010
0100
0002
0000
0000
0000
0000
0000
0000
0000
,
4003
0000
0000
0000
0000
0000
0000
0000
0000
0000
0000
0000
3001
0010
0100
1000
0001
0010
0100
1000
0001
1000
0010
0100
,
0010
1000
0001
0100
0001
1000
0001
0010
0100
1000
0001
0010
0100
1000
0100
0010
0001
1000
0100
1000
0001
0100
0001
1000
,
0040
0000
0000
0000
0000
0000
0000
0000
0000
0000
0000
0000
0130
0001
1000
0010
0100
0010
1000
0001
0100
0001
1000
0001
,
0010
0100
1000
0001
0010
0100
1000
0100
0010
0001
1000
0100
0010
0001
1000
0100
1000
0001
0010
0001
1000
0010
1000
0001
,
0010
0001
1000
0100
0010
0001
1000
0100
0010
0001
1000
0100
1000
0001
0100
0001
1000
0100
1000
0001
0010
0100
1000
0001
,
0010
0100
1000
0100
0010
0001
1000
0100
0010
0001
1000
0100
0010
0100
1000
0001
0100
0001
1000
0010
0100
0001
0100
0010
,
1000
0001
0100
0001
0100
0010
1000
0010
1000
0001
1000
0001
0010
0001
0010
0100
,
0010
0100
1000
0100
1000
0001
1000
0001
0100
0001
0100
0010
0100
0010
1000
0001
,
1000
0010
0100
0001
1000
0010
0100
0001
1000
0010
1000
0001
0100
0001
1000
0100
1000
0001
0010
0001
1000
0100
0010
0001
,
0010
0100
1000
0001
0010
0100
1000
0001
0100
0001
1000
0010
0100
0010
1000
0001
0100
0001
1000
0100
1000
0001
0100
0010
,
1000
0000
0000
0000
1000
0000
0000
0000
0001
0000
0010
0000
0100
0000
0000
0000
0100
0000
1000
0100
1000
0001
0010
0001
,
1000
0100
0010
0001
1000
0100
0010
0001
0010
0100
1000
0001
0100
0001
1000
0010
0100
0001
1000
0001
0010
0001
1000
0100
,
0010
0001
1000
0010
0100
0001
1000
0100
0010
0001
0010
0100
1000
0001
0010
0100
,
1000
0001
0100
0010
1000
0001
0100
0010
1000
0001
0100
0001
1000
0100
1000
0001
,
0010
0100
1000
0001
0010
0100
1000
0001
0010
0001
1000
0100
1000
0001
0010
0100
1000
0001
0010
0100
1000
0001
0100
0001
,
1000
0000
0000
0010
0000
0000
1000
0000
0000
0001
0000
0000
1000
0000
0000
0100
0000
0000
0010
0000
0000
0001
0000
0000
0010
0000
0000
0100
0000
0000
1000
0000
0000
0001
0000
0000
0010
0000
0100
0000
1000
0000
0100
0000
0010
0000
0001
0000
,
1000
0100
0010
0001
0010
0100
1000
0001
0010
0100
1000
0001
1000
0100
0010
0100
1000
0001
1000
0010
0100
0010
1000
0001
,
1000
0010
0100
0010
1000
0001
0100
0001
1000
0100
1000
0001
0020
0000
0000
0000
0000
0000
0000
0000
0000
0000
0000
0000
,
0130
1000
0001
0100
0010
1000
0020
0000
0000
0000
0000
0000
,
1030
0000
0000
0000
0000
0000
0000
0000
0000
0000
0000
0000
0000
0000
0000
0000
0001
0000
0000
0000
0000
0000
0000
0000
0000
0000
0000
0000
0000
0000
0000
0000
0010
0000
0000
0000
0000
0000
0000
0000
0000
0000
0000
0000
0000
0000
0000
0000
0100
0000
0000
0000
0000
0000
0000
0000
0000
0000
0000
0000
0000
0000
0000
0000
1000
0000
0000
0000
0000
0000
0000
0000
0000
0000
0000
0000
0000
0000
0000
0000
0001
0000
0000
0000
0000
0000
0000
0000
0000
0000
0000
0000
0000
0000
0000
0000
0200
0000
0000
0000
0000
0000
0000
0000
0000
0000
0000
0000
0000
0000
0000
0000
0000
0000
0000
0000
0000
0000
0000
0000
0000
0000
0000
0000
0000
0000
0300
0000
0020
0000
0000
0000
2000
0000
0000
0000
0000
0000
0000
0000
0000
0000
0000
0000
0000
0000
0000
0000
0000
0000
0000
0000
0000
0000
0000
0000
0000
0000
0000
0000
0000
0000
0000
0000
0000
0000
0000
0000
3000
0000
0000
0000
0000
0000
0000
0000
0000
0000
0000
0000
0000
0000
0000
0000
0030
0000
0000
0000
0000
0000
0000
0000
,
1000
0100
0010
0001
0010
0100
2000
0000
0000
0000
0000
0000
,
3020
0000
0230
0000
0302
0000
2003
0000
0000
0000
0000
0000
,
3100
0010
0001
1000
0010
0100
0002
0000
0000
0000
0000
0000
,
1003
0000
0000
0000
0100
0000
0000
0000
1000
0000
0000
0000
0001
0000
0000
0000
0100
0000
0000
0000
0010
0000
0000
0000
2000
0000
0000
0000
0000
0000
0000
0000
3200
0020
0000
0000
0000
0000
0000
0000
0000
0000
0030
0000
0000
0000
0300
0000
,
0010
0000
0001
0000
1000
0000
0010
0000
0100
0000
0001
0000
2000
0000
0000
0000
0000
0000
0000
0000
0000
3100
0010
0001
,
1000
0100
1000
0001
0010
0100
1000
0001
0100
0001
1000
0010
0200
0000
0000
0000
0000
0000
0000
0000
0000
0000
0000
0000
,
0301
1000
0001
0100
0010
1000
0020
0000
0000
0000
0000
0000
,
1030
0000
0000
0000
0001
0000
0000
0000
0010
0000
0000
0000
0100
0000
0000
0000
1000
0000
0000
0000
0100
0000
0000
0000
0020
0000
0000
0000
0000
0000
0000
0000
0032
0200
0000
0000
0000
0000
0000
0000
0000
0000
0300
0000
0003
0000
0000
0000
,
0100
0000
0010
0000
1000
0000
0001
0000
0010
0000
0100
0000
2000
0000
0000
0000
0000
0000
0000
0000
0000
3000
0000
0000
,
2200
3300
0220
0330
0022
0033
0202
0000
0000
0000
0303
0000
,
1000
0010
1000
0001
0100
0010
2000
0000
0000
0000
0000
0000
,
3001
0000
0000
0000
0100
0000
0000
0000
0001
0000
0000
0000
0010
0000
0000
0000
0100
0000
0000
0000
1000
0000
0000
0000
0002
0000
0000
0000
0000
0000
0000
0000
0023
0200
0000
0000
0000
0000
0000
0000
0000
0000
0300
0000
0030
0000
0000
0000
,
0100
0000
1000
0000
0001
0000
0100
0000
0010
0000
1000
0000
0020
0000
0000
0000
0000
0000
0000
0000
0000
0130
0001
1000
,
0001
0100
0010
1000
0010
0100
0001
1000
0100
0010
0001
1000
0200
0000
0000
0000
0000
0000
0000
0000
0000
0000
0000
0000
,
0310
0000
0000
0001
1000
0100
0010
0000
0002
0000
0000
0000
,
0013
0000
0000
0100
1000
0001
1000
0000
0020
0000
0000
0000
,
0130
0001
1000
0010
0000
0000
0100
0001
1000
0100
0000
0000
,
0022
0000
0000
0000
0000
0000
0033
0000
0000
1000
0001
0100
,
0020
0000
2030
3200
,
1300
0100
1000
0001
0010
0100
1000
0100
0010
0001
1000
0100
1000
0001
0100
0001
1000
0010
1000
0001
0100
0001
1000
0010
,
0100
0000
0002
0000
2003
0000
3200
0000
0320
0000
0032
0000
,
2003
0000
0000
0000
3010
0100
0002
0000
0000
0000
0000
0000
,
0003
0000
2000
0000
3002
0000
0023
0000
0230
0000
0320
0000
,
0032
0000
0203
0000
,
0320
0000
2030
0000
,
3200
0000
0320
0000
0230
0000
2300
0000
0000
0000
0000
0000
,
3020
0000
0000
0000
0000
0000
0130
0001
1000
0100
0000
0000
,
0011
0000
0000
0110
0000
0000
1100
0000
0000
1000
0001
0100
,
0010
1000
0001
0010
0100
0010
0002
0000
0000
0000
0000
0000
,
1003
0010
0100
0001
0100
0010
2000
0000
0000
0000
0000
0000
,
3001
1000
0010
1000
0001
0010
0100
1000
0001
0100
0010
1000
,
0001
0100
0010
1000
0100
0010
0002
0000
0000
0000
0000
0000
,
1003
0001
0010
0001
1000
0100
0010
0100
1000
0001
0100
0010
,
1000
0001
0100
0010
1000
0001
0010
0100
1000
0100
0010
0001
,
1000
0100
0010
0100
1000
0001
0010
0001
1000
0001
0100
0010
1000
0001
0100
0001
1000
0010
0100
0001
1000
0100
1000
0001
,
0010
0100
0010
0001
1000
0100
1000
0001
0010
0100
1000
0001
0100
0000
0000
0000
0000
0000
0001
0000
0000
0000
0000
0000
,
1000
0100
0010
0100
1000
0001
0100
0010
2000
0000
0000
0000
3000
0000
0000
0000
,
0022
0033
0220
0000
,
0000
0000
0000
0000
0000
0000
0000
0000
0000
0330
0000
0000
1000
0000
0001
0000
0100
0000
0010
0000
1000
0000
0100
0000
,
0020
0030
0000
0000
;

//---------------dance-single - Mad Matt----------------
#NOTES:
     dance-single:
     Mad Matt:
     Hard:
     17:
     1.000,1.000,0.065,0.887,1.000,1876.000,16.000,219.000,0.000,0.000:

0000
0000
0000
0000
0000
0000
0000
0000
0000
1000
0100
0010
,
0001
0100
0010
1000
0010
0100
0002
0000
0000
0000
0000
0000
,
1003
0100
0010
0001
0010
0100
2000
0000
0000
0000
0000
0000
,
3100
1000
0001
0100
0010
0100
0001
1000
0100
0010
0001
0010
,
0100
1000
0010
0100
0010
1000
0002
0000
0000
0000
0000
0000
,
1003
0001
0100
0001
1000
0010
1000
0100
1000
0001
0100
0001
,
1000
0010
1000
0100
1000
0001
0100
0001
0010
0100
0010
0001
,
1000
0100
1000
0010
1000
0001
0100
0001
1000
0010
0100
0010
1000
0001
1000
0100
0010
0100
1000
0001
0010
0001
0100
0001
,
1000
0100
1000
0001
0010
0100
0010
0001
1000
0001
0100
0001
2000
0000
0000
0000
0000
0000
3001
0000
0010
0000
0100
0000
,
0010
0001
1000
0010
1000
0001
0200
0000
0000
0000
0300
0001
,
0020
0000
0000
0000
0000
0000
0000
0000
0000
0000
0000
0000
0000
0000
0000
0000
0000
0000
0000
0000
0000
0000
0000
0000
0000
0000
0000
0000
0000
0000
0000
0000
0032
0003
0000
0000
0000
0000
0000
0000
0000
0000
0000
0000
0000
0000
0000
0000
0000
0000
0000
0000
0000
0000
0000
0000
0000
0000
0000
0000
0000
0000
0000
0000
0000
0000
0000
0000
0000
0000
0000
0000
0000
0000
0000
0000
0000
0000
0000
0000
0020
0030
0000
0000
0000
0000
0000
0000
0000
0000
0000
0000
0000
0000
0000
0000
0000
0000
0000
0000
0000
0000
0000
0000
0000
0000
0000
0000
0000
0000
0000
0000
0000
0000
0000
0000
0000
0000
0000
0000
0000
0000
0000
0000
0000
0000
0000
0000
0200
0300
0000
0000
0000
0000
0000
0000
0000
0000
0000
0000
0000
0000
0000
0000
0000
0000
0000
0000
0000
0000
0000
0000
0000
0000
0000
0000
0000
0000
0000
0000
0000
0000
0000
0000
0000
0000
0000
0000
0000
0000
0000
0000
0000
0000
0000
0000
1000
0000
0000
0000
0000
0000
0000
0000
0000
0000
0000
0000
0000
0000
0000
0000
,
0001
0100
0010
1000
0010
0100
0002
0000
0000
0000
1003
0001
,
0010
0000
0100
0000
0010
0000
0001
0000
1000
0000
0010
0000
0100
0001
0100
0000
0010
0000
1000
0000
0100
0000
0010
0000
,
0002
0000
0000
1003
0100
1000
0002
0000
0000
0103
0010
0100
,
0001
0000
1000
0000
0100
0000
0010
0000
0100
0000
1000
0000
0001
0000
0100
0000
0010
0000
1000
0001
1000
0000
0010
0000
,
0200
0000
0000
0301
0010
0100
0020
0000
0000
0130
1000
0001
,
2000
0000
0000
3001
0100
0001
2000
0000
0000
0000
0000
0000
,
3001
0100
0010
1000
0001
0010
0200
0000
0000
0000
0300
0010
,
0002
0000
0000
0000
0000
0000
0000
0000
0000
0000
0000
0000
0000
0000
0000
0000
0000
0000
0000
0000
0000
0000
0000
0000
0000
0000
0000
0000
0000
0000
0000
0000
0203
0300
0000
0000
0000
0000
0000
0000
0000
0000
0000
0000
0000
0000
0000
0000
0000
0000
0000
0000
0000
0000
0000
0000
0000
0000
0000
0000
0000
0000
0000
0000
0000
0000
0000
0000
0000
0000
0000
0000
0000
0000
0000
0000
0000
0000
0000
0000
0020
0030
0000
0000
0000
0000
0000
0000
0000
0000
0000
0000
0000
0000
0000
0000
0000
0000
0000
0000
0000
0000
0000
0000
0000
0000
0000
0000
0000
0000
0000
0000
0000
0000
0000
0000
0000
0000
0000
0000
0000
0000
0000
0000
0000
0000
0000
0000
2000
3000
0000
0000
0000
0000
0000
0000
0000
0000
0000
0000
0000
0000
0000
0000
0000
0000
0000
0000
0000
0000
0000
0000
0000
0000
0000
0000
0000
0000
0000
0000
0000
0000
0000
0000
0000
0000
0000
0000
0000
0000
0000
0000
0000
0000
0000
0000
0001
0000
0000
0000
0000
0000
0000
0000
0000
0000
0000
0000
0000
0000
0000
0000
,
0010
0001
1000
0010
0100
0001
2000
0000
0000
0000
3100
0010
,
0001
0000
1000
0000
0010
0000
0100
0000
0001
0000
1000
0000
0100
0010
0100
0000
1000
0000
0001
0000
0100
0000
0010
0000
,
2000
0000
0000
3001
0100
0010
0200
0000
0000
0310
1000
0010
,
0100
0000
0001
0000
0100
0000
0010
0000
1000
0000
0010
0000
0100
0000
0001
0000
1000
0000
0100
0010
0100
0000
1000
0000
,
0002
0000
0000
0000
0000
0000
0103
0010
1000
0100
1000
0001
,
0200
0000
0000
0000
,
0301
0000
0000
1000
0010
0100
0001
0000
2000
0000
0000
0000
,
3100
0000
0000
0010
0001
1000
0010
0000
0200
0000
0000
0000
,
0301
1000
0100
0010
0000
0000
0001
1000
0010
0100
0000
0000
,
0202
0000
0000
0000
0000
0000
0303
0000
0000
1000
0100
0010
,
0002
0000
2003
3020
,
1030
0001
0010
0001
0100
0001
1000
0100
1000
0001
0100
0001
1000
0010
1000
0100
1000
0001
0100
0001
1000
0010
0100
0001
,
1000
0000
0002
0000
2003
0000
3200
0000
0320
0000
0230
0000
,
2300
0000
0000
0000
3010
0100
0002
0000
0000
0000
0000
0000
,
0003
0000
2000
0000
3020
0000
0230
0000
0302
0000
2003
0000
,
3200
0000
2300
0000
,
3002
0000
0203
0000
,
0320
0000
2030
0000
3002
0000
0023
0000
0000
0000
0030
0000
,
0200
0000
0000
0000
0000
0000
1300
0010
0100
0001
0000
0000
,
0101
0000
0000
0110
0000
0000
1010
0000
0000
0001
0010
0100
,
1000
0010
0100
0001
0100
0010
2000
0000
0000
0000
0000
0000
,
3001
0010
0100
1000
0100
0010
0002
0000
0000
0000
0000
0000
,
0013
0001
1000
0010
0100
0010
1000
0001
0010
0100
1000
0100
,
0010
0001
0100
0010
0100
0001
2000
0000
0000
0000
0000
0000
,
3001
1000
0010
1000
0001
0100
0001
0010
0001
1000
0010
1000
,
0001
0100
0001
0010
0001
1000
0010
1000
0100
0010
0100
1000
,
0001
0100
0001
0010
0001
1000
0100
1000
0001
0010
0100
0010
0001
1000
0001
0100
0010
0100
0001
1000
0010
1000
0100
1000
,
0001
0100
0001
1000
0010
0100
0010
1000
0001
1000
0100
1000
0002
0000
0000
0000
0000
0000
1003
0000
0100
0000
0010
0000
,
0100
1000
0001
0100
0001
1000
0020
0000
0000
0000
0030
0100
,
0002
0000
0000
0000
0000
0000
0000
0000
0000
0000
0000
0000
0000
0000
0000
0000
0000
0000
0000
0000
0000
0000
0000
0000
0000
0000
0000
0000
0000
0000
0000
0000
2003
3000
0000
0000
0000
0000
0000
0000
0000
0000
0000
0000
0000
0000
0000
0000
0000
0000
0000
0000
0000
0000
0000
0000
0000
0000
0000
0000
0000
0000
0000
0000
0000
0000
0000
0000
0000
0000
0000
0000
0000
0000
0000
0000
0000
0000
0000
0000
0020
0030
0000
0000
0000
0000
0000
0000
0000
0000
0000
0000
0000
0000
0000
0000
0000
0000
0000
0000
0000
0000
0000
0000
0000
0000
0000
0000
0000
0000
0000
0000
0000
0000
0000
0000
0000
0000
0000
0000
0000
0000
0000
0000
0000
0000
0000
0000
0200
0300
0000
0000
0000
0000
0000
0000
0000
0000
0000
0000
0000
0000
0000
0000
0000
0000
0000
0000
0000
0000
0000
0000
0000
0000
0000
0000
0000
0000
0000
0000
0000
0000
0000
0000
0000
0000
0000
0000
0000
0000
0000
0000
0000
0000
0000
0000
0001
0000
0000
0000
0000
0000
0000
0000
0000
0000
0000
0000
0000
0000
0000
0000
,
1000
0010
0100
0001
0100
0010
2000
0000
0000
0000
3100
0010
,
0001
0000
0100
0000
0010
0000
1000
0000
0001
0000
0010
0000
0100
1000
0100
0000
0010
0000
0001
0000
0100
0000
0010
0000
,
2000
0000
0000
3001
0010
0100
0020
0000
0000
0130
1000
0100
,
0010
0000
0001
0000
0100
0000
0010
0000
0100
0000
0001
0000
1000
0000
0100
0000
0010
0000
0001
1000
0001
0000
0100
0000
,
0020
0000
0000
1030
0100
1000
0002
0000
0000
1003
0100
1000
,
0020
0000
0000
1030
0100
0010
0200
0000
0000
0000
0000
0000
,
1300
0100
0010
0001
1000
0010
0200
0000
0000
0000
0300
0010
,
2000
0000
0000
0000
0000
0000
0000
0000
0000
0000
0000
0000
0000
0000
0000
0000
0000
0000
0000
0000
0000
0000
0000
0000
0000
0000
0000
0000
0000
0000
0000
0000
3200
0300
0000
0000
0000
0000
0000
0000
0000
0000
0000
0000
0000
0000
0000
0000
0000
0000
0000
0000
0000
0000
0000
0000
0000
0000
0000
0000
0000
0000
0000
0000
0000
0000
0000
0000
0000
0000
0000
0000
0000
0000
0000
0000
0000
0000
0000
0000
0020
0030
0000
0000
0000
0000
0000
0000
0000
0000
0000
0000
0000
0000
0000
0000
0000
0000
0000
0000
0000
0000
0000
0000
0000
0000
0000
0000
0000
0000
0000
0000
0000
0000
0000
0000
0000
0000
0000
0000
0000
0000
0000
0000
0000
0000
0000
0000
0002
0003
0000
0000
0000
0000
0000
0000
0000
0000
0000
0000
0000
0000
0000
0000
0000
0000
0000
0000
0000
0000
0000
0000
0000
0000
0000
0000
0000
0000
0000
0000
0000
0000
0000
0000
0000
0000
0000
0000
0000
0000
0000
0000
0000
0000
0000
0000
1000
0000
0000
0000
0000
0000
0000
0000
0000
0000
0000
0000
0000
0000
0000
0000
,
0010
1000
0001
0010
0100
1000
0002
0000
0000
0000
0013
0100
,
1000
0000
0001
0000
0100
0000
0010
0000
1000
0000
0001
0000
0010
0100
0010
0000
0001
0000
1000
0000
0010
0000
0100
0000
,
0002
0000
0000
1003
0001
1000
0200
0000
0000
0310
0001
0010
,
0100
0000
1000
0000
0010
0000
0100
0000
0001
0000
0100
0000
0010
0000
1000
0000
0001
0000
0010
0100
0010
0000
0001
0000
,
2000
0000
0000
0000
0000
0000
3001
0100
0010
0100
0001
1000
,
0200
0000
0000
0000
,
2300
0000
0000
0000
0000
0000
0000
0000
0000
0000
0000
0000
0000
0000
0000
0000
0000
0000
3001
0100
0001
0010
0001
1000
,
0020
0000
0000
0000
0000
0000
0000
0000
2030
0000
3020
0000
,
0230
0000
0000
0000
0302
0000
0000
0000
2003
0000
0000
0000
3200
0000
0000
0000
0320
0000
0000
0000
0031
0000
1000
0100
,
1000
0010
1000
0001
0010
0100
0010
0001
1000
0100
1000
0001
0100
0001
1000
0010
1000
0100
1000
0001
0100
0010
0100
0001
,
1000
0001
0010
0001
1000
0100
1000
0001
0010
0001
0100
0001
1000
0100
1000
0001
0010
0001
0100
0001
1000
0100
0010
0100
,
1000
0000
0001
0000
1000
0000
0010
0000
0100
0000
0001
0000
1000
0000
0000
0001
0000
0000
0010
0000
0000
0001
0000
0000
1000
0000
0000
0100
0000
0000
0010
0000
0000
0001
0000
0000
1000
0000
0000
0010
0000
0000
0100
0000
0001
0000
0100
0000
,
0001
1000
0100
1000
0010
0100
0001
1000
0100
0010
0100
1000
0001
0100
0010
1000
,
0100
0000
0000
0010
0000
0000
0001
0000
1000
0000
0001
0000
1000
0000
0000
0010
0000
0000
0100
0000
0001
0000
0100
0000
0001
0000
0000
1000
0000
0000
0010
0000
0100
0000
0010
0000
0100
0000
0000
0001
0000
0000
0010
0000
0000
0100
0000
0000
,
1000
0000
0000
0001
0000
0000
0100
0000
0001
0000
1000
0000
0100
0000
1000
0000
0010
0000
1000
0000
0001
0000
0010
0000
0100
0000
0010
0000
0001
0000
1000
0000
0001
0000
0100
0000
0001
0000
1000
0000
0010
0000
0100
0000
0001
0000
1000
0000
,
0010
1000
0100
0010
0001
0010
0100
1000
0001
0100
0001
1000
0010
1000
0001
0100
,
0001
0100
0001
0010
0001
1000
0010
0100
0010
1000
0001
1000
0100
1000
0001
0010
0001
0100
0001
1000
0100
0010
0100
1000
,
0001
1000
0100
1000
0001
0100
0001
1000
0010
1000
0001
0010
0001
1000
0100
1000
,
0001
0000
0000
0100
0000
0000
0001
0000
0000
1000
0000
0000
0001
0000
0010
0000
0001
0000
0100
0000
0001
0000
1000
0000
0100
0000
0000
1000
0000
0000
0010
0000
0000
1000
0000
0000
0001
0000
0000
0010
0000
0000
0100
0000
0000
1000
0000
0000
,
0001
0000
0000
0010
0000
0000
0001
0000
0000
1000
0000
0000
0010
0000
0000
1000
0000
0000
0001
0000
0000
0100
0000
0000
0001
0000
1000
0000
0010
0000
1000
0000
0001
0000
0010
0000
0100
0000
0000
1000
0000
0000
0001
0000
0000
0100
0000
0000
,
0010
0000
0000
1000
0000
0000
0001
0000
0000
0100
0000
0000
0010
0000
0000
1000
0000
0000
0001
0000
0000
0010
0000
0000
0100
0000
0000
1000
0000
0000
0001
0000
0000
0010
0000
0000
0100
0000
0000
1000
0000
0000
0001
0000
0100
0000
0010
0000
,
1000
0000
0000
0000
0000
0000
0000
0000
0000
0000
0000
0000
0001
0000
0000
0000
0010
0000
0000
0000
0001
0000
0000
0000
1000
0000
0000
0000
0010
0000
0000
0000
0100
0000
0000
0000
0001
0000
0000
0010
0000
0000
0100
0000
0000
1000
0000
0000
,
0002
0000
0003
0000
0000
0000
0020
0000
0030
0000
0000
0000
0200
0000
0300
0000
0000
0000
2000
0000
3000
0000
0000
0000
0002
0000
0003
0000
0000
0000
0200
0000
0300
0000
0000
0000
0010
0000
0000
1000
0000
0000
0001
0000
0100
0000
0001
0000
,
0100
0010
1000
0100
1000
0001
0100
0010
1000
0001
1000
0100
1000
0001
0010
0100
,
1000
0000
0001
0000
1000
0000
0001
0000
0000
0100
0000
0000
0010
0000
0000
1000
0000
0000
0001
0000
0000
1000
0000
0000
0100
0000
0000
0010
0000
0000
0001
0000
0000
0010
0000
0000
0100
0000
0000
1000
0000
0000
0001
0000
0000
0100
0000
0000
,
0010
1000
0001
1000
0100
1000
0001
0100
0010
1000
0001
0100
0010
1000
0001
0010
,
0100
0000
0000
0010
0000
0000
0001
0000
0000
1000
0000
0000
0010
0000
1000
0000
0001
0000
1000
0000
0100
0000
1000
0000
0001
0000
0100
0000
0010
0000
0100
0000
0001
0000
1000
0000
0100
0000
0000
0010
0000
0000
0100
0000
0000
1000
0000
0000
,
0100
0010
0001
1000
0010
0100
0001
1000
0100
1000
0001
0010
,
0100
0000
0000
1000
0000
0000
0001
0000
0000
1000
0000
0000
0010
0000
0000
0100
0000
0000
0001
0000
0000
1000
0000
0000
0001
0000
0100
0000
0010
0000
0100
0000
0001
0000
1000
0000
0010
0000
1000
0000
0100
0000
1000
0000
0001
0000
0100
0000
,
0001
1000
0100
0010
0100
1000
0001
0010
0001
0100
0001
1000
0100
0010
0100
1000
0001
0010
0001
0100
0001
1000
0100
1000
,
0001
0000
0100
0000
0001
0000
0010
0000
0001
0000
1000
0000
0010
0000
0000
1000
0000
0000
0100
0000
0000
0010
0000
0000
0001
0000
0000
0100
0000
0000
0001
0000
0000
1000
0000
0000
0100
0000
0000
0000
1000
0000
0000
0000
0010
0000
0000
0000
,
0100
0001
1000
0100
0010
0001
1000
0100
1000
0001
0100
0001
1000
0100
0010
0001
,
0010
0100
1000
0001
0010
0100
1000
0001
0100
0010
1000
0001
1000
0010
0100
0001
,
1000
0100
1000
0100
0010
0001
0010
0001
1000
0010
1000
0010
0100
0001
0100
0001
,
1000
0100
1000
0100
0010
0100
0010
0001
0010
0001
1000
0001
1000
0010
1000
0010
,
0100
0001
1000
0001
0100
0001
1000
0001
0010
0001
1000
0100
1000
0010
1000
0001
,
1000
0010
0100
0001
1000
0001
0010
0001
1000
0100
0010
0001
0010
0100
1000
0001
,
0010
0100
0010
0001
1000
0100
0010
0001
1000
0010
0100
0001
1000
0100
0010
0001
,
1000
0000
0100
0000
0010
0000
0001
0000
0100
0000
0010
0000
2000
0000
0000
0000
0000
0000
3001
0010
0001
0100
0001
1000
,
0200
2300
3020
0230
,
0302
2003
0000
3200
,
0310
0001
0010
0100
1000
0001
0200
0000
0000
0320
0000
0000
,
2030
0000
0000
0000
,
3001
0010
0100
1000
0001
0010
0400
0000
0000
0000
0000
0300
,
0020
0000
0032
0000
0000
0000
0000
0000
0000
0203
0000
0000
,
0320
0000
2030
0000
3020
0000
0230
0000
0000
0000
0301
1000
,
0200
0000
0320
0000
0032
0000
0000
0000
0000
0023
0000
0000
,
0130
0000
1000
0000
0002
0000
0000
0000
0000
0000
0003
0000
1000
0000
0000
0000
0001
0010
0001
1000
0100
1000
0010
1000
,
0002
0000
0000
0000
0000
0000
0000
0000
0203
0000
0000
0000
0000
0000
0000
0000
0320
0000
0000
0000
0000
0000
0000
0000
1030
0000
0000
0001
0000
0000
0010
0000
0000
0001
0000
0000
1000
0000
0000
0010
0000
0000
0100
0000
0000
0001
0000
0000
,
1000
0100
0010
0100
1000
0001
0100
0010
1000
0001
0010
0100
,
2000
0000
3002
0000
0203
0000
0000
0000
0000
0000
0000
0000
,
0300
0000
0020
0000
2030
0000
3002
0000
0023
0000
0230
0000
,
2300
0000
0000
0000
0000
0000
0000
0000
0000
0001
3010
0001
0200
0000
0000
0000
0000
0000
0000
0000
0000
0000
0000
0000
,
0300
0000
0002
0000
2003
0000
3200
0000
2300
0000
3020
0000
,
2030
0000
3200
0000
,
0320
0000
0032
0000
,
2003
0000
3020
0000
0230
0000
0302
0000
0000
0000
0000
0000
,
2003
0000
0000
0000
0000
0000
3100
0010
0001
2000
0000
0000
,
3001
0100
0010
1000
0100
1000
0010
0100
0002
0000
0000
0000
0000
0000
0000
0000
,
4003
0000
0000
0000
0000
0000
0000
0000
0000
0000
0000
0000
3001
0010
0001
1000
0100
0010
0100
1000
0001
0010
0001
0100
,
0001
1000
0100
1000
0001
1000
0010
0100
0010
1000
0001
0100
0001
0010
0001
1000
0010
0100
0010
1000
0001
0100
0001
1000
,
0040
0000
0000
0000
0000
0000
0000
0000
0000
0000
0000
0000
0130
0001
1000
0001
0010
0001
1000
0100
1000
0010
1000
0001
,
0010
0100
0010
0001
1000
0001
0100
0001
1000
0010
0100
0001
1000
0010
1000
0100
1000
0001
0100
0001
1000
0001
0010
0100
,
0010
0001
1000
0100
1000
0010
1000
0001
0010
0001
1000
0001
0010
0100
0010
0001
1000
0100
1000
0010
1000
0001
0010
0001
,
1000
0010
0100
0001
1000
0010
1000
0100
1000
0001
0100
0010
0100
0001
1000
0100
1000
0010
1000
0001
0010
0001
1000
0100
,
1000
0001
0100
0001
0100
0010
1000
0010
1000
0001
1000
0001
0010
0001
0010
0100
,
0010
0100
1000
0100
1000
0001
1000
0001
0100
0001
0100
0010
0100
0010
1000
0001
,
1000
0010
0100
0010
1000
0001
0100
0001
0010
0001
1000
0010
1000
0001
0010
0001
1000
0100
0010
0100
1000
0001
0010
0001
,
0100
0001
1000
0100
0010
0100
1000
0001
0010
0100
0010
0001
1000
0010
1000
0100
1000
0001
0100
0001
1000
0100
0010
0100
,
1000
0000
0000
0000
1000
0000
0000
0000
0001
0000
0010
0000
0100
0000
0000
0000
0100
0000
1000
0100
1000
0010
1000
0001
,
0010
0100
0010
0001
1000
0100
1000
0010
1000
0001
0100
0010
0100
0001
1000
0010
0100
0001
1000
0010
1000
0100
1000
0001
,
0100
0001
1000
0010
0100
0001
1000
0100
0010
0001
0010
0100
1000
0001
0010
0100
,
1000
0001
0100
0010
1000
0001
0100
0010
1000
0001
0100
0001
1000
0100
1000
0001
,
0010
0100
0010
0001
1000
0100
1000
0010
1000
0001
0010
0100
0010
0001
1000
0100
1000
0010
1000
0001
0100
0010
0100
0001
,
1000
0000
0000
0010
0000
0000
1000
0000
0000
0001
0000
0000
1000
0000
0000
0100
0000
0000
0010
0000
0000
0001
0000
0000
0010
0000
0000
0100
0000
0000
1000
0000
0000
0001
0000
0000
0010
0000
0001
0000
0100
0000
0001
0000
1000
0000
0100
0000
,
0010
0100
1000
0001
0010
0001
0100
0001
1000
0100
1000
0001
0100
0010
0100
0001
1000
0010
1000
0100
1000
0001
0100
0010
,
0100
0001
1000
0100
1000
0010
1000
0001
0010
0100
0010
0001
2000
0000
0000
0000
0000
0000
0000
0000
0000
0000
0000
0000
,
3100
1000
0001
0100
0010
1000
0020
0000
0000
0000
0000
0000
,
1030
0000
0000
0000
0000
0000
0000
0000
0000
0000
0000
0000
0000
0000
0000
0000
0001
0000
0000
0000
0000
0000
0000
0000
0000
0000
0000
0000
0000
0000
0000
0000
0010
0000
0000
0000
0000
0000
0000
0000
0000
0000
0000
0000
0000
0000
0000
0000
0100
0000
0000
0000
0000
0000
0000
0000
0000
0000
0000
0000
0000
0000
0000
0000
1000
0000
0000
0000
0000
0000
0000
0000
0000
0000
0000
0000
0000
0000
0000
0000
0001
0000
0000
0000
0000
0000
0000
0000
0000
0000
0000
0000
0000
0000
0000
0000
0200
0000
0000
0000
0000
0000
0000
0000
0000
0000
0000
0000
0000
0000
0000
0000
0000
0000
0000
0000
0000
0000
0000
0000
0000
0000
0000
0000
0000
0000
0300
0000
0020
0000
0000
0000
2000
0000
0000
0000
0000
0000
0000
0000
0000
0000
0000
0000
0000
0000
0000
0000
0000
0000
0000
0000
0000
0000
0000
0000
0000
0000
0000
0000
0000
0000
0000
0000
0000
0000
0000
0000
3000
0000
0000
0000
0000
0000
0000
0000
0000
0000
0000
0000
0000
0000
0000
0000
0030
0000
0000
0000
0000
0000
0000
0000
,
1000
0100
0010
0001
0010
0100
2000
0000
0000
0000
0000
0000
,
3020
0000
0230
0000
0302
0000
2003
0000
0000
0000
0000
0000
,
3100
0010
0001
1000
0010
0100
0002
0000
0000
0000
0000
0000
,
1003
0000
0000
0000
0100
0000
0000
0000
1000
0000
0000
0000
0001
0000
0000
0000
0100
0000
0000
0000
0010
0000
0000
0000
2000
0000
0000
0000
0000
0000
0000
0000
3200
0020
0000
0000
0000
0000
0000
0000
0000
0000
0030
0000
0000
0000
0300
0000
,
0010
0000
0001
0000
1000
0000
0010
0000
0100
0000
0001
0000
2000
0000
0000
0000
0000
0000
0000
0000
0000
3100
0010
0001
,
1000
0100
1000
0010
1000
0001
0100
0001
1000
0100
0010
0100
2000
0000
0000
0000
0000
0000
0000
0000
0000
0000
0000
0000
,
3001
0010
0001
0100
0010
1000
0020
0000
0000
0000
0000
0000
,
1030
0000
0000
0000
0001
0000
0000
0000
0010
0000
0000
0000
0100
0000
0000
0000
1000
0000
0000
0000
0100
0000
0000
0000
0020
0000
0000
0000
0000
0000
0000
0000
0032
0200
0000
0000
0000
0000
0000
0000
0000
0000
0300
0000
0003
0000
0000
0000
,
0100
0000
0010
0000
1000
0000
0001
0000
0010
0000
0100
0000
2000
0000
0000
0000
0000
0000
0000
0000
0000
3000
0000
0000
,
2200
3300
0220
0330
0022
0033
0202
0000
0000
0000
0303
0000
,
1000
0010
1000
0001
0100
0010
2000
0000
0000
0000
0000
0000
,
3001
0000
0000
0000
0100
0000
0000
0000
0001
0000
0000
0000
0010
0000
0000
0000
0100
0000
0000
0000
1000
0000
0000
0000
0002
0000
0000
0000
0000
0000
0000
0000
0023
0200
0000
0000
0000
0000
0000
0000
0000
0000
0300
0000
0030
0000
0000
0000
,
0100
0000
1000
0000
0001
0000
0100
0000
0010
0000
1000
0000
0020
0000
0000
0000
0000
0000
0000
0000
0000
0130
0001
1000
,
0010
1000
0100
1000
0001
0010
0100
0010
0001
1000
0001
0100
0020
0000
0000
0000
0000
0000
0000
0000
0000
0000
0000
0000
,
0130
0000
0000
0001
1000
0100
0010
0000
0002
0000
0000
0000
,
0013
0000
0000
0100
1000
0001
1000
0000
0020
0000
0000
0000
,
0130
0001
1000
0010
0000
0000
0100
0001
1000
0100
0000
0000
,
0022
0000
0000
0000
0000
0000
0033
0000
0000
1000
0001
0100
,
0020
0000
2030
3200
,
1300
0001
0100
0001
0010
0001
1000
0010
1000
0001
0010
0001
1000
0100
1000
0010
1000
0001
0010
0001
1000
0100
0010
0001
,
1000
0000
0002
0000
2003
0000
3200
0000
0320
0000
0032
0000
,
2003
0000
0000
0000
3010
0100
0002
0000
0000
0000
0000
0000
,
0003
0000
2000
0000
3002
0000
0023
0000
0230
0000
0320
0000
,
0032
0000
0203
0000
,
0320
0000
2030
0000
,
3200
0000
0320
0000
0230
0000
2300
0000
0000
0000
0000
0000
,
3020
0000
0000
0000
0000
0000
0130
0001
1000
0100
0000
0000
,
0011
0000
0000
0110
0000
0000
1100
0000
0000
1000
0001
0100
,
0010
1000
0001
0010
0100
0010
0002
0000
0000
0000
0000
0000
,
1003
0010
0100
0001
0100
0010
2000
0000
0000
0000
0000
0000
,
3001
1000
0010
1000
0001
0010
0100
1000
0001
0100
0010
1000
,
0001
0100
0010
1000
0100
0010
0002
0000
0000
0000
0000
0000
,
1003
0001
0010
0001
1000
0100
0010
0100
1000
0001
0100
0010
,
1000
0001
0100
0010
1000
0001
0010
0100
1000
0100
0010
0001
,
1000
0010
1000
0100
1000
0001
0010
0001
1000
0100
0010
0100
1000
0001
1000
0010
0100
0010
1000
0001
0100
0001
0010
0001
,
1000
0010
1000
0001
0100
0010
0100
0001
1000
0001
0010
0001
1000
0000
0000
0000
0000
0000
0001
0000
0000
0000
0000
0000
,
1000
0100
0010
0100
1000
0001
0100
0010
2000
0000
0000
0000
3000
0000
0000
0000
,
0022
0033
0220
0000
,
0000
0000
0000
0000
0000
0000
0000
0000
0000
0330
0000
0000
1000
0000
0001
0000
0100
0000
0010
0000
1000
0000
0100
0000
,
0020
0030
0000
0000
;

//---------------dance-single - Mad Matt----------------
#NOTES:
     dance-single:
     Mad Matt:
     Challenge:
     18:
     1.000,1.000,0.065,0.887,1.000,1876.000,16.000,219.000,0.000,0.000:

0000
0000
0000
0000
0000
0000
0000
0000
0000
1000
0100
0010
,
0001
0100
0010
1000
0010
0100
0002
0000
0000
0000
0000
0000
,
1003
0100
0010
0001
0010
0100
2000
0000
0000
0000
0000
0000
,
3100
1000
0001
0100
0010
0100
0001
1000
0100
0010
0001
0010
,
0100
1000
0010
0100
0010
1000
0002
0000
0000
0000
0000
0000
,
1003
0001
0100
0001
1000
0010
1000
0100
1000
0001
0100
0001
,
1000
0010
1000
0100
1000
0001
0100
0001
0010
0100
0010
0001
,
1000
0100
1000
0010
0100
0001
0100
0010
1000
0100
0010
0001
0100
0001
1000
0100
0010
0001
0100
0001
1000
0100
1000
0010
,
0100
0001
1000
0001
0010
0100
0010
0001
0100
0010
0100
0001
2000
0000
0000
0000
0000
0000
3001
0000
0010
0000
0100
0000
,
0010
0001
1000
0010
1000
0001
0200
0000
0000
0000
0300
0001
,
0020
0000
0000
0000
0000
0000
0000
0000
0000
0000
0000
0000
0000
0000
0000
0000
0000
0000
0000
0000
0000
0000
0000
0000
0000
0000
0000
0000
0000
0000
0000
0000
0032
0003
0000
0000
0000
0000
0000
0000
0000
0000
0000
0000
0000
0000
0000
0000
0000
0000
0000
0000
0000
0000
0000
0000
0000
0000
0000
0000
0000
0000
0000
0000
0000
0000
0000
0000
0000
0000
0000
0000
0000
0000
0000
0000
0000
0000
0000
0000
0020
0030
0000
0000
0000
0000
0000
0000
0000
0000
0000
0000
0000
0000
0000
0000
0000
0000
0000
0000
0000
0000
0000
0000
0000
0000
0000
0000
0000
0000
0000
0000
0000
0000
0000
0000
0000
0000
0000
0000
0000
0000
0000
0000
0000
0000
0000
0000
0200
0300
0000
0000
0000
0000
0000
0000
0000
0000
0000
0000
0000
0000
0000
0000
0000
0000
0000
0000
0000
0000
0000
0000
0000
0000
0000
0000
0000
0000
0000
0000
0000
0000
0000
0000
0000
0000
0000
0000
0000
0000
0000
0000
0000
0000
0000
0000
1000
0000
0000
0000
0000
0000
0000
0000
0000
0000
0000
0000
0000
0000
0000
0000
,
0001
0100
0010
1000
0010
0100
0002
0000
0000
0000
1003
0001
,
0010
0000
0100
0000
0010
0000
0001
0000
1000
0000
0010
0000
0100
0001
0100
0000
0010
0000
1000
0000
0100
0000
0010
0000
,
0002
0000
0000
1003
0100
1000
0002
0000
0000
0103
0010
0100
,
0001
0000
1000
0000
0100
0000
0010
0000
0100
0000
1000
0000
0001
0000
0100
0000
0010
0000
1000
0001
1000
0000
0010
0000
,
0200
0000
0000
0301
0010
0100
0020
0000
0000
0130
1000
0001
,
2000
0000
0000
3001
0100
0001
2000
0000
0000
0000
0000
0000
,
3001
0100
0010
1000
0001
0010
0200
0000
0000
0000
0300
0010
,
0002
0000
0000
0000
0000
0000
0000
0000
0000
0000
0000
0000
0000
0000
0000
0000
0000
0000
0000
0000
0000
0000
0000
0000
0000
0000
0000
0000
0000
0000
0000
0000
0203
0300
0000
0000
0000
0000
0000
0000
0000
0000
0000
0000
0000
0000
0000
0000
0000
0000
0000
0000
0000
0000
0000
0000
0000
0000
0000
0000
0000
0000
0000
0000
0000
0000
0000
0000
0000
0000
0000
0000
0000
0000
0000
0000
0000
0000
0000
0000
0020
0030
0000
0000
0000
0000
0000
0000
0000
0000
0000
0000
0000
0000
0000
0000
0000
0000
0000
0000
0000
0000
0000
0000
0000
0000
0000
0000
0000
0000
0000
0000
0000
0000
0000
0000
0000
0000
0000
0000
0000
0000
0000
0000
0000
0000
0000
0000
2000
3000
0000
0000
0000
0000
0000
0000
0000
0000
0000
0000
0000
0000
0000
0000
0000
0000
0000
0000
0000
0000
0000
0000
0000
0000
0000
0000
0000
0000
0000
0000
0000
0000
0000
0000
0000
0000
0000
0000
0000
0000
0000
0000
0000
0000
0000
0000
0001
0000
0000
0000
0000
0000
0000
0000
0000
0000
0000
0000
0000
0000
0000
0000
,
0010
0001
1000
0010
0100
0001
2000
0000
0000
0000
3100
0010
,
0001
0000
1000
0000
0010
0000
0100
0000
0001
0000
1000
0000
0100
0010
0100
0000
1000
0000
0001
0000
0100
0000
0010
0000
,
2000
0000
0000
3001
0100
0010
0200
0000
0000
0310
1000
0010
,
0100
0000
0001
0000
0100
0000
0010
0000
1000
0000
0010
0000
0100
0000
0001
0000
1000
0000
0100
0010
0100
0000
1000
0000
,
0002
0000
0000
0000
0000
0000
0103
0010
1000
0100
1000
0001
,
0200
0000
0000
0000
,
0301
0000
0000
1000
0010
0100
0001
0000
2000
0000
0000
0000
,
3100
0000
0000
0010
0001
1000
0010
0000
0200
0000
0000
0000
,
0301
1000
0100
0010
0000
0000
0001
1000
0010
0100
0000
0000
,
0202
0000
0000
0000
0000
0000
0303
0000
0000
1000
0100
0010
,
0002
0000
2003
3020
,
1030
0001
0010
0100
1000
0010
1000
0001
0010
0001
0100
0010
1000
0001
0010
0001
1000
0010
1000
0100
0010
0100
1000
0010
,
0100
0000
0002
0000
2003
0000
3200
0000
0320
0000
0230
0000
,
2300
0000
0000
0000
3010
0100
0002
0000
0000
0000
0000
0000
,
0003
0000
2000
0000
3020
0000
0230
0000
0302
0000
2003
0000
,
3200
0000
2300
0000
,
3002
0000
0203
0000
,
0320
0000
2030
0000
3002
0000
0023
0000
0000
0000
0030
0000
,
0200
0000
0000
0000
0000
0000
1300
0010
0100
0001
0000
0000
,
0101
0000
0000
0110
0000
0000
1010
0000
0000
0001
0010
0100
,
1000
0010
0100
0001
0100
0010
2000
0000
0000
0000
0000
0000
,
3001
0010
0100
1000
0100
0010
0002
0000
0000
0000
0000
0000
,
0013
0001
1000
0010
0100
0010
1000
0001
0010
0100
1000
0100
,
0010
0001
0100
0010
0100
0001
2000
0000
0000
0000
0000
0000
,
3001
1000
0010
1000
0001
0100
0001
0010
0001
1000
0010
1000
,
0001
0100
0001
0010
0001
1000
0010
1000
0100
0010
0100
1000
,
0001
0100
0001
0010
0100
1000
0100
0010
0001
0100
0010
1000
0100
1000
0001
0100
0010
1000
0100
1000
0001
0100
0001
0010
,
0100
1000
0001
1000
0010
0100
0010
1000
0100
0010
0100
1000
0002
0000
0000
0000
0000
0000
1003
0000
0100
0000
0010
0000
,
0100
1000
0001
0100
0001
1000
0020
0000
0000
0000
0030
0100
,
0002
0000
0000
0000
0000
0000
0000
0000
0000
0000
0000
0000
0000
0000
0000
0000
0000
0000
0000
0000
0000
0000
0000
0000
0000
0000
0000
0000
0000
0000
0000
0000
2003
3000
0000
0000
0000
0000
0000
0000
0000
0000
0000
0000
0000
0000
0000
0000
0000
0000
0000
0000
0000
0000
0000
0000
0000
0000
0000
0000
0000
0000
0000
0000
0000
0000
0000
0000
0000
0000
0000
0000
0000
0000
0000
0000
0000
0000
0000
0000
0020
0030
0000
0000
0000
0000
0000
0000
0000
0000
0000
0000
0000
0000
0000
0000
0000
0000
0000
0000
0000
0000
0000
0000
0000
0000
0000
0000
0000
0000
0000
0000
0000
0000
0000
0000
0000
0000
0000
0000
0000
0000
0000
0000
0000
0000
0000
0000
0200
0300
0000
0000
0000
0000
0000
0000
0000
0000
0000
0000
0000
0000
0000
0000
0000
0000
0000
0000
0000
0000
0000
0000
0000
0000
0000
0000
0000
0000
0000
0000
0000
0000
0000
0000
0000
0000
0000
0000
0000
0000
0000
0000
0000
0000
0000
0000
0001
0000
0000
0000
0000
0000
0000
0000
0000
0000
0000
0000
0000
0000
0000
0000
,
1000
0010
0100
0001
0100
0010
2000
0000
0000
0000
3100
0010
,
0001
0000
0100
0000
0010
0000
1000
0000
0001
0000
0010
0000
0100
1000
0100
0000
0010
0000
0001
0000
0100
0000
0010
0000
,
2000
0000
0000
3001
0010
0100
0020
0000
0000
0130
1000
0100
,
0010
0000
0001
0000
0100
0000
0010
0000
0100
0000
0001
0000
1000
0000
0100
0000
0010
0000
0001
1000
0001
0000
0100
0000
,
0020
0000
0000
1030
0100
1000
0002
0000
0000
1003
0100
1000
,
0020
0000
0000
1030
0100
0010
0200
0000
0000
0000
0000
0000
,
1300
0100
0010
0001
1000
0010
0200
0000
0000
0000
0300
0010
,
2000
0000
0000
0000
0000
0000
0000
0000
0000
0000
0000
0000
0000
0000
0000
0000
0000
0000
0000
0000
0000
0000
0000
0000
0000
0000
0000
0000
0000
0000
0000
0000
3200
0300
0000
0000
0000
0000
0000
0000
0000
0000
0000
0000
0000
0000
0000
0000
0000
0000
0000
0000
0000
0000
0000
0000
0000
0000
0000
0000
0000
0000
0000
0000
0000
0000
0000
0000
0000
0000
0000
0000
0000
0000
0000
0000
0000
0000
0000
0000
0020
0030
0000
0000
0000
0000
0000
0000
0000
0000
0000
0000
0000
0000
0000
0000
0000
0000
0000
0000
0000
0000
0000
0000
0000
0000
0000
0000
0000
0000
0000
0000
0000
0000
0000
0000
0000
0000
0000
0000
0000
0000
0000
0000
0000
0000
0000
0000
0002
0003
0000
0000
0000
0000
0000
0000
0000
0000
0000
0000
0000
0000
0000
0000
0000
0000
0000
0000
0000
0000
0000
0000
0000
0000
0000
0000
0000
0000
0000
0000
0000
0000
0000
0000
0000
0000
0000
0000
0000
0000
0000
0000
0000
0000
0000
0000
1000
0000
0000
0000
0000
0000
0000
0000
0000
0000
0000
0000
0000
0000
0000
0000
,
0010
1000
0001
0010
0100
1000
0002
0000
0000
0000
0013
0100
,
1000
0000
0001
0000
0100
0000
0010
0000
1000
0000
0001
0000
0010
0100
0010
0000
0001
0000
1000
0000
0010
0000
0100
0000
,
0002
0000
0000
1003
0001
1000
0200
0000
0000
0310
0001
0010
,
0100
0000
1000
0000
0010
0000
0100
0000
0001
0000
0100
0000
0010
0000
1000
0000
0001
0000
0010
0100
0010
0000
0001
0000
,
2000
0000
0000
0000
0000
0000
3001
0100
0010
0100
0001
1000
,
0200
0000
0000
0000
,
2300
0000
0000
0000
0000
0000
0000
0000
0000
0000
0000
0000
0000
0000
0000
0000
0000
0000
3010
0100
0001
0010
0001
1000
,
0020
0000
0000
0000
0000
0000
0000
0000
2030
0000
3020
0000
,
0230
0000
0000
0000
0302
0000
0000
0000
2003
0000
0000
0000
3200
0000
0000
0000
0320
0000
0000
0000
0031
0000
1000
0100
,
1000
0010
0100
0001
1000
0100
0010
0001
0100
0001
1000
0100
0010
0100
1000
0010
1000
0001
0100
0010
1000
0100
1000
0001
,
0100
0010
0100
0001
0010
0100
1000
0010
1000
0001
0010
0100
0010
0001
1000
0010
1000
0100
0010
0001
0100
0010
1000
0100
,
1000
0000
0001
0000
0100
0000
0010
0000
1000
0000
0100
0000
1000
0000
0000
0001
0000
0000
0010
0000
0000
0001
0000
0000
1000
0000
0000
0100
0000
0000
0010
0000
0000
0001
0000
0000
1000
0000
0000
0010
0000
0000
0100
0000
0001
0000
0010
0000
,
0001
1000
0100
1000
0010
0100
0001
1000
0100
0010
0100
1000
0001
0100
0010
1000
,
0100
0000
0000
0010
0000
0000
0001
0000
0100
0000
0010
0000
1000
0000
0000
0100
0000
0000
0010
0000
0001
0000
1000
0000
0010
0000
0000
0100
0000
0000
0001
0000
1000
0000
0100
0000
0010
0000
0000
0001
0000
0000
0100
0000
0000
0010
0000
0000
,
1000
0000
0000
0001
0000
0000
0100
0000
0010
0000
1000
0000
0001
0000
0010
0000
0100
0000
0010
0000
0001
0000
0100
0000
0010
0000
1000
0000
0100
0000
0010
0000
0100
0000
1000
0000
0010
0000
0100
0000
0001
0000
1000
0000
0100
0000
0010
0000
,
0001
1000
0100
0010
0001
0010
0100
1000
0001
0100
0001
1000
0010
1000
0001
0100
,
0001
0100
0010
0100
0001
0010
0100
1000
0001
0100
0001
0010
0100
1000
0010
0100
0010
1000
0001
0010
0100
1000
0010
0100
,
0001
1000
0100
1000
0001
0100
0001
1000
0010
1000
0001
0010
0001
1000
0100
1000
,
0001
0000
0000
0100
0000
0000
0001
0000
0000
1000
0000
0000
0010
0000
0100
0000
0001
0000
1000
0000
0100
0000
0010
0000
0001
0000
0000
1000
0000
0000
0010
0000
0000
1000
0000
0000
0001
0000
0000
0010
0000
0000
0100
0000
0000
1000
0000
0000
,
0001
0000
0000
0010
0000
0000
0001
0000
0000
1000
0000
0000
0010
0000
0000
1000
0000
0000
0001
0000
0000
0100
0000
0000
0001
0000
1000
0000
0010
0000
1000
0000
0100
0000
0010
0000
0100
0000
0000
1000
0000
0000
0001
0000
0000
0100
0000
0000
,
0010
0000
0000
1000
0000
0000
0001
0000
0000
0100
0000
0000
0010
0000
0000
1000
0000
0000
0001
0000
0000
0010
0000
0000
0100
0000
0000
1000
0000
0000
0001
0000
0000
0010
0000
0000
0100
0000
0000
1000
0000
0000
0001
0000
0100
0000
0010
0000
,
1000
0000
0000
0000
0000
0000
0000
0000
0000
0000
0000
0000
0001
0000
0000
0000
0010
0000
0000
0000
0001
0000
0000
0000
1000
0000
0000
0000
0010
0000
0000
0000
0100
0000
0000
0000
0001
0000
0000
0010
0000
0000
0100
0000
0000
1000
0000
0000
,
0002
0000
0003
0000
0000
0000
0020
0000
0030
0000
0000
0000
0200
0000
0300
0000
0000
0000
2000
0000
3000
0000
0000
0000
0002
0000
0003
0000
0000
0000
0200
0000
0300
0000
0000
0000
0010
0000
0000
1000
0000
0000
0001
0000
0100
0000
0010
0000
,
1000
0100
0010
0100
1000
0001
0100
0010
1000
0001
1000
0100
1000
0001
0010
0100
,
1000
0000
0010
0000
0100
0000
0001
0000
0000
1000
0000
0000
0100
0000
0000
0010
0000
0000
0100
0000
0000
1000
0000
0000
0010
0000
0000
0100
0000
0000
0001
0000
0000
0010
0000
0000
0100
0000
0000
1000
0000
0000
0001
0000
0000
0100
0000
0000
,
0010
1000
0001
1000
0100
1000
0001
0100
0010
1000
0001
0100
0010
1000
0001
0010
,
0100
0000
0000
0010
0000
0000
0001
0000
0000
1000
0000
0000
0010
0000
1000
0000
0001
0000
0010
0000
0100
0000
0010
0000
0001
0000
1000
0000
0010
0000
0100
0000
0001
0000
1000
0000
0100
0000
0000
0010
0000
0000
0100
0000
0000
1000
0000
0000
,
0100
0010
0001
1000
0010
0100
0001
1000
0100
1000
0001
0010
,
0100
0000
0000
1000
0000
0000
0001
0000
0000
1000
0000
0000
0010
0000
0000
0100
0000
0000
0001
0000
0000
1000
0000
0000
0001
0000
0100
0000
0010
0000
0100
0000
0001
0000
0010
0000
0100
0000
1000
0000
0010
0000
1000
0000
0001
0000
0010
0000
,
0100
0010
0001
1000
0010
1000
0100
0010
0001
0100
0001
1000
0100
0010
0100
1000
0010
0100
0001
1000
0100
1000
0001
0100
,
0010
0000
1000
0000
0001
0000
0010
0000
0100
0000
0010
0000
0001
0000
0000
1000
0000
0000
0100
0000
0000
0010
0000
0000
0001
0000
0000
0100
0000
0000
0001
0000
0000
1000
0000
0000
0100
0000
0000
0000
1000
0000
0000
0000
0010
0000
0000
0000
,
0100
0001
1000
0100
0010
0001
1000
0100
1000
0001
0100
0001
1000
0100
0010
0001
,
0010
0100
1000
0001
0010
0100
1000
0001
0100
0010
1000
0001
1000
0010
0100
0001
,
1000
0100
1000
0100
0010
0001
0010
0001
1000
0010
1000
0010
0100
0001
0100
0001
,
1000
0100
1000
0100
0010
0100
0010
0001
0010
0001
1000
0001
1000
0010
1000
0010
,
0100
0001
1000
0001
0100
0001
1000
0001
0010
0001
1000
0100
1000
0010
1000
0001
,
1000
0010
0100
0001
1000
0001
0010
0001
1000
0100
0010
0001
0010
0100
1000
0001
,
0010
0100
0010
0001
1000
0100
0010
0001
1000
0010
0100
0001
1000
0100
0010
0001
,
1000
0000
0100
0000
0010
0000
0001
0000
0100
0000
0010
0000
2000
0000
0000
0000
0000
0000
3001
0010
0001
1000
0010
1000
,
0200
2300
3020
0230
,
0302
2003
0000
3200
,
0310
0001
0010
0100
1000
0001
0200
0000
0000
0320
0000
0000
,
2030
0000
0000
0000
,
3001
0010
0100
1000
0001
0010
0400
0000
0000
0000
0000
0300
,
0020
0000
0032
0000
0000
0000
0000
0000
0000
0203
0000
0000
,
0320
0000
2030
0000
3020
0000
0230
0000
0000
0000
0301
1000
,
0200
0000
0320
0000
0032
0000
0000
0000
0000
0023
0000
0000
,
0130
0000
1000
0000
0002
0000
0000
0000
0000
0000
0003
0000
1000
0000
0000
0000
0001
0010
0100
1000
0010
0100
0010
1000
,
0002
0000
0000
0000
0000
0000
0000
0000
0203
0000
0000
0000
0000
0000
0000
0000
0320
0000
0000
0000
0000
0000
0000
0000
1030
0000
0000
0001
0000
0000
0010
0000
0000
0001
0000
0000
1000
0000
0000
0010
0000
0000
0100
0000
0000
0001
0000
0000
,
1000
0100
0010
0100
1000
0001
0100
0010
1000
0001
0010
0100
,
2000
0000
3002
0000
0203
0000
0000
0000
0000
0000
0000
0000
,
0300
0000
0020
0000
2030
0000
3002
0000
0023
0000
0230
0000
,
2300
0000
0000
0000
0000
0000
0000
0000
0000
0001
3010
0001
0200
0000
0000
0000
0000
0000
0000
0000
0000
0000
0000
0000
,
0300
0000
0002
0000
2003
0000
3200
0000
2300
0000
3020
0000
,
2030
0000
3200
0000
,
0320
0000
0032
0000
,
2003
0000
3020
0000
0230
0000
0302
0000
0000
0000
0000
0000
,
2003
0000
0000
0000
0000
0000
3100
0010
0001
2000
0000
0000
,
3001
0100
0010
1000
0100
1000
0010
0100
0002
0000
0000
0000
0000
0000
0000
0000
,
4003
0000
0000
0000
0000
0000
0000
0000
0000
0000
0000
0000
3001
0010
0001
1000
0010
0100
0010
1000
0100
0010
0100
1000
,
0001
0100
0010
1000
0100
1000
0010
0100
0010
1000
0001
0010
0100
0010
0001
0100
0001
1000
0100
1000
0010
0100
0001
1000
,
0040
0000
0000
0000
0000
0000
0000
0000
0000
0000
0000
0000
0130
0001
1000
0100
0010
0001
0100
0001
1000
0100
0010
0100
,
1000
0001
0100
0010
1000
0100
1000
0001
0100
0010
0100
0001
0010
0100
1000
0010
1000
0001
0010
0100
0010
0001
0100
0010
,
1000
0001
0010
0100
0010
0001
1000
0010
1000
0100
1000
0001
0100
0010
1000
0100
0010
0100
1000
0001
0100
0001
0010
0100
,
1000
0001
0100
0001
0010
0100
0010
0001
1000
0010
1000
0100
1000
0001
0100
0010
1000
0100
1000
0001
0010
0001
0100
0010
,
1000
0001
0100
0001
0100
0010
1000
0010
1000
0001
1000
0001
0010
0001
0010
0100
,
0010
0100
1000
0100
1000
0001
1000
0001
0100
0001
0100
0010
0100
0010
1000
0001
,
1000
0100
0010
0100
1000
0010
0100
0001
1000
0100
1000
0001
0100
0001
0010
0100
1000
0001
0100
0001
0010
0100
0010
0001
,
1000
0010
0100
0001
0010
0100
0010
0001
1000
0010
0100
0001
1000
0100
0010
0100
1000
0001
0100
0001
0010
0100
1000
0001
,
0100
0000
0000
0000
0100
0000
0000
0000
0001
0000
0010
0000
0100
0000
0000
0000
0100
0000
1000
0100
1000
0010
0100
0001
,
0010
0100
0010
0001
1000
0010
0100
0001
0010
0100
0010
0001
0100
0001
1000
0100
0010
0001
1000
0010
1000
0100
0010
0100
,
1000
0001
1000
0010
0100
0001
1000
0100
0010
0001
0010
0100
1000
0001
0010
0100
,
1000
0001
0100
0010
1000
0001
0100
0010
1000
0001
0100
0001
1000
0100
1000
0001
,
0010
0100
0010
0001
0100
0010
1000
0001
0010
0001
1000
0010
0100
0001
0010
0100
0010
0001
1000
0010
1000
0100
0010
0001
,
1000
0000
0000
0010
0000
0000
1000
0000
0000
0001
0000
0000
1000
0000
0000
0100
0000
0000
0010
0000
0000
0001
0000
0000
0010
0000
0000
0100
0000
0000
1000
0000
0000
0001
0000
0000
0010
0000
0001
0000
1000
0000
0010
0000
1000
0000
0100
0000
,
0010
0100
1000
0001
1000
0010
0100
0001
1000
0100
1000
0010
0100
0001
1000
0100
0010
0100
1000
0010
1000
0001
0010
0100
,
1000
0010
1000
0001
0010
0100
0010
0001
0100
0010
1000
0001
2000
0000
0000
0000
0000
0000
0000
0000
0000
0000
0000
0000
,
3100
1000
0001
0100
0010
1000
0020
0000
0000
0000
0000
0000
,
1030
0000
0000
0000
0000
0000
0000
0000
0000
0000
0000
0000
0000
0000
0000
0000
0001
0000
0000
0000
0000
0000
0000
0000
0000
0000
0000
0000
0000
0000
0000
0000
0010
0000
0000
0000
0000
0000
0000
0000
0000
0000
0000
0000
0000
0000
0000
0000
0100
0000
0000
0000
0000
0000
0000
0000
0000
0000
0000
0000
0000
0000
0000
0000
1000
0000
0000
0000
0000
0000
0000
0000
0000
0000
0000
0000
0000
0000
0000
0000
0001
0000
0000
0000
0000
0000
0000
0000
0000
0000
0000
0000
0000
0000
0000
0000
0200
0000
0000
0000
0000
0000
0000
0000
0000
0000
0000
0000
0000
0000
0000
0000
0000
0000
0000
0000
0000
0000
0000
0000
0000
0000
0000
0000
0000
0000
0300
0000
0020
0000
0000
0000
2000
0000
0000
0000
0000
0000
0000
0000
0000
0000
0000
0000
0000
0000
0000
0000
0000
0000
0000
0000
0000
0000
0000
0000
0000
0000
0000
0000
0000
0000
0000
0000
0000
0000
0000
0000
3000
0000
0000
0000
0000
0000
0000
0000
0000
0000
0000
0000
0000
0000
0000
0000
0030
0000
0000
0000
0000
0000
0000
0000
,
1000
0100
0010
0001
0010
0100
2000
0000
0000
0000
0000
0000
,
3020
0000
0230
0000
0302
0000
2003
0000
0000
0000
0000
0000
,
3100
0010
0001
1000
0010
0100
0002
0000
0000
0000
0000
0000
,
1003
0000
0000
0000
0100
0000
0000
0000
1000
0000
0000
0000
0001
0000
0000
0000
0100
0000
0000
0000
0010
0000
0000
0000
2000
0000
0000
0000
0000
0000
0000
0000
3200
0020
0000
0000
0000
0000
0000
0000
0000
0000
0030
0000
0000
0000
0300
0000
,
0010
0000
0001
0000
1000
0000
0010
0000
0100
0000
0001
0000
2000
0000
0000
0000
0000
0000
0000
0000
0000
3100
0010
0100
,
1000
0010
0100
0001
1000
0100
0010
0100
1000
0010
0100
0001
2000
0000
0000
0000
0000
0000
0000
0000
0000
0000
0000
0000
,
3001
0010
0001
0100
0010
1000
0020
0000
0000
0000
0000
0000
,
1030
0000
0000
0000
0001
0000
0000
0000
0010
0000
0000
0000
0100
0000
0000
0000
1000
0000
0000
0000
0100
0000
0000
0000
0020
0000
0000
0000
0000
0000
0000
0000
0032
0200
0000
0000
0000
0000
0000
0000
0000
0000
0300
0000
0003
0000
0000
0000
,
0100
0000
0010
0000
1000
0000
0001
0000
0010
0000
0100
0000
2000
0000
0000
0000
0000
0000
0000
0000
0000
3000
0000
0000
,
2200
3300
0220
0330
0022
0033
0202
0000
0000
0000
0303
0000
,
1000
0010
1000
0001
0100
0010
2000
0000
0000
0000
0000
0000
,
3001
0000
0000
0000
0100
0000
0000
0000
0001
0000
0000
0000
0010
0000
0000
0000
0100
0000
0000
0000
1000
0000
0000
0000
0002
0000
0000
0000
0000
0000
0000
0000
0023
0200
0000
0000
0000
0000
0000
0000
0000
0000
0300
0000
0030
0000
0000
0000
,
0100
0000
1000
0000
0001
0000
0100
0000
0010
0000
1000
0000
0020
0000
0000
0000
0000
0000
0000
0000
0000
0130
0001
1000
,
0100
0010
0100
1000
0010
0100
0001
1000
0100
1000
0001
0100
0020
0000
0000
0000
0000
0000
0000
0000
0000
0000
0000
0000
,
0130
0000
0000
0001
1000
0100
0010
0000
0002
0000
0000
0000
,
0013
0000
0000
0100
1000
0001
1000
0000
0020
0000
0000
0000
,
0130
0001
1000
0010
0000
0000
0100
0001
1000
0100
0000
0000
,
0022
0000
0000
0000
0000
0000
0033
0000
0000
1000
0001
0100
,
0020
0000
2030
3200
,
1300
0001
0100
0010
1000
0100
1000
0001
0100
0001
0010
0100
1000
0001
0100
0001
1000
0100
1000
0010
0100
0010
1000
0100
,
1000
0000
0002
0000
2003
0000
3200
0000
0320
0000
0032
0000
,
2003
0000
0000
0000
3010
0100
0002
0000
0000
0000
0000
0000
,
0003
0000
2000
0000
3002
0000
0023
0000
0230
0000
0320
0000
,
0032
0000
0203
0000
,
0320
0000
2030
0000
,
3200
0000
0320
0000
0230
0000
2300
0000
0000
0000
0000
0000
,
3020
0000
0000
0000
0000
0000
0130
0001
1000
0100
0000
0000
,
0011
0000
0000
0110
0000
0000
1100
0000
0000
1000
0001
0100
,
0010
1000
0001
0010
0100
0010
0002
0000
0000
0000
0000
0000
,
1003
0010
0100
0001
0100
0010
2000
0000
0000
0000
0000
0000
,
3001
1000
0010
1000
0001
0010
0100
1000
0001
0100
0010
1000
,
0001
0100
0010
1000
0100
0010
0002
0000
0000
0000
0000
0000
,
1003
0001
0010
0001
1000
0100
0010
0100
1000
0001
0100
0010
,
1000
0001
0100
0010
1000
0001
0010
0100
1000
0100
0010
0001
,
1000
0010
1000
0100
0010
0001
0010
0100
1000
0010
0100
0001
0010
0001
1000
0010
0100
0001
0010
0001
1000
0010
1000
0100
,
0010
0001
1000
0001
0100
0010
0100
0001
0010
0100
0010
0001
1000
0000
0000
0000
0000
0000
0001
0000
0000
0000
0000
0000
,
1000
0100
0010
0100
1000
0001
0100
0010
2000
0000
0000
0000
3000
0000
0000
0000
,
0022
0033
0220
0000
,
0000
0000
0000
0000
0000
0000
0000
0000
0000
0330
0000
0000
1000
0000
0001
0000
0100
0000
0010
0000
1000
0000
0100
0000
,
0020
0030
0000
0000
;
