#TITLE:The Power of Underground;
#SUBTITLE:;
#ARTIST:DJ Sharpnel;
#TITLETRANSLIT:;
#SUBTITLETRANSLIT:;
#ARTISTTRANSLIT:;
#CREDIT:;
#BANNER:the power of banner.png;
#BACKGROUND:the power of background.png;
#LYRICSPATH:;
#CDTITLE:;
#MUSIC:Underground.ogg;
#OFFSET:-0.048;
#SAMPLESTART:217.260;
#SAMPLELENGTH:19.661;
#SELECTABLE:YES;
#DISPLAYBPM:195.000;
#BPMS:0.000=195.300,60.000=292.950,61.000=195.300,62.000=292.950,63.000=195.300,92.000=292.950,92.500=146.475,93.000=292.950,94.000=195.300,120.000=390.600,121.000=292.950,121.500=146.475,122.000=390.600,127.000=292.950,128.000=195.300,184.000=390.600,185.000=292.950,185.500=146.475,186.000=390.600,191.000=195.300,217.000=292.950,217.500=146.475,218.000=390.600,220.000=195.300,248.000=292.950,249.500=146.475,250.000=390.600,251.000=195.300,354.000=390.600,356.000=195.300,448.000=292.950,449.000=195.300,450.000=390.600,452.000=195.300,544.000=292.950,545.000=195.300,546.000=390.600,548.000=195.300,572.000=292.950,574.000=390.600,575.000=292.950,576.000=195.300,608.000=292.950,610.000=390.600,612.000=195.300,636.000=292.950,638.000=390.600,639.000=292.950,640.000=195.300;
#STOPS:60.000=0.102
,62.000=0.026
,62.250=0.025
,62.500=0.026
,62.750=0.025
,93.000=0.051
,93.500=0.051
,120.000=0.038
,120.250=0.039
,120.500=0.038
,120.750=0.039
,122.000=0.026
,122.167=0.025
,122.333=0.026
,122.500=0.025
,122.667=0.026
,122.833=0.025
,123.000=0.154
,124.000=0.153
,125.000=0.154
,126.000=0.026
,126.167=0.025
,126.333=0.026
,126.500=0.025
,126.667=0.026
,126.833=0.025
,127.000=0.051
,127.500=0.051
,184.000=0.038
,184.250=0.039
,184.500=0.038
,184.750=0.039
,186.000=0.026
,186.167=0.025
,186.333=0.026
,186.500=0.025
,186.667=0.026
,186.833=0.025
,187.000=0.154
,188.000=0.153
,189.000=0.154
,190.000=0.026
,190.167=0.025
,190.333=0.026
,190.500=0.025
,190.667=0.026
,190.833=0.026
,218.000=0.026
,218.167=0.025
,218.333=0.026
,218.500=0.025
,218.667=0.026
,218.833=0.025
,219.000=0.154
,248.000=0.026
,248.250=0.025
,248.500=0.026
,248.750=0.026
,250.000=0.026
,250.167=0.025
,250.333=0.026
,250.500=0.025
,250.667=0.026
,250.833=0.025
,354.000=0.026
,354.167=0.025
,354.333=0.026
,354.500=0.025
,354.667=0.026
,354.833=0.025
,355.000=0.154
,448.000=0.026
,448.250=0.025
,448.500=0.026
,448.750=0.025
,450.000=0.026
,450.167=0.025
,450.333=0.026
,450.500=0.025
,450.667=0.026
,450.833=0.026
,451.000=0.154
,544.000=0.026
,544.250=0.025
,544.500=0.026
,544.750=0.025
,546.000=0.026
,546.167=0.025
,546.333=0.026
,546.500=0.026
,546.667=0.026
,546.833=0.025
,547.000=0.026
,547.167=0.025
,547.333=0.026
,547.500=0.026
,547.667=0.026
,547.833=0.025
,572.000=0.102
,573.000=0.102
,574.000=0.025
,574.167=0.026
,574.333=0.025
,574.500=0.026
,574.667=0.025
,574.833=0.026
,575.000=0.035
,575.333=0.036
,575.667=0.035
,608.000=0.025
,608.250=0.026
,608.500=0.025
,608.750=0.026
,609.000=0.051
,609.500=0.051
,610.000=0.026
,610.167=0.025
,610.333=0.026
,610.500=0.025
,610.667=0.026
,610.833=0.025
,611.000=0.026
,611.167=0.025
,611.333=0.026
,611.500=0.025
,611.667=0.026
,611.833=0.025
,636.000=0.102
,637.000=0.102
,638.000=0.025
,638.167=0.026
,638.333=0.025
,638.500=0.026
,638.667=0.025
,638.833=0.026
,639.000=0.035
,639.333=0.035
,639.667=0.034
;
#BGCHANGES:;
// cache tags:
#FIRSTBEAT:0.000;
#LASTBEAT:872.000;
#SONGFILENAME:Songs/SHARPNELSTREAMZ v2/The Power of Underground/The Power of Underground.sm;
#HASMUSIC:1;
#HASBANNER:1;
#MUSICLENGTH:276.401;
// end cache tags

//---------------dance-single - 17- (Archi)----------------
#NOTES:
     dance-single:
     17- (Archi):
     Challenge:
     17:
     1.000,1.000,0.069,0.412,1.000,2934.000,19.000,114.000,8.000,0.000:
0001
0100
0010
1000
0100
1000
0001
0100
0010
0100
0001
1000
0100
1000
0001
1000
,
0001
0100
0010
1000
0100
1000
0001
0100
0010
0100
0001
1000
0100
1000
0001
1000
,
0001
0010
0100
1000
0010
1000
0001
0100
0010
0100
0001
1000
0100
1000
0001
1000
,
0001
0010
0100
1000
0010
1000
0001
0100
0010
0100
0001
1000
0100
1000
0001
1000
,
0001
0100
0010
1000
0100
1000
0001
0010
0100
0010
0001
1000
0010
1000
0001
1000
,
0001
0100
0010
1000
0100
1000
0001
0010
0100
0010
0001
1000
0010
1000
0001
1000
,
0001
0010
0100
1000
0010
1000
0001
0010
0100
0010
0001
1000
0010
1000
0001
1000
,
0200
0300
0000
0000
M00M
0000
0000
0000
0010
0000
0000
0000
0100
0000
0000
0000
1000
0000
0001
0000
0010
0000
0100
0000
1000
0000
0010
0000
0100
0000
0001
0000
,
1000
0001
0010
0100
0010
0100
1000
0001
1000
0001
0100
0010
0100
0010
1000
0001
,
0100
0001
0010
0100
0010
0100
1000
0001
1000
0001
0100
0010
0100
0010
1000
0001
,
0010
0001
0100
0010
0100
0010
1000
0001
1000
0001
0010
0100
0010
0100
1000
0001
,
0010
0001
0100
0010
0100
0010
1000
0001
1000
0001
0010
0100
0010
0100
1000
0001
,
0100
0001
0010
0100
0010
0100
1000
0001
1000
0001
0100
0010
0100
0010
1000
0001
,
0100
0001
0010
0100
0010
0100
1000
0001
1000
0001
0100
0010
0100
0010
1000
0001
,
0100
0010
0100
0010
1000
0010
1000
0010
0100
0001
0100
0001
0010
0100
0010
0100
,
2000
0000
0000
0000
0000
0000
3000
0000
0000
0000
0000
0000
0000
0000
0000
0000
0000
0000
0000
0000
0000
0000
0000
0000
0MM0
0000
0000
0000
0000
0000
0000
0000
0000
0000
0000
0000
0000
0000
0000
0000
0000
0000
0000
0000
0000
0000
0000
0000
0001
0000
0000
0000
0000
0000
0000
0000
0000
0000
0000
0000
1000
0000
0000
0000
0000
0000
0000
0000
0000
0000
0000
0000
0001
0000
0000
0000
0000
0000
0000
0000
0000
0000
0000
0000
1000
0000
0000
0000
0000
0000
0000
0000
0000
0000
0000
0000
0100
0000
0000
0000
0000
0000
0000
0000
1000
0000
0000
0000
0000
0000
0000
0000
0100
0000
0000
0000
0000
0000
0000
0000
1000
0000
0000
0000
0000
0000
0000
0000
0000
0000
0000
0000
0000
0000
0000
0000
0000
0000
0000
0000
0000
0000
0000
0000
0001
0000
0000
0000
0000
0000
0000
0000
0000
0000
0000
0000
0100
0000
0000
0000
0000
0000
0000
0000
0000
0000
0000
0000
0010
0000
0000
0000
0000
0000
0000
0000
0000
0000
0000
0000
1000
0000
0000
0000
0000
0000
0000
0000
0000
0000
0000
0000
,
0002
0000
1003
0010
0100
0010
1000
0000
0001
0100
0010
1000
0001
0000
1000
0010
,
0100
0000
0010
0100
0001
1000
0100
0000
0010
0001
0010
0100
1000
0001
0010
0001
,
2000
0000
3001
0010
0100
0010
0001
0000
1000
0100
0010
0001
1000
0000
0001
0010
,
0100
0000
0010
0001
1000
0010
0100
0000
0010
0100
0001
0010
0001
0100
0010
1000
,
0002
0000
1003
0100
0010
0100
1000
0000
0001
0010
0100
1000
0001
0000
1000
0100
,
0010
0000
0100
0010
0001
1000
0010
0000
0100
0001
0100
0010
1000
0001
0100
0001
,
2000
0000
3001
0100
0010
0100
0001
0000
1000
0010
0100
0001
1000
0000
0100
1000
,
0020
0000
0000
0000
0000
0000
0030
0000
0000
0000
0000
0000
0000
0000
0000
0000
0000
0000
0000
0000
0000
0000
0000
0000
M00M
0000
0000
0000
0000
0000
0000
0000
0000
0000
0000
0000
0000
0000
0000
0000
0000
0000
0000
0000
0000
0000
0000
0000
1000
0000
0000
0000
0000
0000
0000
0000
0000
0000
0000
0000
0001
0000
0000
0000
0000
0000
0000
0000
0000
0000
0000
0000
1000
0000
0000
0000
0000
0000
0000
0000
0000
0000
0000
0000
0001
0000
0000
0000
0000
0000
0000
0000
0000
0000
0000
0000
0100
0000
0000
0000
0000
0000
0000
0000
0001
0000
0000
0000
0000
0000
0000
0000
0100
0000
0000
0000
0000
0000
0000
0000
0001
0000
0000
0000
0000
0000
0000
0000
0000
0000
0000
0000
0000
0000
0000
0000
0000
0000
0000
0000
0000
0000
0000
0000
1000
0000
0000
0000
0000
0000
0000
0000
0000
0000
0000
0000
0010
0000
0000
0000
0000
0000
0000
0000
0000
0000
0000
0000
0100
0000
0000
0000
0000
0000
0000
0000
0000
0000
0000
0000
0001
0000
0000
0000
0000
0000
0000
0000
0000
0000
0000
0000
,
1000
0010
0100
0001
0010
0001
0100
0001
0100
0010
1000
0001
0010
0001
0100
0001
,
1000
0010
1000
0001
0010
0001
1000
0010
0100
0001
0010
0100
0010
0001
0100
0010
,
1000
0100
0010
0001
0100
0001
0010
0001
0010
0100
1000
0001
0100
0001
0010
0001
,
1000
0100
1000
0001
0100
0001
1000
0100
0010
0001
0100
0010
0100
0001
0010
0100
,
1000
0010
0100
0001
0010
0001
0100
0001
1000
0010
0100
0001
0010
0001
0100
0001
,
1000
0010
0100
0001
0010
0001
0100
0001
1000
0010
0100
0001
0010
0001
0100
0001
,
1000
0000
0000
0100
0000
0000
1000
0000
0000
0100
0000
0000
0020
0000
0000
0000
0000
0000
0030
0000
0000
0000
0000
0000
0001
0000
1000
0000
0001
0000
1000
0000
0000
0000
0000
0000
0202
0000
0000
0000
0000
0000
0303
0000
0000
0000
0000
0000
,
2020
0000
0000
0000
0000
0000
3030
0000
0000
0000
0000
0000
0022
0000
0000
0000
0000
0000
0033
0000
0000
0000
0000
0000
1000
0000
0001
0000
1000
0000
0001
0000
0000
0000
0000
0000
1000
0000
0000
0100
0000
0000
0010
0000
0000
0001
0000
0000
,
1000
0010
0100
0001
0010
0001
0100
0001
0100
0010
1000
0001
0010
0001
0100
0001
,
1000
0010
1000
0001
0010
0001
1000
0010
0100
0001
0010
0100
0010
0001
0100
0010
,
1000
0100
0010
0001
0100
0001
0010
0001
0010
0100
1000
0001
0100
0001
0010
0001
,
1000
0100
1000
0001
0100
0001
1000
0100
0010
0001
0100
0010
0100
0001
0010
0100
,
1000
0010
0100
0001
0010
0001
0100
0001
0100
0010
1000
0001
0010
0001
0100
0001
,
1000
0010
1000
0001
0010
0001
1000
0010
0100
0001
0010
0100
0010
0001
0100
0010
,
1000
0100
0010
0001
0100
0001
0010
0001
0010
0100
1000
0001
0100
0001
0010
0001
,
1000
0000
0000
0000
0000
0000
0010
0000
1000
0000
0010
0000
1000
0000
0000
0000
0000
0000
0001
0000
0000
0100
0000
0000
0010
0000
0000
1000
0000
0000
0001
0000
0000
0100
0000
0000
0010
0000
0000
1000
0000
0000
0001
0000
0000
0100
0000
0000
,
0001
0010
0100
1000
0010
1000
0100
1000
0100
0010
0001
1000
0010
1000
0100
1000
,
0001
0010
0001
1000
0010
1000
0001
0010
0100
1000
0010
0100
0010
1000
0100
0010
,
0001
0100
0010
1000
0100
1000
0010
1000
0010
0100
0001
1000
0100
1000
0010
1000
,
0001
0100
0001
1000
0100
1000
0001
0100
0010
1000
0100
0010
0100
1000
0010
0100
,
0001
0010
0100
1000
0010
1000
0100
1000
0001
0010
0100
1000
0010
1000
0100
1000
,
0001
0010
0100
1000
0010
1000
0100
1000
0001
0010
0100
1000
0010
1000
0100
1000
,
0001
0000
0000
0100
0000
0000
0001
0000
0000
0100
0000
0000
0020
0000
0000
0000
0000
0000
0030
0000
0000
0000
0000
0000
1000
0000
0001
0000
1000
0000
0001
0000
0000
0000
0000
0000
2200
0000
0000
0000
0000
0000
3300
0000
0000
0000
0000
0000
,
0022
0000
0000
0000
0000
0000
0033
0000
0000
0000
0000
0000
2020
0000
0000
0000
0000
0000
3030
0000
0000
0000
0000
0000
0001
0000
1000
0000
0001
0000
1000
0000
0000
0000
0000
0000
0001
0000
0000
0010
0000
0000
0100
0000
0000
1000
0000
0000
,
0001
0100
0010
0100
0001
1000
0100
1000
0001
0100
0010
0100
0001
1000
0100
1000
,
0001
0010
0100
0010
0001
1000
0010
1000
0001
0010
0100
0010
0001
1000
0010
1000
,
0100
0010
0001
0010
0100
1000
0010
1000
0100
0010
0001
0010
0100
1000
0010
1000
,
0100
0000
0000
0000
0000
0000
1000
0000
0001
0000
1000
0000
0001
0000
0000
0000
0000
0000
0100
0000
0000
0001
0000
0000
0100
0000
0000
0000
0000
0000
0001
0000
0000
0000
0000
0000
1000
0000
0001
0000
1000
0000
0001
0000
0000
0000
0000
0000
,
1000
0010
0100
0010
1000
0001
0010
0001
1000
0010
0100
0010
1000
0001
0010
0001
,
1000
0100
0010
0100
1000
0001
0100
0001
1000
0100
0010
0100
1000
0001
0100
0001
,
0010
0000
0000
0100
0000
0000
0010
0000
0000
0100
0000
0000
2000
0000
0000
0000
0000
0000
3000
0000
0000
0000
0000
0000
0001
0000
0100
0000
0001
0000
0100
0000
0000
0000
0000
0000
0020
0000
0000
0000
0000
0000
0030
0000
0000
0000
0000
0000
,
1000
0100
0010
0001
1000
0100
0010
0001
1000
0100
0010
0001
1000
0100
0010
0001
,
1000
0010
0100
0010
1000
0001
0010
0001
1000
0010
0100
0010
1000
0001
0010
0001
,
1000
0100
0010
0100
1000
0001
0100
0001
1000
0100
0010
0100
1000
0001
0100
0001
,
0010
0100
1000
0100
0010
0001
0100
0001
0010
0100
1000
0100
0010
0001
0100
0001
,
1000
0100
0010
0100
1000
0001
0100
0001
1000
0001
0010
0001
0100
0001
0010
0001
,
1000
0100
0010
0100
1000
0001
0100
0001
1000
0100
0010
0100
1000
0001
0100
0001
,
1000
0010
0100
0010
1000
0001
0010
0001
1000
0010
0100
0010
1000
0001
0010
0001
,
0100
0000
0000
0010
0000
0000
0100
0000
0000
0010
0000
0000
2000
0000
0000
0000
0000
0000
3000
0000
0000
0000
0000
0000
0001
0000
0010
0000
0001
0000
0010
0000
0000
0000
0000
0000
0200
0000
0000
0000
0000
0000
0300
0000
0000
0000
0000
0000
,
0220
0000
0330
0000
0022
0000
0033
0000
2002
0000
3003
0000
0001
0010
0100
1000
,
0020
0000
0000
0000
0000
0030
10M0
0000
,
0020
0000
0000
1030
0002
0000
0000
0013
,
0000
0010
0000
0001
2000
0000
0000
0000
,
3020
0000
0000
1030
0002
0000
1003
0200
,
0000
1300
0020
0000
0230
0000
0010
0300
,
1002
0000
0000
0013
0002
0000
0000
0103
,
0000
0100
0000
0001
2000
0000
0000
3100
,
2100
3000
0010
0120
0030
1000
1002
0000
,
0000
0000
0000
0000
0000
0000
0003
0000
0000
0000
0000
0000
1000
0000
0000
0010
0000
0000
0100
0001
0100
0001
0000
0000
,
1000
0100
0010
0001
0100
0001
0010
0001
0010
0100
1000
0100
0010
0001
1000
0001
,
0010
0100
0010
0001
1000
0010
0100
0001
0010
0100
0010
0001
0100
0010
1000
0001
,
1000
0010
0100
0001
0010
0001
0100
0001
0100
0010
1000
0010
0100
0001
1000
0001
,
0100
0010
0100
0001
1000
0100
0010
0001
0100
0010
0100
0001
0010
0100
1000
0001
,
1000
0100
0010
0001
0100
0001
0010
0001
0010
0100
1000
0100
0010
0001
1000
0001
,
0010
0100
0010
0001
1000
0010
0100
0001
0010
0100
0010
0001
0100
0010
1000
0001
,
0010
0100
1000
0001
1000
0100
0010
0001
0100
0010
1000
0001
0100
0001
0010
0001
,
1000
0010
0100
0001
1000
0010
0100
0001
1000
0100
0010
0001
1000
0001
0100
0010
,
1000
0001
0010
0100
1000
0001
0010
0001
0100
0010
0100
0010
1000
0001
0010
0100
,
0010
0001
1000
0010
0100
0001
0010
0100
1000
0001
1000
0001
1000
0001
0100
0010
,
1000
0001
0010
0001
0100
0010
1000
0010
1000
0001
0010
0100
1000
0001
0100
0010
,
1000
0010
0100
0001
1000
0001
0100
0001
1000
0001
0010
0001
0100
0001
0010
0001
,
0100
0010
1000
0001
0010
0100
0010
0001
1000
0001
0010
0100
1000
0010
0100
0001
,
0100
0010
1000
0100
0010
0100
1000
0001
0100
0010
1000
0001
0010
0001
1000
0100
,
0010
0100
0010
0100
0010
0100
1000
0001
0100
0010
0100
0001
0100
0010
0100
0001
,
1000
0000
0000
0010
0000
0000
1000
0000
0000
0010
0000
0000
0200
0000
0000
0000
0000
0000
0300
0000
0000
0000
0000
0000
0001
0000
1000
0000
0001
0000
1000
0000
0000
0000
0000
0000
M020
0000
0000
0000
0000
0000
0000
0000
0000
0030
0000
0000
,
1000
0001
0100
0010
1000
0010
0100
0001
0010
0100
1000
0001
1000
0100
0010
0100
,
1000
0001
0100
0010
0100
0001
0100
0010
1000
0001
0010
0100
0010
0001
1000
0100
,
0010
0100
1000
0001
1000
0001
0100
0010
0100
0001
0010
0100
1000
0001
0100
0010
,
1000
0001
0100
0010
0100
0001
0100
0010
1000
0001
0100
0001
0010
0001
0100
0001
,
1000
0100
0010
0001
1000
0100
0010
0100
1000
0001
1000
0100
1000
0001
0100
0010
,
1000
0001
0100
0010
0100
0001
1000
0001
1000
0100
1000
0001
0010
0100
1000
0001
,
0010
0100
1000
0100
1000
0001
0100
0010
1000
0010
1000
0001
0010
0100
0010
0001
,
1000
0100
0010
0001
0010
0001
1000
0100
1000
0001
0010
0001
0100
0001
0010
0001
,
1000
0001
0100
0010
1000
0010
0100
0001
0010
0100
1000
0001
1000
0100
0010
0100
,
1000
0001
0100
0010
0100
0001
0100
0010
1000
0001
0010
0100
0010
0001
1000
0100
,
0010
0100
1000
0001
1000
0001
0100
0010
0100
0001
0010
0100
1000
0001
0100
0010
,
1000
0001
0100
0010
0100
0001
0100
0010
1000
0001
0100
0001
0010
0001
0100
0001
,
1000
0100
0010
0001
1000
0100
0010
0100
1000
0001
1000
0100
1000
0001
0100
0001
,
0010
0100
1000
0010
0100
0001
1000
0100
0010
0001
1000
0001
0010
0100
1000
0001
,
0100
0010
1000
0010
1000
0001
0010
0100
1000
0100
1000
0001
0100
0010
0100
0001
,
1000
0100
0010
0001
0010
0001
1000
0100
1000
0001
0010
0001
0100
0010
1000
0001
,
0010
0100
1000
0001
1000
0100
0010
0001
0100
0010
1000
0001
1000
0010
0100
0010
,
1000
0001
0010
0100
0010
0001
0010
0100
1000
0001
0100
0010
0100
0001
1000
0010
,
0100
0010
1000
0001
1000
0010
0100
0001
0010
0100
1000
0001
1000
0100
0010
0100
,
1000
0001
0100
0010
0100
0001
0100
0010
1000
0001
0010
0100
0010
0001
1000
0010
,
1000
0001
0010
0100
0010
0001
0010
0100
1000
0001
0010
0100
0010
0001
1000
0010
,
1000
0001
0010
0100
0010
0001
0010
0100
1000
0001
0100
0001
1000
0001
0010
0100
,
1000
0001
0100
0010
1000
0010
1000
0001
0010
0100
1000
0001
0100
0001
1000
0001
,
1000
0000
0000
0100
0000
0000
1000
0000
0000
0100
0000
0000
0020
0000
0000
0000
0000
0000
0030
0000
0000
0000
0000
0000
0001
0000
1000
0000
0001
0000
1000
0000
0000
0000
0000
0000
0200
0000
0000
0000
0000
0000
0300
0000
0000
0000
0000
0000
,
0010
0100
1000
0002
0000
1003
0010
0100
,
0010
0010
1000
1000
0001
0100
0001
0010
,
0100
0010
0001
2000
0000
3001
0100
0010
,
0100
0100
0001
0001
0010
0100
0010
0001
,
1000
0010
0100
0020
0000
1030
0100
0010
,
0100
0100
1000
1000
0001
0100
0001
0010
,
0001
0100
0010
0200
0000
0301
0010
0100
,
0010
0010
0001
0001
0100
0010
0100
0001
,
0010
0100
1000
0002
0000
1003
0010
0100
,
0010
0010
1000
1000
0001
0100
0001
0010
,
0100
0010
0001
2000
0000
3001
0100
0010
,
0100
0100
0001
0001
0010
0100
0010
0001
,
1000
0010
0100
0020
0000
1030
0100
0010
,
0100
0100
1000
1000
0001
0100
0001
0010
,
0001
0000
0000
0000
0000
0000
1000
0000
0000
0000
0000
0000
0001
0100
0001
0100
0000
0000
0010
0000
0000
0000
0000
0000
,
1000
0010
0100
0001
1000
0010
0100
0001
1000
0001
0010
0100
1000
0010
0100
0001
,
1000
0100
0010
0001
0100
0001
0010
0001
0010
0100
1000
0001
0100
0001
0010
0001
,
1000
0100
1000
0001
0100
0001
1000
0100
0010
0001
0100
0010
0100
0001
0010
0100
,
1000
0010
0100
0001
0010
0001
0100
0001
0100
0010
1000
0001
0010
0001
0100
0001
,
1000
0010
1000
0001
0010
0001
1000
0010
0100
0001
0010
0100
0010
0001
0100
0010
,
1000
0100
0010
0001
0100
0001
0010
0001
0010
0100
1000
0001
0100
0001
0010
0001
,
1000
0100
1000
0001
0100
0001
1000
0100
0010
0001
0100
0010
0100
0001
0010
0100
,
1000
0010
0100
0001
0010
0001
0100
0001
0100
0010
1000
0001
0010
0001
0100
0001
,
1000
0000
0000
0010
0000
0000
1000
0000
0000
0010
0000
0000
0200
0000
0000
0000
0000
0000
0300
0000
0000
0000
0000
0000
0001
0000
0100
0000
0001
0000
0100
0000
0000
0000
0000
0000
0010
0000
1000
0000
0010
0000
1000
0000
0000
0000
0000
0000
,
0001
0010
0100
1000
0010
1000
0100
1000
0100
0010
0001
1000
0010
1000
0100
1000
,
0001
0010
0001
1000
0010
1000
0001
0010
0100
1000
0010
0100
0010
1000
0100
0010
,
0001
0100
0010
1000
0100
1000
0010
1000
0010
0100
0001
1000
0100
1000
0010
1000
,
0001
0100
0001
1000
0100
1000
0001
0100
0010
1000
0100
0010
0100
1000
0010
0100
,
0001
0010
0100
1000
0010
1000
0100
1000
0001
0010
0100
1000
0010
1000
0100
1000
,
0001
0010
0100
1000
0010
1000
0100
1000
0001
0010
0100
1000
0010
1000
0100
1000
,
0002
0000
0000
0003
0000
0000
2002
0000
0000
3003
0000
0000
0001
0100
0001
0100
0000
0000
2020
0000
0000
3030
0000
0000
,
1000
0000
0000
0000
0000
0000
0001
0000
1000
0000
0001
0000
1000
0000
0000
0000
0000
0000
0001
0000
0000
1000
0000
0000
0010
0000
0000
1000
0000
0000
0100
0000
0000
0010
0000
0000
0100
0000
0000
1000
0000
0000
0010
0000
0000
0100
0000
0000
,
0001
0010
0100
1000
0010
1000
0100
1000
0100
0010
0001
1000
0010
1000
0100
1000
,
0001
0010
0100
1000
0010
0100
0001
0010
0100
1000
0010
0100
0010
1000
0100
0010
,
0001
0100
0010
1000
0100
1000
0010
1000
0010
0100
0001
1000
0100
1000
0010
1000
,
0001
0100
0010
1000
0100
0010
0001
0100
0010
1000
0100
0010
0100
1000
0010
0100
,
0001
0010
0100
1000
0010
1000
0100
1000
0100
0010
0001
1000
0010
1000
0100
1000
,
0001
0010
0100
1000
0010
0100
0001
0010
0100
1000
0010
0100
0010
1000
0100
0010
,
0001
0100
0010
1000
0100
1000
0010
1000
0010
0100
0001
1000
0100
1000
0010
1000
,
0001
0000
0000
0010
0000
0000
0001
0000
0000
0010
0000
0000
0100
0000
0000
0000
0000
0000
1000
0000
0000
0000
0000
0000
0001
0000
0100
0000
0001
0000
0100
0000
0000
0000
0000
0000
0010
0000
1000
0000
0010
0000
1000
0000
0000
0000
0000
0000
,
0001
0100
0010
1000
0100
1000
0010
1000
0010
0100
0001
1000
0100
1000
0010
1000
,
0001
0100
0010
1000
0100
0010
0001
0100
0010
1000
0100
0010
0100
1000
0010
0100
,
0001
0010
0100
1000
0010
1000
0100
1000
0100
0010
0001
1000
0010
1000
0100
1000
,
0001
0010
0100
1000
0010
0100
0001
0010
0100
1000
0010
0100
0010
1000
0100
0010
,
0001
0100
0010
1000
0100
1000
0010
1000
0001
0100
0010
1000
0100
1000
0010
1000
,
0001
0100
0010
1000
0100
1000
0010
1000
0001
0100
0010
1000
0100
1000
0010
1000
,
0002
0000
0000
0003
0000
0000
2002
0000
0000
3003
0000
0000
0001
0100
0001
0100
0000
0000
2020
0000
0000
3030
0000
0000
,
1000
0010
0100
0001
1000
0010
0100
0001
1000
0001
0010
0100
0010
0001
0100
0010
,
2000
0000
3001
0020
0000
0230
0000
0320
,
0000
0000
0000
0000
0000
0031
1000
0001
,
0200
0000
0301
0020
0000
0230
0000
2300
,
0000
0000
0000
3000
2000
0000
3020
0000
,
0230
0000
0301
0002
0003
0002
0000
0023
,
0000
0230
0000
2300
0000
3020
0000
0130
,
0002
0000
0103
0200
0000
0301
0010
0200
,
0000
0000
0000
0300
0000
0000
2000
0000
,
3002
0000
1003
0020
0000
0230
0000
0320
,
0000
0000
0000
0000
0000
1030
0001
1000
,
0200
0000
1300
0020
0000
0230
0000
0302
,
0000
0000
0000
0003
0002
0000
0023
0000
,
0230
0000
1300
2000
3000
0001
2000
0000
,
3020
0230
0302
0023
,
0230
0000
1300
2000
0000
3001
0100
0020
,
1030
0100
0010
0001
1000
0100
0010
0001
1000
0100
0010
0001
1000
0100
0010
0001
,
1000
0001
0100
0010
1000
0010
0100
0001
0010
0100
1000
0001
1000
0100
0010
0100
,
1000
0001
0100
0010
0100
0001
0100
0010
1000
0001
0010
0100
0010
0001
1000
0100
,
0010
0100
1000
0001
1000
0001
0100
0010
0100
0001
0010
0100
1000
0001
0100
0010
,
1000
0001
0100
0010
0100
0001
0100
0010
1000
0001
0100
0001
0010
0001
0100
0001
,
1000
0100
0010
0001
1000
0100
0010
0100
1000
0001
1000
0100
1000
0001
0100
0010
,
1000
0001
0100
0010
0100
0001
1000
0001
1000
0100
1000
0001
0010
0100
1000
0001
,
0010
0100
1000
0100
1000
0001
0100
0010
1000
0010
1000
0001
0010
0100
0010
0001
,
1000
0100
0010
0001
0010
0001
1000
0100
1000
0001
0010
0001
0100
0001
0010
0001
,
1000
0001
0100
0010
1000
0010
0100
0001
0010
0100
1000
0001
1000
0100
0010
0100
,
1000
0001
0100
0010
0100
0001
0100
0010
1000
0001
0010
0100
0010
0001
1000
0100
,
0010
0100
1000
0001
1000
0001
0100
0010
0100
0001
0010
0100
1000
0001
0100
0010
,
1000
0001
0100
0010
0100
0001
0100
0010
1000
0001
0100
0001
0010
0001
0100
0001
,
1000
0100
0010
0001
1000
0100
0010
0100
1000
0001
1000
0100
1000
0001
0100
0001
,
0010
0100
1000
0010
0100
0001
1000
0100
0010
0001
1000
0001
0010
0100
1000
0001
,
0100
0010
1000
0010
1000
0001
0010
0100
1000
0100
1000
0001
0100
0010
0100
0001
,
1000
0100
0010
0001
0010
0001
1000
0010
0100
0001
0010
0001
0100
0010
1000
0001
,
1000
0001
0100
0010
1000
0010
0100
0001
0010
0100
1000
0001
1000
0100
0010
0100
,
1000
0001
0100
0010
0100
0001
0100
0010
1000
0001
0010
0100
0010
0001
1000
0100
,
0010
0100
1000
0001
1000
0001
0100
0010
0100
0001
0010
0100
1000
0001
0100
0010
,
1000
0001
0100
0010
0100
0001
0100
0010
1000
0001
0100
0001
0010
0001
0100
0001
,
1000
0100
0010
0001
1000
0100
0010
0100
1000
0001
1000
0100
1000
0001
0100
0010
,
1000
0001
0100
0010
0100
0001
1000
0001
1000
0100
1000
0001
0010
0100
1000
0001
,
0010
0100
1000
0100
1000
0001
0100
0010
1000
0010
1000
0001
0010
0100
0010
0001
,
1000
0100
0010
0001
0010
0001
1000
0100
1000
0001
0010
0001
0100
0001
0010
0001
,
1000
0001
0100
0010
1000
0010
0100
0001
0010
0100
1000
0001
1000
0100
0010
0100
,
1000
0001
0100
0010
0100
0001
0100
0010
1000
0001
0010
0100
0010
0001
1000
0100
,
0010
0100
1000
0001
1000
0001
0100
0010
0100
0001
0010
0100
1000
0001
0100
0010
,
1000
0001
0100
0010
0100
0001
0100
0010
1000
0001
0100
0001
0010
0001
0100
0001
,
1000
0100
0010
0001
1000
0100
0010
0100
1000
0001
1000
0100
1000
0001
0100
0001
,
0010
0100
1000
0010
0100
0001
1000
0100
0010
0001
1000
0001
0010
0100
1000
0001
,
0100
0010
1000
0010
1000
0001
0010
0100
1000
0100
1000
0001
0100
0010
0100
0001
,
1000
0100
0010
0001
0010
0001
1000
0100
1000
0001
0010
0001
0100
0010
1000
0001
,
0010
0100
1000
0001
1000
0100
0010
0001
0100
0010
1000
0001
1000
0010
0100
0010
,
1000
0001
0010
0100
0010
0001
0010
0100
1000
0001
0100
0010
0100
0001
1000
0010
,
0100
0001
1000
0001
0100
0001
1000
0001
0010
0001
1000
0001
0010
0001
1000
0001
,
0100
0010
1000
0010
0100
0010
1000
0010
0100
0001
0010
0001
0100
0001
0010
0001
,
1000
0010
0100
0001
0010
0100
1000
0010
0100
0001
1000
0001
0100
0001
1000
0001
,
0010
0100
1000
0010
0100
0001
0010
0100
1000
0100
0010
0001
0100
0010
1000
0001
,
0020
0000
0030
0210
0310
0001
2002
3003
,
1000
0000
0000
0001
0100
0001
0100
0000
0000
0010
1000
0010
1000
0000
0000
0001
0000
0000
0100
0001
0100
0001
0100
0001
,
0200
0000
0000
0000
,
0300
0000
0000
0000
;

//---------------dance-single - 15 (ZaiYLR)----------------
#NOTES:
     dance-single:
     15 (ZaiYLR):
     Hard:
     15:
     1.000,1.000,0.268,1.000,1.000,2156.000,74.000,330.000,18.000,0.000:
0000
0000
0000
0000
,
0000
0000
0000
0000
,
0000
0000
0000
0000
,
0000
0000
0000
0000
,
0000
0000
0000
0000
,
0000
0000
0000
0000
,
0000
0000
0000
0000
,
0000
0000
0000
0000
,
1001
1000
0000
1000
0000
1000
0000
1000
,
0001
0100
0000
0100
0000
0100
0000
0100
,
0010
1000
0000
1000
0000
1000
0000
1000
,
0001
0010
0000
0010
0000
0010
0000
0010
,
0100
1000
0000
1000
0000
1000
0000
1000
,
0010
0100
0000
0100
0000
0100
0000
0100
,
0001
0100
0010
1000
0001
0010
0100
1000
,
2001
0000
3000
0000
004M
0000
0000
0000
1030
0001
1000
0001
0100
0010
0100
0010
,
2000
0000
0001
0000
3001
0010
0100
0000
2000
0000
3001
0010
0100
0000
2000
0000
,
3002
0000
1003
0010
1000
0010
0200
0000
0302
0000
1003
0100
0010
0000
0002
0000
,
2003
0000
0010
0000
3010
0100
0001
0000
2000
0000
3010
0100
0001
0000
2000
0000
,
3002
0000
0013
0100
0010
0100
2000
0000
3001
0000
0101
0000
0110
0000
1010
0000
,
1MM2
0000
1000
0000
1003
0100
0010
0000
0002
0000
1003
0100
0010
0000
0002
0000
,
2003
0000
3001
0100
0001
0100
0020
0000
2030
0000
3001
0010
0100
0000
2000
0000
,
3002
0000
0100
0000
0103
0010
1000
0000
0002
0000
0103
0010
1000
0000
0002
0000
,
1003
0000
0000
0000
0000
0000
0000
0000
0000
0000
0000
0000
1010
0000
0000
0000
0000
0000
1000
0000
0000
0000
0000
0000
0004
0000
4000
0000
0000
0000
0000
0000
0000
0000
0003
0000
3010
0000
0000
0100
0000
0000
0010
0000
0000
0100
0000
0000
,
0002
0000
1000
0000
1003
0100
0010
0000
0002
0000
1003
0100
0010
0000
0002
0000
,
2003
0000
3001
0100
0001
0100
0020
0000
2030
0000
3001
0010
0100
0000
2000
0000
,
3002
0000
0100
0000
0103
0010
1000
0000
0002
0000
0103
0010
1000
0000
0002
0000
,
2003
0000
0100
0000
3100
0010
0002
0000
1003
0000
1010
0000
0110
0000
0101
0000
,
2MM1
0000
0001
0000
3001
0010
0100
0000
2000
0000
0001
0000
3001
0010
0100
0000
,
2000
0000
0001
0000
3001
0010
0100
0000
2000
0000
3001
0000
0001
0010
0100
0000
,
1000
0000
0000
0001
0000
0000
1000
0000
0000
0001
0000
0000
0400
0000
0000
0300
0000
0000
0000
0000
0000
0000
0000
0000
0004
0000
0400
0000
0000
0000
0000
0000
0000
0000
0003
0000
0320
0000
0000
0030
0000
0000
0000
0000
0000
0000
0000
0000
,
2000
0000
0000
3000
0000
0000
0000
0000
0000
0000
0000
0000
0001
0000
0000
0000
0000
0000
0000
0000
0000
0000
0000
0000
0400
0000
0004
0000
0000
0000
0000
0000
0000
0000
0300
0000
1003
0000
0000
0000
0000
0000
1000
0000
0000
0000
0000
0000
,
0002
0000
1000
0000
1003
0100
0010
0000
0002
0000
1003
0100
0010
0000
0002
0000
,
2003
0000
3001
0100
0001
0100
0020
0000
2030
0000
3001
0010
0100
0000
2000
0000
,
3002
0000
0100
0000
0103
0010
1000
0000
0002
0000
0103
0010
1000
0000
0002
0000
,
2003
0000
0100
0000
3100
0010
0002
0000
1003
0000
1010
0000
0110
0000
0101
0000
,
2MM1
0000
0001
0000
3001
0010
0100
0000
2000
0000
3001
0010
0100
0000
2000
0000
,
3002
0000
1003
0010
1000
0010
0200
0000
0302
0000
1003
0100
0010
0000
0002
0000
,
2003
0000
0010
0000
3010
0100
0001
0000
2000
0000
3010
0100
0001
0000
2000
0000
,
3002
0000
0000
0000
0000
0000
0013
0000
0001
0000
0010
0000
0001
0000
0000
0000
0000
0000
1000
0000
0001
0000
1000
0000
0001
0000
0000
0100
0000
0000
0010
0000
0000
1000
0000
0000
0001
0000
0000
1000
0000
0000
0100
0000
0000
0010
0000
0000
,
0002
0000
1000
0000
1003
0100
0010
0000
0002
0000
1003
0100
0010
0000
0002
0000
,
2003
0000
3001
0100
0001
0100
0020
0000
2030
0000
3001
0010
0100
0000
2000
0000
,
3002
0000
0100
0000
0103
0010
1000
0000
0002
0000
0103
0010
1000
0000
0002
0000
,
2003
0000
0100
0000
3100
0010
0002
0000
1003
0000
1010
0000
0110
0000
0101
0000
,
1MM2
0000
1000
0000
1003
0100
0010
0000
0002
0000
1000
0000
1003
0100
0010
0000
,
0002
0000
1000
0000
1003
0100
0010
0000
0002
0000
1003
0000
1000
0100
0010
0000
,
0001
0000
0000
1000
0000
0000
0001
0000
0000
1000
0000
0000
0040
0000
0000
0030
0000
0000
0000
0000
0000
0000
0000
0000
0400
0000
0004
0000
0000
0000
0000
0000
0000
0000
0300
0000
2003
0000
0000
3000
0000
0000
0000
0000
0000
0000
0000
0000
,
0200
0000
0000
0300
0000
0000
0000
0000
0000
0000
0000
0000
0020
0000
0000
0030
0000
0000
0000
0000
0000
0000
0000
0000
0004
0000
4000
0000
0000
0000
0000
0000
0000
0000
0003
0000
3100
0000
0000
0010
0000
0000
0100
0000
0000
0010
0000
0000
,
0002
0000
0000
0000
0000
0000
0000
0000
0100
0000
0000
0000
0000
0000
0000
0003
0002
0000
0000
0000
0000
0000
0000
0000
1000
0000
0000
0000
0000
0000
0000
0003
0002
0000
0000
0000
0000
0000
0000
0000
0100
0000
0000
0000
0000
0000
0000
0003
0002
0000
0000
0000
0000
0000
0000
0000
1000
0000
0000
0000
0000
0000
0000
0003
,
0200
0000
0000
0000
0000
0000
0000
0000
0010
0000
0000
0000
0000
0000
0000
0300
0200
0000
0000
0000
0000
0000
0000
0000
1000
0000
0000
0000
0000
0000
0000
0300
0200
0000
0000
0000
0000
0000
0000
0000
0010
0000
0000
0000
0000
0000
0000
0300
0200
0000
0000
0000
0000
0000
0000
0000
1000
0000
0000
0000
0000
0000
0000
0000
,
0320
0000
0000
0000
0000
0000
0000
0000
0100
0000
0000
0000
0000
0000
0000
0030
0020
0000
0000
0000
0000
0000
0000
0000
1000
0000
0000
0000
0000
0000
0000
0030
0020
0000
0000
0000
0000
0000
0000
0000
0100
0000
0000
0000
0000
0000
0000
0030
0020
0000
0000
0000
0000
0000
0000
0000
1000
0000
0000
0000
0000
0000
0000
0030
,
0002
0000
0000
0000
0000
0000
0000
0000
0000
0000
0000
0000
0000
0000
0000
0000
0000
0000
0000
0000
0000
0000
0000
0000
0043
0000
0000
0000
0000
0000
0030
0000
0000
0000
0000
0000
0001
0000
0000
0000
0000
0000
0000
0000
0000
0000
0000
0000
1000
0000
0000
0000
0000
0000
0000
0000
0000
0000
0000
0000
0000
0000
0000
0000
0000
0000
0000
0000
0000
0000
0000
0000
0010
0000
0000
0000
0000
0000
0000
0000
0000
0000
0000
0000
1000
0000
0000
0000
0000
0000
0000
0000
0000
0000
0000
0000
0001
0000
0000
0000
0000
0000
0000
0000
0000
0000
0000
0000
0000
0000
0000
0000
0000
0000
0000
0000
0000
0000
0000
0000
0010
0000
0000
0000
0000
0000
0000
0000
0000
0000
0000
0000
0001
0000
0000
0000
0000
0000
0000
0000
0000
0000
0000
0000
4000
0000
0000
0000
0000
0000
0000
0000
0004
0000
0000
0000
0000
0000
0000
0000
0000
0000
0000
0000
0000
0000
0000
0000
0000
0000
0000
0000
0000
0000
0000
0000
0000
0000
0000
0000
0000
0000
0000
0000
3000
0000
0000
0000
0000
0000
0000
0000
,
0203
0000
0000
0000
0000
0000
0000
0000
0010
0000
0000
0000
0000
0000
0000
0300
0200
0000
0000
0000
0000
0000
0000
0000
0001
0000
0000
0000
0000
0000
0000
0300
0200
0000
0000
0000
0000
0000
0000
0000
0010
0000
0000
0000
0000
0000
0000
0300
0200
0000
0000
0000
0000
0000
0000
0000
0001
0000
0000
0000
0000
0000
0000
0300
,
2000
0000
0000
0000
0000
0000
0000
0000
0010
0000
0000
0000
0000
0000
0000
3000
2000
0000
0000
0000
0000
0000
0000
0000
0001
0000
0000
0000
0000
0000
0000
3000
2000
0000
0000
0000
0000
0000
0000
0000
0010
0000
0000
0000
0000
0000
0000
3000
2000
0000
0000
0000
0000
0000
0000
0000
0001
0000
0000
0000
0000
0000
0000
3000
,
1000
0000
0000
0000
0000
0000
0000
0000
0000
0000
0000
0000
0100
0000
0000
0000
0000
0000
0000
0000
0000
0000
0000
0000
0010
0000
0000
0000
0000
0000
0000
0000
0000
0000
0000
0000
0001
0000
0000
0000
0000
0000
0000
0000
0000
0000
0000
0000
2000
0000
0000
0000
0000
0000
0000
0000
0000
0000
0000
0000
0000
0000
0000
0000
0000
0000
0000
0000
0000
0000
0000
0000
3000
0000
0000
0000
0000
0000
0000
0000
0000
0000
0000
0000
0000
0000
0000
0000
0000
0000
0000
0000
0000
0000
0000
0000
0004
0000
0000
0000
0000
0000
0000
0000
0040
0000
0000
0000
0000
0000
0000
0000
0000
0000
0000
0000
0000
0000
0000
0000
0000
0000
0000
0000
0000
0000
0000
0000
0000
0000
0000
0000
0000
0000
0000
0000
0003
0000
0000
0000
0000
0000
0000
0000
0230
0000
0000
0000
0000
0000
0300
0000
0000
0000
0000
0000
0000
0000
0000
0000
0000
0000
0000
0000
0000
0000
0000
0000
0000
0000
0000
0000
0000
0000
0000
0000
0000
0000
0000
0000
0000
0000
0000
0000
0000
0000
0000
0000
0000
0000
0000
0000
,
0010
0001
0010
0001
1000
0100
1000
0001
1000
0010
0100
0010
1000
0001
1000
0100
,
0020
0000
0000
0000
0000
0000
0000
0000
0001
0000
0000
0000
0000
0000
0000
0030
0020
0000
0000
0000
0000
0000
0000
0000
0100
0000
0000
0000
0000
0000
0000
0030
0020
0000
0000
0000
0000
0000
0000
0000
0001
0000
0000
0000
0000
0000
0000
0030
0020
0000
0000
0000
0000
0000
0000
0000
0100
0000
0000
0000
0000
0000
0000
0030
,
2000
0000
0000
0000
0000
0000
0000
0000
0001
0000
0000
0000
0000
0000
0000
3000
2000
0000
0000
0000
0000
0000
0000
0000
0010
0000
0000
0000
0000
0000
0000
3000
2000
0000
0000
0000
0000
0000
0000
0000
0001
0000
0000
0000
0000
0000
0000
3000
2000
0000
0000
0000
0000
0000
0000
0000
0010
0000
0000
0000
0000
0000
0000
3000
,
0200
0000
0000
0000
0000
0000
0000
0000
0001
0000
0000
0000
0000
0000
0000
0300
0200
0000
0000
0000
0000
0000
0000
0000
0010
0000
0000
0000
0000
0000
0000
0300
M200
0000
0000
0000
0000
0000
0000
0000
0001
0000
0000
0000
0000
0000
0000
0300
0200
0000
0000
0000
0000
0000
0000
0000
0010
0000
0000
0000
0000
0000
0000
0300
,
2000
0000
0000
0000
0000
0000
0000
0000
0100
0000
0000
0000
0000
0000
0000
3000
2000
0000
0000
0000
0000
0000
0000
0000
0001
0000
0000
0000
0000
0000
0000
3000
1000
0000
0000
0000
0000
0000
0000
0000
1000
0000
0000
0000
0000
0000
0000
0000
0100
0000
0000
0000
0000
0000
0000
0000
0100
0000
0000
0000
0000
0000
0000
0000
,
0020
0000
0000
0000
0000
0000
0000
0000
0001
0000
0000
0000
0000
0000
0000
0030
0020
0000
0000
0000
0000
0000
0000
0000
0100
0000
0000
0000
0000
0000
0000
0030
0020
0000
0000
0000
0000
0000
0000
0000
0001
0000
0000
0000
0000
0000
0000
0030
0020
0000
0000
0000
0000
0000
0000
0000
0100
0000
0000
0000
0000
0000
0000
0030
,
2000
0000
0000
0000
0000
0000
0000
0000
0010
0000
0000
0000
0000
0000
0000
3000
2000
0000
0000
0000
0000
0000
0000
0000
0001
0000
0000
0000
0000
0000
0000
3000
2000
0000
0000
0000
0000
0000
0000
0000
0010
0000
0000
0000
0000
0000
0000
3000
2000
0000
0000
0000
0000
0000
0000
0000
0001
0000
0000
0000
0000
0000
0000
3000
,
1000
0000
0000
0000
0000
0000
0000
0000
0000
0000
0000
0000
0100
0000
0000
0000
0000
0000
0000
0000
0000
0000
0000
0000
0010
0000
0000
0000
0000
0000
0000
0000
0000
0000
0000
0000
0001
0000
0000
0000
0000
0000
0000
0000
0000
0000
0000
0000
2000
0000
0000
0000
0000
0000
0000
0000
0000
0000
0000
0000
0000
0000
0000
0000
0000
0000
0000
0000
0000
0000
0000
0000
3000
0000
0000
0000
0000
0000
0000
0000
0000
0000
0000
0000
0000
0000
0000
0000
0000
0000
0000
0000
0000
0000
0000
0000
0004
0000
0000
0000
0000
0000
0000
0000
0040
0000
0000
0000
0000
0000
0000
0000
0000
0000
0000
0000
0000
0000
0000
0000
0000
0000
0000
0000
0000
0000
0000
0000
0000
0000
0000
0000
0000
0000
0000
0000
0003
0000
0000
0000
0000
0000
0000
0000
0230
0000
0000
0000
0000
0000
0300
0000
0000
0000
0000
0000
0000
0000
0000
0000
0000
0000
0000
0000
0000
0000
0000
0000
0000
0000
0000
0000
0000
0000
0000
0000
0000
0000
0000
0000
0000
0000
0000
0000
0000
0000
0000
0000
0000
0000
0000
0000
,
1001
0000
0000
0000
0101
0000
0000
0000
0001
0100
0010
1000
0001
0100
0010
1000
,
0002
0000
0000
0003
,
1002
0000
0000
0000
0000
0000
0000
0000
0000
0000
0000
0000
0000
0000
0000
0000
0000
0000
0000
0000
0000
0000
0000
0003
0001
0000
0000
0000
0000
0000
0000
0000
0020
0000
0000
0000
0000
0000
0000
0000
0000
0000
0000
0000
0000
0000
0000
0000
0030
0000
0000
0000
0000
0000
0000
0000
0100
0000
0000
0000
0000
0000
0000
0000
,
0000
0200
0000
1300
0002
0000
0003
0000
,
0200
0000
0000
0310
2000
0000
3010
0200
,
0000
0301
2000
0000
3200
0000
0310
0000
,
1002
0000
0000
0000
0000
0000
0000
0000
0000
0000
0000
0000
0000
0000
0000
0000
0000
0000
0000
0000
0000
0000
0000
0003
0001
0000
0000
0000
0000
0000
0000
0000
0200
0000
0000
0000
0000
0000
0000
0000
0000
0000
0000
0000
0000
0000
0000
0000
0300
0000
0000
0000
0000
0000
0000
0000
0010
0000
0000
0000
0000
0000
0000
0000
,
0000
0020
0000
1030
0002
0000
0003
0010
,
1100
0000
0001
1100
0000
0010
2001
0000
,
0000
0000
0000
0000
0000
0000
0000
0000
0000
0000
0000
0000
0000
0000
0000
0000
0000
0000
3004
0400
0000
0000
0000
0003
,
0320
1030
0100
1000
2000
3001
0100
0020
,
1030
0020
0130
0001
0002
0013
0100
1000
,
0002
0013
0100
1000
2000
3001
0200
0320
,
1030
0000
0000
0000
0000
0000
0000
0000
0002
0000
0000
0000
0000
0000
0000
0000
0023
0000
0000
0000
0000
0000
0000
0000
0130
0000
0000
0000
0000
0000
0000
0000
2000
0000
0000
0000
0000
0000
0000
3000
1000
0000
0000
0000
0000
0000
0000
0000
0001
0000
0000
0000
0000
0000
0000
0000
0001
0000
0000
0000
0000
0000
0000
0000
,
0102
0103
0010
1000
2000
3100
0010
0002
,
1003
0002
0013
0100
0200
1300
0001
0100
,
0210
0310
1000
2001
3001
0010
0120
0230
,
1300
0100
0010
0001
1002
1003
2010
3010
,
1020
1030
0200
0320
0230
1300
0020
0230
,
0301
2000
3200
0320
0032
1003
0100
1000
,
2000
3010
0100
0200
0301
0020
0031
0200
,
0310
2000
3001
1000
0010
0010
0100
0101
,
0201
0301
2000
3200
2300
3001
0200
0320
,
1030
0000
0000
0000
0000
0000
0000
0000
0002
0000
0000
0000
0000
0000
0000
0000
0023
0000
0000
0000
0000
0000
0000
0000
0230
0000
0000
0000
0000
0000
0000
0000
2300
0000
0000
0000
0000
0000
0000
0000
3001
0000
0000
0000
0000
0000
0000
0000
2000
0000
0000
0000
0000
0000
0000
0000
3200
0000
0000
0000
0000
0000
0000
0300
,
0120
0000
0000
0000
0000
0000
0000
0030
0010
0000
0000
0000
0000
0000
0000
0000
0001
0000
0000
0000
0000
0000
0000
0000
1000
0000
0000
0000
0000
0000
0000
0000
2000
0000
0000
0000
0000
0000
0000
0000
3100
0000
0000
0000
0000
0000
0000
0000
1000
0000
0000
0000
0000
0000
0000
0000
0001
0000
0000
0000
0000
0000
0000
0000
,
0100
0000
0000
0000
0000
0000
0000
0000
0000
0000
0000
0000
0001
0000
0000
0000
0000
0000
0000
0000
0000
0000
0000
0000
0100
0000
0000
0000
0000
0000
0000
0000
0000
0000
0000
0000
0010
0000
0000
0000
0000
0000
0000
0000
0000
0000
0000
0000
2000
0000
0000
0000
0000
0000
3000
0000
0000
0000
0000
0000
0020
0000
0000
0000
0000
0000
0030
0000
0000
0000
0000
0000
2000
0000
0000
0000
0000
0000
3000
0000
0000
0000
0000
0000
0001
0000
0000
0000
0000
0000
0000
0000
0000
0000
0000
0000
4000
0000
0000
0000
0000
0000
0000
0000
0004
0000
0000
0000
0000
0000
0000
0000
0000
3000
0000
0000
0000
0000
0000
0000
0000
0003
0000
0000
0000
0000
0000
0000
0000
0000
0000
0000
0000
0000
0000
0000
0000
0000
0000
0000
0000
0000
0000
0000
0020
0000
0000
0000
0000
0000
0000
0000
0000
0000
0000
0000
0000
0000
0000
0000
0000
0000
0000
0000
0000
0000
0000
0000
0030
0000
0000
0000
0000
0000
0000
0000
0000
0000
0000
0000
0000
0000
0000
0000
0000
0000
0000
0000
0000
0000
0000
0000
,
0001
0010
0100
1000
0001
1000
0010
1000
0010
0100
0001
1000
0001
1000
0100
0010
,
0001
0100
0010
1000
0001
0100
0001
1000
0100
1000
0001
1000
0001
0010
0001
1000
,
0100
1000
0001
0100
0010
1000
0001
0100
0001
1000
0001
1000
0001
0010
0100
0010
,
0001
1000
0100
0010
0001
1000
0001
0100
0010
1000
0001
0100
0001
0010
0100
1000
,
0001
0100
0010
0100
0010
1000
0001
1000
0100
1000
0100
0010
0001
0100
0010
1000
,
0001
0100
0001
1000
0100
0010
0001
1000
0001
0010
0001
0100
0010
0100
0001
1000
,
0100
0010
0100
0010
0001
1000
0010
0100
0001
0100
0001
1000
0100
0010
0001
1000
,
0010
0100
0001
0100
0001
1000
0100
0010
0100
1000
0001
1000
0001
0100
0010
1000
,
0001
0010
0100
1000
0001
1000
0010
1000
0010
0100
0001
1000
0001
1000
0100
0010
,
0001
0100
0010
1000
0001
0100
0001
1000
0100
1000
0001
1000
0001
0010
0001
1000
,
0100
1000
0001
0100
0010
1000
0001
0100
0001
1000
0001
1000
0001
0010
0100
0010
,
0001
1000
0100
0010
0001
1000
0001
0100
0010
1000
0001
0100
0001
0010
0100
1000
,
0001
0100
0010
0100
0010
1000
0001
1000
0100
1000
0100
0010
0001
0100
0010
1000
,
0001
0100
0001
1000
0100
0010
0001
1000
0001
0010
0001
0100
0010
0100
0001
1000
,
0100
0010
0100
0010
0001
1000
0010
0100
0001
0100
0001
1000
0100
0010
0001
1000
,
0010
0100
0001
0100
0001
1000
0100
0010
0100
1000
0001
1000
0001
0100
0010
1000
,
0001
0100
0010
1000
0001
1000
0100
1000
0100
0010
0001
1000
0001
1000
0010
0100
,
0001
0010
0100
1000
0001
0010
0001
1000
0010
1000
0001
1000
0001
0100
0001
1000
,
0010
1000
0001
0010
0100
1000
0001
0010
0001
1000
0001
1000
0001
0100
0010
0100
,
0001
1000
0010
0100
0001
1000
0001
0010
0100
1000
0001
0010
0001
0100
0010
1000
,
0001
0010
0100
0010
0100
1000
0001
1000
0010
1000
0010
0100
0001
0010
0100
1000
,
0001
0010
0001
1000
0010
0100
0001
1000
0001
0100
0001
0010
0100
0010
0001
1000
,
0010
0100
0010
0100
0001
1000
0100
0010
0001
0010
0001
1000
0010
0100
0001
1000
,
0100
0000
0000
0000
0000
0000
0000
0000
0000
0000
0000
0000
0010
0000
0000
0000
0000
0000
0000
0000
0000
0000
0000
0000
0100
0000
0000
0000
0000
0000
0000
0000
0000
0000
0000
0000
0010
0000
0000
0000
0000
0000
0000
0000
0000
0000
0000
0000
0002
0000
0000
0000
0000
0000
0000
0000
0000
0000
0000
0000
0000
0000
0000
0000
0000
0000
0000
0000
0000
0000
0000
0000
0000
0000
0000
0000
0000
0000
0000
0000
0000
0000
0000
0000
0000
0000
0000
0000
0000
0000
0000
0000
0000
0000
0000
0000
0403
0000
0000
0000
0000
0000
0000
0000
0004
0000
0000
0000
0000
0000
0000
0000
0000
0300
0000
0000
0000
0000
0000
0000
0000
0003
0000
0000
0000
0000
0000
0000
0000
0000
0000
0000
0000
0000
0000
0000
0000
0000
0000
0000
0000
0000
0000
0000
1000
0000
0000
0000
0000
0000
0000
0000
0000
0000
0000
0000
0000
0000
0000
0000
0000
0000
0000
0000
0000
0000
0000
0000
0000
0000
0000
0000
0000
0000
0000
0000
0000
0000
0000
0000
0000
0000
0000
0000
0000
0000
0000
0000
0000
0000
0000
0000
,
1001
0001
1000
0100
0100
0010
0001
0001
,
0100
0010
0010
1000
0010
0100
0001
0010
,
0100
0100
1000
0001
0001
0100
0010
0010
,
1000
0001
0001
0010
0001
0100
0010
1000
,
0001
0001
1000
0100
0100
0010
0001
0001
,
1000
0010
0010
0100
0010
1000
0001
0010
,
0100
0100
1000
0001
0001
0100
0010
0010
,
1000
0000
0100
0000
0100
0000
0010
0000
0100
0000
1000
0000
0001
0000
0100
0001
,
1000
1000
0100
0010
0010
0001
1000
1000
,
0010
0100
0100
0001
0100
0010
1000
0100
,
0010
0010
0001
1000
1000
0010
0100
0100
,
0001
1000
1000
0100
1000
0001
0100
0010
,
1000
1000
0100
0010
0010
0001
0100
0100
,
0010
1000
1000
0100
1000
0001
0100
0010
,
1010
0000
0000
0000
0000
0000
1001
0000
0000
0000
0000
0000
4000
0400
0000
0000
0000
3000
0310
0000
0000
0000
0000
0000
,
0100
0000
1000
0000
0100
0000
1000
0000
0001
0000
0010
0000
0001
0000
0010
0000
0200
0000
2300
3000
0020
0000
2030
3000
0002
0000
0203
0300
0020
0000
2030
3000
,
0002
0000
1000
0000
1003
0100
0010
0000
0002
0000
1003
0100
0010
0000
0002
0000
,
2003
0000
3001
0100
0001
0100
0020
0000
2030
0000
3001
0010
0100
0000
2000
0000
,
3002
0000
0100
0000
0103
0010
1000
0000
0002
0000
0103
0010
1000
0000
0002
0000
,
2003
0000
3100
0010
0100
0010
0002
0000
1003
0000
1010
0000
0110
0000
0101
0000
,
2MM1
0000
0001
0000
3001
0010
0100
0000
2000
0000
3001
0010
0100
0000
2000
0000
,
3002
0000
1003
0010
1000
0010
0200
0000
0302
0000
1003
0100
0010
0000
0002
0000
,
2003
0000
0010
0000
3010
0100
0001
0000
2000
0000
3010
0100
0001
0000
2000
0000
,
3010
0000
0000
1000
0000
0000
0010
0000
0000
1000
0000
0000
0100
0000
0000
0000
0000
0000
0010
0000
0000
0000
0000
0000
0004
0000
4000
0000
0000
0000
0000
0000
0000
0000
0003
0000
3040
0000
0400
0000
0000
0000
0000
0000
0000
0000
0030
0000
,
0302
0000
1000
0000
1003
0100
0010
0000
0002
0000
1003
0100
0010
0000
0002
0000
,
2003
0000
3001
0100
0001
0100
0020
0000
2030
0000
3001
0010
0100
0000
2000
0000
,
3002
0000
0100
0000
0103
0010
1000
0000
0002
0000
0103
0010
1000
0000
0002
0000
,
2003
0000
0100
0000
3100
0010
0002
0000
1003
0000
1010
0000
0110
0000
0101
0000
,
2MM1
0000
0001
0000
3001
0010
0100
0000
2000
0000
0001
0000
3001
0010
0100
0000
,
2000
0000
0001
0000
3001
0010
0100
0000
2000
0000
0001
0000
3001
0010
0100
0000
,
2000
0000
0000
0000
0000
0000
3000
0000
0000
0000
0000
0000
0000
0000
0000
0000
0000
0000
0000
0000
0000
0000
0000
0000
0000
0000
0000
0000
0000
0000
0000
0000
0000
0000
0000
0000
0000
0000
0000
0000
0000
0000
0000
0000
0000
0000
0000
0000
0002
0000
0000
0000
0000
0000
0000
0000
0000
0000
0000
0000
0003
0000
0000
0000
0000
0000
0000
0000
0000
0000
0000
0000
0000
0000
0000
0000
0000
0000
0000
0000
0000
0000
0000
0000
0000
0000
0000
0000
0000
0000
0000
0000
0000
0000
0000
0000
0400
0000
0000
0000
0000
0000
0000
0000
0004
0000
0000
0000
0000
0000
0000
0000
0000
0000
0000
0000
0000
0000
0000
0000
0000
0000
0000
0000
0000
0000
0000
0000
0000
0000
0000
0000
0000
0000
0000
0000
0300
0000
0000
0000
0000
0000
0000
0000
1003
0000
0000
0000
0000
0000
0000
0000
0000
0000
0000
0000
0000
0000
0000
0000
1000
0000
0000
0000
0000
0000
0000
0000
0000
0000
0000
0000
0000
0000
0000
0000
1000
0000
0000
0000
0000
0000
0000
0000
0000
0000
0000
0000
0000
0000
0000
0000
,
0100
0000
0000
0000
0000
0000
0010
0000
0001
0000
0010
0000
0001
0000
0000
0000
0000
0000
0010
0000
0000
0100
0000
0000
1000
0000
0000
0001
0000
0000
0100
0000
0000
0001
0000
0000
1000
0000
0000
0010
0000
0000
0100
0000
0000
0001
0000
0000
,
2000
0000
0001
0000
3001
0010
0100
0000
2000
0000
3001
0010
0100
0000
2000
0000
,
3002
0000
1003
0010
1000
0010
0200
0000
0302
0000
1003
0100
0010
0000
0002
0000
,
2003
0000
0010
0000
3010
0100
0001
0000
2000
0000
3010
0100
0001
0000
2000
0000
,
3002
0000
0010
0000
0013
0100
2000
0000
3001
0000
0101
0000
0110
0000
1010
0000
,
1MM2
0000
1000
0000
1003
0100
0010
0000
0002
0000
1003
0100
0010
0000
0002
0000
,
2003
0000
3001
0100
0001
0100
0020
0000
2030
0000
3001
0010
0100
0000
2000
0000
,
3002
0000
0100
0000
0103
0010
1000
0000
0002
0000
0103
0010
1000
0000
0002
0000
,
0103
0000
0000
0001
0000
0000
0100
0000
0000
0001
0000
0000
1000
0000
0000
0000
0000
0000
0001
0000
0000
0010
0000
0000
0400
0000
4000
0000
0000
0000
0000
0000
0000
0000
0300
0000
0004
0000
0000
0000
0000
0000
0000
0000
0000
0000
0003
0000
,
3020
0000
1000
0000
1030
0001
0100
0000
0020
0000
1030
0001
0100
0000
0020
0000
,
2030
0000
3001
0100
0001
0100
0020
0000
2030
0000
3001
0010
0100
0000
2000
0000
,
3002
0000
0100
0000
0103
0010
1000
0000
0002
0000
0103
0010
1000
0000
0002
0000
,
2003
0000
3100
0010
0100
0010
0002
0000
1003
0000
1010
0000
0110
0000
0101
0000
,
2MM1
0000
0001
0000
3001
0010
0100
0000
2000
0000
0001
0000
3001
0010
0100
0000
,
2000
0000
0001
0000
3001
0010
0100
0000
2000
0000
0001
0000
3001
0010
0100
0000
,
2000
0000
0000
0000
0000
0000
3000
0000
0000
0000
0000
0000
0000
0000
0000
0000
0000
0000
0000
0000
0000
0000
0000
0000
0000
0000
0000
0000
0000
0000
0000
0000
0000
0000
0000
0000
0000
0000
0000
0000
0000
0000
0000
0000
0000
0000
0000
0000
0002
0000
0000
0000
0000
0000
0000
0000
0000
0000
0000
0000
0003
0000
0000
0000
0000
0000
0000
0000
0000
0000
0000
0000
0000
0000
0000
0000
0000
0000
0000
0000
0000
0000
0000
0000
0000
0000
0000
0000
0000
0000
0000
0000
0000
0000
0000
0000
0400
0000
0000
0000
0000
0000
0000
0000
0004
0000
0000
0000
0000
0000
0000
0000
0000
0000
0000
0000
0000
0000
0000
0000
0000
0000
0000
0000
0000
0000
0000
0000
0000
0000
0000
0000
0000
0000
0000
0000
0300
0000
0000
0000
0000
0000
0000
0000
1003
0000
0000
0000
0000
0000
0000
0000
0000
0000
0000
0000
0000
0000
0000
0000
1000
0000
0000
0000
0000
0000
0000
0000
0000
0000
0000
0000
0000
0000
0000
0000
1000
0000
0000
0000
0000
0000
0000
0000
0000
0000
0000
0000
0000
0000
0000
0000
,
0001
0010
0001
0010
0100
1000
0100
1000
0001
1000
0010
0100
0001
0010
0100
1000
,
0002
0000
1003
0200
0000
0320
0000
0032
,
0000
0000
0000
0000
0000
0013
0001
0100
,
0020
0000
1030
0200
0000
2300
0000
3020
,
0000
0000
0230
0302
,
2003
0000
0000
0000
0000
0000
0000
0000
0000
0000
0000
0000
0000
0000
0000
3000
1000
0000
0000
0000
0000
0000
0000
0000
2000
0000
0000
0000
0000
0000
0000
0000
0000
0000
0000
0000
0000
0000
0000
3000
2000
0000
0000
0000
0000
0000
0000
0000
0000
0000
0000
0000
0000
0000
0000
0000
3200
0000
0000
0000
0000
0000
0000
0000
,
0000
0000
0000
0000
0000
0000
0000
0000
2300
0000
0000
0000
0000
0000
0000
0000
0000
0000
0000
0000
0000
0000
0000
0000
3002
0000
0000
0000
0000
0000
0000
0000
0000
0000
0000
0000
0000
0000
0000
0000
0203
0000
0000
0000
0000
0000
0000
0000
0000
0000
0000
0000
0000
0000
0000
0300
0200
0000
0000
0000
0000
0000
0000
0000
,
0000
0000
0000
0000
0000
0000
0000
0000
0000
0000
0000
0000
0000
0000
0000
0300
0100
0000
0000
0000
0000
0000
0000
0000
0200
0000
0000
0000
0000
0000
0000
0000
0000
0000
0000
0000
0000
0000
0000
0000
0301
0000
0000
0000
0000
0000
0000
0000
0010
0000
0000
0000
0000
0000
0000
0000
0200
0000
0000
0000
0000
0000
0000
0000
,
0000
0000
0300
1000
,
1002
0000
1003
0200
0000
0320
0000
0032
,
0000
0000
0000
0000
0000
1003
0100
1000
,
0002
0000
0103
0020
0000
2030
0000
3200
,
0000
0300
0020
0032
,
0203
0000
0000
0000
0000
0000
0000
0000
0000
0000
0000
0000
0000
0000
0000
0300
0100
0000
0000
0000
0000
0000
0000
0000
0200
0000
0000
0000
0000
0000
0000
0000
0000
0000
0000
0000
0000
0000
0000
0300
0100
0000
0000
0000
0000
0000
0000
0000
0200
0000
0000
0000
0000
0000
0000
0000
0000
0000
0000
0000
0000
0000
0000
0000
,
0320
0230
0302
0023
,
0230
0000
0000
0000
0000
0000
0000
0000
0000
0000
0000
0000
0000
0000
0000
0300
0100
0000
0000
0000
0000
0000
0000
0000
0200
0000
0000
0000
0000
0000
0000
0000
0000
0000
0000
0000
0000
0000
0000
0000
1300
0000
0000
0000
0000
0000
0000
0000
2000
0000
0000
0000
0000
0000
0000
0000
0000
0000
0000
0000
0000
0000
0000
0000
,
3100
1000
0100
1000
0100
1000
0100
1000
0001
1000
0001
1000
0001
1000
0001
1000
,
0001
0010
0100
1000
0001
1000
0010
1000
0010
0100
0001
1000
0001
1000
0100
0010
,
0001
0100
0010
1000
0001
0100
0001
1000
0100
1000
0001
1000
0001
0010
0001
1000
,
0100
1000
0001
0100
0010
1000
0001
0100
0001
1000
0001
1000
0001
0010
0100
0010
,
0001
1000
0100
0010
0001
1000
0001
0100
0010
1000
0001
0100
0001
0010
0100
1000
,
0001
0100
0010
0100
0010
1000
0001
1000
0100
1000
0100
0010
0001
0100
0010
1000
,
0001
0100
0001
1000
0100
0010
0001
1000
0001
0010
0001
0100
0010
0100
0001
1000
,
0100
0010
0100
0010
0001
1000
0010
0100
0001
0100
0001
1000
0100
0010
0001
1000
,
0010
0100
0001
0100
0001
1000
0100
0010
0100
1000
0001
1000
0001
0100
0010
1000
,
0001
0010
0100
1000
0001
1000
0010
1000
0010
0100
0001
1000
0001
1000
0100
0010
,
0001
0100
0010
1000
0001
0100
0001
1000
0100
1000
0001
1000
0001
0010
0001
1000
,
0100
1000
0001
0100
0010
1000
0001
0100
0001
1000
0001
1000
0001
0010
0100
0010
,
0001
1000
0100
0010
0001
1000
0001
0100
0010
1000
0001
0100
0001
0010
0100
1000
,
0001
0100
0010
0100
0010
1000
0001
1000
0100
1000
0100
0010
0001
0100
0010
1000
,
0001
0100
0001
1000
0100
0010
0001
1000
0001
0010
0001
0100
0010
0100
0001
1000
,
0100
0010
0100
0010
0001
1000
0010
0100
0001
0100
0001
1000
0100
0010
0001
1000
,
0010
0100
0001
0100
0001
1000
0100
0010
0100
1000
0001
1000
0001
0100
0010
1000
,
0001
1000
0100
1000
0010
0100
0001
1000
0100
0010
0001
1000
0100
0010
0100
1000
,
0001
0100
0001
1000
0010
1000
0100
0010
0001
1000
0010
1000
0010
0100
0001
1000
,
0100
0010
0100
1000
0001
0100
0010
0100
0001
0010
0100
1000
0001
0010
0100
1000
,
0001
0100
0010
1000
0010
0100
0001
1000
0100
1000
0001
0010
0001
1000
0001
0100
,
0001
0010
0001
1000
0100
0010
0001
1000
0010
1000
0100
1000
0001
1000
0010
0100
,
0001
0010
0100
1000
0001
1000
0010
1000
0010
0100
0001
1000
0100
1000
0001
0010
,
0100
1000
0001
0100
0010
1000
0100
0010
0001
1000
0100
1000
0100
0010
0001
1000
,
0001
0010
0100
1000
0001
1000
0010
1000
0010
0100
0001
1000
0001
1000
0100
0010
,
0001
0100
0010
1000
0001
0100
0001
1000
0100
1000
0001
1000
0001
0010
0001
1000
,
0100
1000
0001
0100
0010
1000
0001
0100
0001
1000
0001
1000
0001
0010
0100
0010
,
0001
1000
0100
0010
0001
1000
0001
0100
0010
1000
0001
0100
0001
0010
0100
1000
,
0001
0100
0010
0100
0010
1000
0001
1000
0100
1000
0100
0010
0001
0100
0010
1000
,
0001
0100
0001
1000
0100
0010
0001
1000
0001
0010
0001
0100
0010
0100
0001
1000
,
0100
0010
0100
0010
0001
1000
0010
0100
0001
0100
0001
1000
0100
0010
0001
1000
,
0010
0100
0001
0100
0001
1000
0100
0010
0100
1000
0001
1000
0001
0100
0010
1000
,
0001
0010
0100
1000
0001
1000
0010
1000
0010
0100
0001
1000
0001
1000
0100
0010
,
0001
0100
0010
1000
0001
0100
0001
1000
0010
1000
0010
0100
0001
0100
0010
1000
,
0001
1000
0001
0010
0100
1000
0001
0010
0001
1000
0100
0010
0001
1000
0100
1000
,
0001
0100
0010
1000
0001
0010
0100
1000
,
0001
0010
0001
1000
0010
1000
0001
0100
,
0010
1000
0010
0100
0001
1000
0001
0010
0001
1000
0010
0100
0010
1000
0100
1000
,
0010
0100
0010
0100
0001
0010
0001
0100
0010
0100
0010
1000
0100
1000
0010
0100
,
0001
0010
0001
0011
0010
0100
1100
1000
,
0001
0000
0000
0000
0000
0000
1000
0000
0100
0000
1000
0000
0100
0000
0000
0000
0000
0000
0010
0000
0001
0000
0010
0000
0001
0000
0000
0000
0000
0000
1000
0000
0000
0001
0000
0000
0400
0000
0004
0000
0000
0000
0000
0000
0000
0000
0000
0000
,
0303
0000
0000
0000
;

//---------------dance-single - 14 (Zaia)----------------
#NOTES:
     dance-single:
     14 (Zaia):
     Medium:
     14:
     1.000,1.000,0.145,0.481,0.964,1923.000,40.000,133.000,0.000,0.000:
0000
0000
0000
0000
,
0000
0000
0000
0000
,
0000
0000
0000
0000
,
0000
0000
0000
0000
,
0000
0000
0000
0000
,
0000
0000
0000
0000
,
0000
0000
0000
0000
,
0000
0000
0000
0000
0000
0000
0000
1000
,
0001
0010
0000
0010
0000
0010
0000
0010
,
0001
1000
0000
1000
0000
1000
0000
1000
,
0010
0100
0000
0100
0000
0100
0000
0100
,
0001
0010
0000
0010
0000
0010
0000
0001
,
1000
0100
0000
0100
0000
0100
0000
0010
,
0001
1000
0000
1000
0000
1000
0000
1000
,
0001
0100
0010
1000
0001
0010
0100
1000
,
2001
0000
0000
0000
3001
0000
0100
0010
1000
0010
1000
0001
1000
0100
0010
0001
,
2000
0000
0000
0000
0000
0000
0000
0000
0100
0000
0000
0000
0000
0000
0000
0000
0100
0000
0000
0000
0000
0000
0000
3000
2000
0000
0000
0000
0000
0000
0000
0000
0001
0000
0000
0000
0000
0000
0000
0000
3001
0000
0000
0000
0000
0000
0000
0000
1000
0000
0000
0000
0000
0000
0000
0000
0010
0000
0000
0000
0000
0000
0000
0000
,
0100
0000
0001
0000
1000
0000
0100
0000
1000
0000
0010
1000
0001
0000
1000
0000
,
0020
0000
0000
0000
0000
0000
0000
0000
1000
0000
0000
0000
0000
0000
0000
0000
1000
0000
0000
0000
0000
0000
0000
0030
0020
0000
0000
0000
0000
0000
0000
0000
0100
0000
0000
0000
0000
0000
0000
0000
0130
0000
0000
0000
0000
0000
0000
0000
0001
0000
0000
0000
0000
0000
0000
0000
0010
0000
0000
0000
0000
0000
0000
0000
,
0100
0000
1000
0001
1000
0000
0001
0000
0021
0000
0032
0000
2003
0000
3020
0000
,
0230
0000
0000
0000
0000
0000
0000
0000
0001
0000
0000
0000
0000
0000
0000
0000
0001
0000
0000
0000
0000
0000
0000
0300
0200
0000
0000
0000
0000
0000
0000
0000
0010
0000
0000
0000
0000
0000
0000
0000
0310
0000
0000
0000
0000
0000
0000
0000
1000
0000
0000
0000
0000
0000
0000
0000
0010
0000
0000
0000
0000
0000
0000
0000
,
0100
0000
0010
0000
1000
0000
0001
0000
0010
0000
0100
1000
0010
0000
0100
0000
,
0002
0000
0000
0000
0000
0000
0000
0000
0010
0000
0000
0000
0000
0000
0000
0000
0010
0000
0000
0000
0000
0000
0000
0003
0002
0000
0000
0000
0000
0000
0000
0000
1000
0000
0000
0000
0000
0000
0000
0000
1003
0000
0000
0000
0000
0000
0000
0000
0001
0000
0000
0000
0000
0000
0000
0000
0100
0000
0000
0000
0000
0000
0000
0000
,
1002
0000
0000
0000
0103
0000
0010
1000
0100
0010
0100
0010
0001
0100
0010
1000
,
0002
0000
0000
0000
0000
0000
0000
0000
0100
0000
0000
0000
0000
0000
0000
0000
0100
0000
0000
0000
0000
0000
0000
0003
0002
0000
0000
0000
0000
0000
0000
0000
1000
0000
0000
0000
0000
0000
0000
0000
1003
0000
0000
0000
0000
0000
0000
0000
0100
0000
0000
0000
0000
0000
0000
0000
0010
0000
0000
0000
0000
0000
0000
0000
,
0001
0000
0100
0000
0010
0000
1000
0000
0001
0000
1000
0010
1000
0000
0001
0000
,
0200
0000
0000
0000
0000
0000
0000
0000
0010
0000
0000
0000
0000
0000
0000
0000
0010
0000
0000
0000
0000
0000
0000
0300
0200
0000
0000
0000
0000
0000
0000
0000
0001
0000
0000
0000
0000
0000
0000
0000
0301
0000
0000
0000
0000
0000
0000
0000
0010
0000
0000
0000
0000
0000
0000
0000
0100
0000
0000
0000
0000
0000
0000
0000
,
1000
0001
1000
0010
1020
2030
3200
0320
,
0032
0000
0000
0000
0000
0000
0000
0000
0100
0000
0000
0000
0000
0000
0000
0000
0100
0000
0000
0000
0000
0000
0000
0003
0002
0000
0000
0000
0000
0000
0000
0000
0010
0000
0000
0000
0000
0000
0000
0000
0013
0000
0000
0000
0000
0000
0000
0000
0100
0000
0000
0000
0000
0000
0000
0000
1000
0000
0000
0000
0000
0000
0000
0000
,
0010
0100
0001
0010
0100
1000
0010
0100
,
0001
0100
0010
1000
0002
0000
0000
0000
0013
0001
1000
0001
1000
0000
0000
0000
,
1001
0000
0000
0000
0101
0000
0000
0000
0100
0010
1000
0100
0010
0001
1000
0001
,
1000
0100
0010
0100
1000
0010
0100
0001
,
1000
0000
0001
0000
0010
0000
0001
0000
1000
0000
0100
0010
0001
0000
1000
0000
,
0010
0100
0010
1000
0100
0010
0001
0100
,
0001
0010
0100
1000
1001
0010
1001
1000
,
0001
1000
0010
1000
0001
0100
0001
0010
,
0100
0000
1000
0000
0010
0000
1000
0000
0001
0000
0010
0001
1000
0000
0010
0000
,
0100
0010
1000
0010
0100
0010
1000
0010
,
0100
0000
0001
0100
0001
0000
1000
0100
1000
0100
0010
0001
1000
0010
0100
0010
,
1000
0100
0010
0001
0100
0010
1000
0001
,
1000
0000
0010
0000
1000
0000
0100
0000
1000
0000
0010
0100
0010
0000
1000
0000
,
0001
0010
0010
0001
1000
1000
0001
0100
,
0100
0001
0001
1000
1002
0203
0320
2030
,
3100
0010
0100
1000
0001
0100
0010
0100
,
0001
1000
0100
1000
0001
0100
0001
1000
,
0100
0010
0001
1000
0200
0000
0000
0000
0310
0001
1000
0001
2000
3000
0000
0000
,
0002
0003
0000
0000
0200
0300
0000
0000
0010
1000
0001
1000
0001
0010
0100
1000
,
0002
0000
0000
0000
,
0023
0000
0000
0000
,
0032
0000
0000
0000
,
2003
0000
0000
0000
,
3020
0000
0000
0000
,
0230
0000
0000
0000
,
0301
1000
0010
0100
0002
0000
0000
0000
1003
0100
0010
0100
0010
0000
0000
0000
,
0100
1000
0001
1000
0001
0010
0100
1000
0001
1000
0001
0010
0100
1000
0010
0100
,
0002
0000
0000
0000
,
0203
0000
0000
0000
,
0320
0000
0000
0000
,
2030
0000
0000
0000
,
3002
0000
0000
0000
,
0023
0000
0000
0000
,
0130
1000
0001
0100
0020
0000
0000
0000
0130
0001
1000
0001
1000
0000
0000
0000
,
1001
0000
0000
0000
0101
0000
0000
0000
0001
0100
0010
1000
0001
0100
0010
1000
,
0002
0000
0000
0003
,
1000
0000
0000
0100
0100
0000
0000
0010
,
0000
0010
0000
0001
0010
0000
0000
0000
,
0100
0000
0000
1000
1000
0000
0100
0010
,
0000
0001
0020
0000
0230
0000
1300
0000
,
0011
0000
0000
0010
0001
0000
0000
1000
,
0000
1000
0000
0001
0001
0000
0000
0100
,
0001
0000
1000
0100
0000
0010
0002
0000
,
0000
0000
0000
0000
0000
0000
0000
0000
0000
0000
0000
0000
1003
0100
1000
0100
,
0010
0001
0100
0001
1000
0010
1000
0100
,
0010
0001
1000
0010
0100
0001
0100
0010
,
1000
0100
0010
0001
0100
0010
1000
0001
,
0010
0001
0100
0010
1000
1000
0001
0001
,
1000
0010
0100
0010
1000
0100
1000
0001
,
0100
0010
1000
0001
1000
0100
1000
0010
,
0200
0000
0000
0302
0000
0203
0320
2030
,
0000
0000
3100
0010
,
0001
0010
0100
1000
0010
1000
0100
1000
,
0001
0010
0001
0100
0001
1000
0010
0100
,
0001
1000
0100
0010
0001
1000
0100
1000
,
0001
1000
0010
0100
0001
1000
0001
1000
,
0100
1000
0001
0010
0100
0010
0001
0100
,
0010
1000
0100
0010
0001
1000
0001
0100
,
0001
1000
0001
0010
0100
1000
0001
1000
,
0100
1000
0001
1000
0001
0100
0010
0100
0010
1000
0001
1000
0100
0000
0000
0000
,
1000
0100
0010
0001
1000
0001
0100
0001
0100
0010
1000
0001
1000
0001
0010
0100
,
1000
0010
0100
0001
1000
0010
1000
0001
0010
0001
1000
0001
1000
0100
1000
0001
,
0010
0001
1000
0010
0100
0001
1000
0010
1000
0001
1000
0001
1000
0100
0010
0100
,
1000
0001
0010
0100
1000
0001
1000
0010
0100
0000
0010
0000
1000
0000
0001
0000
,
1000
0010
0100
0010
0100
0001
1000
0001
0010
0001
0010
0100
1000
0010
0100
0001
,
1000
0010
1000
0001
0010
0100
1000
0001
1000
0100
1000
0010
0100
0010
1000
0001
,
0010
0100
0010
0100
1000
0001
0100
0010
1000
0010
1000
0001
0010
0100
1000
0001
,
0200
0000
0000
0320
1030
0010
1000
0001
,
1000
0100
0010
0001
1000
0001
0100
0001
0100
0010
1000
0001
1000
0001
0010
0100
,
1000
0010
0100
0001
1000
0010
1000
0001
0010
0001
1000
0001
1000
0100
1000
0001
,
0010
0001
1000
0010
0100
0001
1000
0010
1000
0001
1000
0001
1000
0100
0010
0100
,
1000
0001
0010
0100
1000
0001
1000
0010
0100
0000
0010
0000
1000
0000
0001
0000
,
1000
0010
0100
0010
0100
0001
1000
0001
0010
0001
0010
0100
1000
0010
0100
0001
,
1000
0010
1000
0001
0010
0100
1000
0001
1000
0100
1000
0010
0100
0010
1000
0001
,
0010
0100
0010
0100
1000
0001
0100
0010
1000
0010
1000
0001
0010
0100
1000
0001
,
0200
0000
0000
0320
1030
0001
0010
0001
,
1000
0010
0100
0001
1000
0001
0010
0001
0010
0100
1000
0001
1000
0001
0100
0010
,
1000
0100
0010
0001
1000
0100
1000
0001
0100
0001
1000
0001
1000
0010
1000
0001
,
0100
0001
1000
0100
0010
0001
1000
0100
1000
0001
1000
0001
1000
0010
0100
0010
,
1000
0001
0100
0010
1000
0001
1000
0100
0010
0001
1000
0100
1000
0010
0100
0001
,
1000
0100
0010
0100
0010
0001
1000
0001
0100
0001
0100
0010
1000
0100
0010
0001
,
1000
0100
1000
0001
0100
0010
1000
0001
1000
0010
1000
0100
0010
0100
1000
0001
,
0100
0010
0100
0010
1000
0001
0010
0100
1000
0100
1000
0001
0100
0010
1000
0001
,
0010
0100
0010
0100
2000
0000
0000
0000
3001
0100
0010
0100
0001
0000
0000
0000
,
1000
0000
0001
0100
0000
0010
1000
0000
,
0001
0010
0000
0010
0100
1000
0010
0100
,
0001
1000
0001
0010
0000
0001
0010
0000
,
0001
1000
0000
1000
0010
0100
0010
1000
,
0001
1000
0001
0100
0010
0100
0010
1000
,
0010
1000
0001
0010
0001
1000
0010
1000
,
0001
1000
0001
0010
0100
0010
0001
1000
,
0010
0100
0001
1000
0100
1000
0100
0010
,
0011
0000
0101
0000
1010
0000
1001
1000
,
0010
1000
0000
0010
1000
0001
0010
0100
,
1100
0000
1001
0000
1100
0000
0011
0010
,
0001
1000
0000
0001
0010
0100
1000
0100
,
0110
0000
1100
0000
1010
0000
0101
0100
,
0010
1000
0000
0001
0101
0000
1001
0000
,
0110
0000
0000
0000
1001
0000
0000
0000
0001
0010
0001
0000
1001
0000
0000
0000
,
1000
0001
1000
0001
0100
0010
1000
0001
1000
0001
0100
0010
1000
0001
1000
0001
,
2000
0000
0000
0000
0000
0000
0000
0000
0010
0000
0000
0000
0000
0000
0000
0000
0010
0000
0000
0000
0000
0000
0000
3000
2000
0000
0000
0000
0000
0000
0000
0000
0001
0000
0000
0000
0000
0000
0000
0000
3001
0000
0000
0000
0000
0000
0000
0000
1000
0000
0000
0000
0000
0000
0000
0000
0100
0000
0000
0000
0000
0000
0000
0000
,
0010
0000
0001
0000
1000
0000
0010
0000
1000
0000
0100
1000
0001
0000
1000
0000
,
0200
0000
0000
0000
0000
0000
0000
0000
1000
0000
0000
0000
0000
0000
0000
0000
1000
0000
0000
0000
0000
0000
0000
0300
0200
0000
0000
0000
0000
0000
0000
0000
0010
0000
0000
0000
0000
0000
0000
0000
0310
0000
0000
0000
0000
0000
0000
0000
0001
0000
0000
0000
0000
0000
0000
0000
0100
0000
0000
0000
0000
0000
0000
0000
,
0010
0000
1000
0001
1000
0000
0001
0000
0201
0000
0302
0000
2003
0000
3200
0000
,
0320
0000
0000
0000
0000
0000
0000
0000
0001
0000
0000
0000
0000
0000
0000
0000
0001
0000
0000
0000
0000
0000
0000
0030
0020
0000
0000
0000
0000
0000
0000
0000
0100
0000
0000
0000
0000
0000
0000
0000
0130
0000
0000
0000
0000
0000
0000
0000
1000
0000
0000
0000
0000
0000
0000
0000
0100
0000
0000
0000
0000
0000
0000
0000
,
0010
0000
0100
0000
1000
0000
0001
0000
0100
0000
0010
1000
0100
0000
0010
0000
,
0002
0000
0000
0000
0000
0000
0000
0000
0100
0000
0000
0000
0000
0000
0000
0000
0100
0000
0000
0000
0000
0000
0000
0003
0002
0000
0000
0000
0000
0000
0000
0000
1000
0000
0000
0000
0000
0000
0000
0000
1003
0000
0000
0000
0000
0000
0000
0000
0001
0000
0000
0000
0000
0000
0000
0000
0010
0000
0000
0000
0000
0000
0000
0000
,
0001
1000
0001
1000
0010
0100
0001
0010
0100
1000
0100
1000
0001
1000
0001
1000
,
0002
0000
0000
0000
0000
0000
0000
0000
0010
0000
0000
0000
0000
0000
0000
0000
0010
0000
0000
0000
0000
0000
0000
0003
0002
0000
0000
0000
0000
0000
0000
0000
1000
0000
0000
0000
0000
0000
0000
0000
1003
0000
0000
0000
0000
0000
0000
0000
0010
0000
0000
0000
0000
0000
0000
0000
0100
0000
0000
0000
0000
0000
0000
0000
,
0001
0000
0010
0000
0100
0000
1000
0000
0001
0000
1000
0100
1000
0000
0001
0000
,
0020
0000
0000
0000
0000
0000
0000
0000
0100
0000
0000
0000
0000
0000
0000
0000
0100
0000
0000
0000
0000
0000
0000
0030
0020
0000
0000
0000
0000
0000
0000
0000
0001
0000
0000
0000
0000
0000
0000
0000
0031
0000
0000
0000
0000
0000
0000
0000
0100
0000
0000
0000
0000
0000
0000
0000
0010
0000
0000
0000
0000
0000
0000
0000
,
1000
0001
1000
0100
1200
2300
3020
0230
,
0302
0000
0000
0000
0000
0000
0000
0000
0010
0000
0000
0000
0000
0000
0000
0000
0010
0000
0000
0000
0000
0000
0000
0003
0002
0000
0000
0000
0000
0000
0000
0000
0100
0000
0000
0000
0000
0000
0000
0000
0103
0000
0000
0000
0000
0000
0000
0000
0010
0000
0000
0000
0000
0000
0000
0000
1000
0000
0000
0000
0000
0000
0000
0000
,
0100
0010
0001
0100
0010
1000
0100
0010
,
0011
0000
0000
0000
1001
0000
0000
0000
0001
1000
0010
1000
0001
0000
0000
0000
,
1000
0000
0001
0100
0001
1000
0010
0100
0001
1000
0001
0010
0100
1000
0001
0010
,
0100
0010
0100
0010
0001
0010
0100
1000
,
0001
0000
1000
0000
0010
0000
1000
0000
0001
0000
0100
0010
1000
0000
0001
0000
,
0010
0100
0010
0001
0100
0010
1000
0100
,
1000
0010
0100
0001
1001
0010
1001
0001
,
1000
0001
0010
0001
1000
0100
1000
0010
,
0100
0000
0001
0000
0010
0000
0001
0000
1000
0000
0010
1000
0001
0000
0010
0000
,
0100
0010
0001
0010
0100
0010
0001
0010
,
0100
0000
1000
0100
1000
0000
0001
0100
0001
0100
0010
1000
0001
0010
0100
0010
,
0001
0100
0010
1000
0100
0010
0001
1000
,
0001
0000
0010
0000
0001
0000
0100
0000
0001
0000
0010
0100
0010
0000
0001
0000
,
1000
0010
0010
1000
0001
0001
1000
0100
,
0100
1000
1000
0010
2001
3200
0320
0032
,
0103
0010
0100
0001
1000
0100
0010
0100
,
1000
0001
0100
0001
1000
0100
1000
0001
,
1001
0000
0000
0000
0101
0000
0000
0000
0010
1000
0001
1000
0002
0003
0000
0000
,
1000
0001
0010
0100
1000
0001
0100
0010
0100
0001
1000
0001
1000
0100
1000
0001
,
0020
0000
0130
2000
0000
3020
0000
2030
,
0000
0000
0000
0000
0000
3100
1000
0010
,
0200
0000
0301
0020
0000
0032
0000
0203
,
0000
0000
0302
2003
,
3001
0000
0001
0001
0000
0001
0000
0020
,
0000
0032
0000
2003
0000
3020
0000
2030
,
0000
3000
1000
2000
0000
3100
0010
0002
,
0000
0000
0000
0103
,
0020
0000
1030
0200
0000
0320
0000
0032
,
0000
0000
0000
0000
0000
0103
0010
1000
,
0002
0000
0103
0020
0000
2030
0000
3200
,
0000
0000
2300
3002
,
0023
0000
0130
1000
0000
1000
0000
1000
,
0020
0230
0302
0023
,
0130
0000
0100
0100
0000
0100
1000
0010
,
0100
0001
1000
0010
1000
0001
0100
0010
1000
0001
0100
0001
0100
0010
1000
0001
,
1000
0100
0010
0001
1000
0001
0100
0001
0100
0010
1000
0001
1000
0001
0010
0100
,
1000
0010
0100
0001
1000
0010
1000
0001
0010
0001
1000
0001
1000
0100
1000
0001
,
0010
0001
1000
0010
0100
0001
1000
0010
1000
0001
1000
0001
1000
0100
0010
0100
,
1000
0001
0010
0100
1000
0001
1000
0010
0100
0000
0001
0000
1000
0000
0001
0000
,
1000
0010
0100
0010
0100
0001
1000
0001
0010
0001
0010
0100
1000
0010
0100
0001
,
1000
0010
1000
0001
0010
0100
1000
0001
1000
0100
1000
0010
0100
0010
1000
0001
,
0010
0100
0010
0100
1000
0001
0100
0010
1000
0010
1000
0001
0010
0100
1000
0001
,
0200
0000
0000
0302
0000
0000
2003
0000
,
3001
0010
0100
1000
0001
1000
0010
1000
0010
0100
0001
1000
0001
1000
0100
0010
,
0001
0100
0010
1000
0001
0100
0001
1000
0100
1000
0001
1000
0001
0010
0001
1000
,
0100
1000
0001
0100
0010
1000
0001
0100
0001
1000
0001
1000
0001
0010
0100
0010
,
0001
1000
0100
0010
0001
1000
0001
0100
0010
0000
1000
0000
0010
0000
1000
0000
,
0001
0100
0010
0100
0010
1000
0001
1000
0100
1000
0100
0010
0001
0100
0010
1000
,
0001
0100
0001
1000
0100
0010
0001
1000
0001
0010
0001
0100
0010
0100
0001
1000
,
0100
0010
0100
0010
0001
1000
0010
0100
0001
0100
0001
1000
0100
0010
0001
1000
,
0200
0000
0000
2300
0000
0000
3020
0000
,
1030
0001
0010
0001
0100
0010
1000
0001
0010
0100
1000
0001
0010
0100
0010
0001
,
1000
0010
1000
0001
0100
0001
0010
0100
1000
0001
0100
0001
0100
0010
1000
0001
,
0010
0100
0010
0001
1000
0010
0100
0010
1000
0100
0010
0001
1000
0100
0010
0001
,
1000
0010
0100
0001
0100
0010
1000
0001
0010
0000
0100
0000
1000
0000
0001
0000
,
1000
0100
1000
0001
0010
0100
1000
0001
0100
0001
0010
0001
1000
0001
0100
0010
,
1000
0100
0010
0001
1000
0001
0100
0001
0100
0010
1000
0001
0010
0001
1000
0100
,
0010
0001
1000
0010
0100
0001
0010
0100
1000
0001
0010
0001
0010
0100
1000
0001
,
2000
0000
0000
3002
0000
0000
2003
0000
,
3001
0100
0010
1000
0001
0100
0001
1000
0100
1000
0001
1000
0001
0010
0001
1000
,
0100
1000
0001
0100
0010
1000
0001
0100
0001
1000
0001
1000
0001
0010
0100
0010
,
0001
1000
0100
0010
0001
1000
0001
0100
0010
1000
0001
0100
0001
0010
0100
1000
,
0001
0100
0010
0100
0010
1000
0001
1000
0100
0000
1000
0000
0100
0000
1000
0000
,
0001
0100
0001
1000
0100
0010
0001
1000
0001
0010
0001
0100
0010
0100
0001
1000
,
0100
0010
0100
0010
0001
1000
0010
0100
0001
0100
0001
1000
0100
0010
0001
1000
,
0010
0100
0001
0100
0001
1000
0100
0010
0100
1000
0001
1000
0001
0100
0010
1000
,
0002
0000
0000
0023
0000
0000
0230
0000
,
1300
0010
0100
0001
1000
0010
1000
0001
0100
0001
0100
0010
1000
0010
0100
0001
,
1000
0001
1000
0100
0010
0001
1000
0100
1000
0001
0010
0100
1000
0001
0010
0001
,
1000
0010
0100
0001
1000
0100
0010
0001
,
1000
0100
1000
0001
0100
0001
1000
0010
,
0100
0001
0100
0010
1000
0001
1000
0100
1000
0001
0100
0010
0100
0001
0010
0001
,
0100
0010
0100
0010
1000
0100
1000
0010
0100
0010
0100
0001
0010
0001
0100
0010
,
1000
0100
1000
1100
0100
0010
0011
0001
,
1000
0000
0001
0010
0001
0000
1000
0010
0100
0000
0001
0010
0100
1000
0001
1000
,
0020
0000
0000
0000
,
0030
0000
0000
0000
;
