#TITLE:QQQ;
#SUBTITLE:;
#ARTIST:TaQ;
#TITLETRANSLIT:;
#SUBTITLETRANSLIT:;
#ARTISTTRANSLIT:;
#CREDIT:;
#BANNER:QQQ.png;
#BACKGROUND:QQQ-bg.png;
#LYRICSPATH:;
#CDTITLE:!toph-cdtitle.png;
#MUSIC:QQQ.mp3;
#OFFSET:0.535;
#SAMPLESTART:75.250;
#SAMPLELENGTH:12.500;
#SELECTABLE:YES;
#BPMS:0.000=155.000;
#STOPS:;
#BGCHANGES:;
// cache tags:
#FIRSTBEAT:18.500;
#LASTBEAT:287.500;
#SONGFILENAME:Songs/Keyboard Collaboration II/Toph - QQQ/QQQ.sm;
#HASMUSIC:1;
#HASBANNER:1;
#MUSICLENGTH:112.881;
// end cache tags

//---------------dance-single - ----------------
#NOTES:
     dance-single:
     :
     Hard:
     11:
     1.000,1.000,1.000,0.009,0.966,735.000,178.000,1.000,0.000,0.000:  // measure 1
0000
0000
0000
0000
,  // measure 2
0000
0000
0000
0000
,  // measure 3
0000
0000
0000
0000
,  // measure 4
0000
0000
0000
0000
,  // measure 5
0000
0000
0000
0000
0000
0010
0001
0010
,  // measure 6
1001
0100
1100
0100
1000
0010
1001
0100
,  // measure 7
1010
0001
1001
0001
1000
0100
1010
0100
,  // measure 8
1001
0010
0011
0010
0001
1000
0101
1000
,  // measure 9
0001
0000
0100
0000
0010
0000
1000
0100
0010
0001
0100
0000
1010
0000
0100
0010
,  // measure 10
1001
0000
0100
0000
1100
0000
0100
0010
0001
0100
0010
0000
1010
0000
1000
0001
,  // measure 11
0100
0000
0010
0000
1010
0000
0010
0100
0001
1000
0100
0000
0011
0000
0001
1000
,  // measure 12
0010
0000
0100
0000
0101
0000
0100
0010
1000
0100
0010
0000
0011
0000
0001
1000
,  // measure 13
0010
0000
0100
0000
0101
0000
0100
0010
1000
0100
0010
0000
0001
0000
1010
0000
,  // measure 14
0100
0000
0010
0000
0110
0000
0010
0100
0001
1000
0100
0000
0011
0000
0001
0100
,  // measure 15
0010
0000
1000
0000
1001
0000
1000
0100
0010
0001
0100
0000
1010
0000
0010
0100
,  // measure 16
0001
0000
1000
0000
1100
0000
1000
0001
0100
0010
1000
0000
1001
0000
1000
0100
,  // measure 17
0010
0001
0101
1001
0010
1000
0100
1010
,  // measure 18
1001
0000
0100
0000
0110
0000
0010
0001
1000
0010
0100
0000
1001
0000
0010
0001
,  // measure 19
1000
0000
0010
0000
0110
0000
0100
0001
1000
0100
0010
0001
0100
0000
0010
1000
,  // measure 20
0001
0000
0010
0000
0110
0000
0100
1000
0001
0100
0010
0000
1010
0000
1000
0100
,  // measure 21
0010
0000
0001
0000
1001
0000
1000
0010
1000
0100
0010
0001
0100
0000
1010
0000
,  // measure 22
1001
0000
0100
0000
0101
0000
0001
1000
0010
0100
0001
0000
1100
0000
0010
0001
,  // measure 23
1000
0000
0010
0000
0110
0000
0100
0001
1000
0100
0010
0001
0100
0000
0010
1000
,  // measure 24
0100
0000
0010
0000
0011
0000
0001
1000
0010
1000
0100
0000
1001
0000
0010
0001
,  // measure 25
1000
0000
0011
0000
0100
0000
0011
0000
1000
0000
0011
1000
0100
0000
0110
0000
,  // measure 26
1001
0000
0010
0000
1100
0000
0010
0001
1000
0010
0100
0000
0011
0000
0100
1000
,  // measure 27
0010
0000
0100
0000
0101
0000
1000
0100
0010
0001
0100
0010
1001
0000
0101
0010
,  // measure 28
1000
0000
0001
0000
0101
0000
0001
1000
0010
0100
0001
0000
1100
0000
0010
0001
,  // measure 29
1000
0000
0100
0000
1100
0000
0010
0001
0100
0010
1000
0001
0110
0000
1001
0100
,  // measure 30
0010
0000
1000
0000
1100
0000
0010
0001
1000
0010
0100
0000
0011
0000
0100
1000
,  // measure 31
0001
0000
0100
0000
0110
0000
1000
0100
0010
0001
1000
0010
0101
0000
1010
0001
,  // measure 32
0100
0000
0010
0000
1001
0000
0100
0010
1000
0001
0010
0000
1100
0000
0001
0100
,  // measure 33
0010
0000
1001
0000
0100
0000
1001
0000
0010
0100
0001
0010
0100
0000
1100
0000
,  // measure 34
1001
0000
0100
0000
0010
0000
0001
1000
0000
0000
0010
0000
0100
0000
0011
0000
,  // measure 35
1000
0000
0100
0000
0010
0000
0001
0100
0000
0000
0010
0000
1000
0000
0101
0000
,  // measure 36
0010
0000
0100
0000
0001
0000
1000
0100
1000
0000
0001
0000
0100
0000
1010
0000
,  // measure 37
0001
0000
0010
0000
0100
0000
1000
0010
0000
0000
0100
0000
0001
0000
1100
0000
,  // measure 38
0011
0000
1000
0000
0010
0000
0100
0001
0000
0000
0000
0000
0000
0000
0100
0000
,  // measure 39
0010
0000
1000
0000
0001
0000
0010
0100
0000
0000
0000
0000
0000
0000
1000
0000
,  // measure 40
0000
0000
0002
0000
0003
0000
0010
0100
0000
0000
0000
0000
0000
0000
1000
0000
,  // measure 41
0000
0000
0000
0000
0000
0000
0000
1000
,  // measure 42
0011
1000
0001
0000
0110
0000
1000
0000
0011
1000
0001
0100
0010
0000
1001
0000
,  // measure 43
0110
1000
0001
0000
1010
0000
0001
0000
0110
1000
0001
0010
0100
0000
0011
0000
,  // measure 44
1100
0001
0100
0000
1010
0000
0001
0000
0110
1000
0001
0010
0100
0000
1001
0000
,  // measure 45
0110
0001
1000
0000
0110
0000
0001
0000
1010
0001
0100
0010
1000
0000
0110
0000
,  // measure 46
0011
1000
0100
0000
1010
0000
0001
0000
0110
1000
0001
0010
0100
0000
1001
0000
,  // measure 47
1010
0001
0100
0000
1001
0000
0010
0000
1100
0010
0001
0100
0010
0000
1010
0000
,  // measure 48
1001
0000
0000
0100
0000
0000
0010
0000
0000
0000
0000
0000
1001
0000
0000
0000
0000
0000
0001
0000
0100
0000
0010
0000
1000
0000
0000
0100
0000
0000
0010
0000
0000
0001
0000
0000
1000
0000
0000
0010
0000
0000
0100
0000
0001
0000
1000
0000
,  // measure 49
0100
0000
0000
0010
0000
0000
0001
0000
0000
1000
0000
0000
0100
0000
0010
0000
0001
0000
1000
0000
0000
0010
0000
0000
0100
0000
0001
0000
1000
0000
0100
0000
0000
0010
0000
0000
0001
0000
0100
0000
0010
0000
1000
0000
0100
0000
0010
0000
,  // measure 50
1001
0100
0010
1000
0001
0000
0010
0100
1000
0001
0100
0010
1000
0000
0011
1000
,  // measure 51
0001
0100
0010
1000
0001
0000
0010
0100
1000
0010
0100
0001
0010
0000
1100
0000
,  // measure 52
1001
0100
0010
0001
1000
0000
0010
0100
0001
1000
0100
0010
0001
0000
1010
0001
,  // measure 53
1000
0010
0100
0001
0010
0000
0100
1000
0001
0100
0010
1000
0101
0000
1010
0000
,  // measure 54
1001
0010
0100
1000
0010
0000
0100
0001
1000
0100
1000
0010
0100
0000
0011
1000
,  // measure 55
0001
0100
0010
1000
0001
0000
1000
0100
0010
0001
0100
0010
1000
0000
0110
0000
,  // measure 56
1001
0100
0010
1000
0001
0000
0010
0100
1001
0010
0100
0001
1000
0000
1001
0100
,  // measure 57
0010
0100
1001
0010
0100
0000
1001
0100
1001
0010
0100
0010
1001
0000
0110
0000
,  // measure 58
0001
0010
1100
0001
0100
0010
1001
0100
0010
1000
0101
0010
1000
0000
0011
0000
,  // measure 59
0100
1000
0011
0100
0010
1000
0110
0001
1000
0010
0100
1001
0010
0000
1100
0000
,  // measure 60
0010
0001
1010
0100
0010
1000
0101
0010
1000
0100
0011
1000
0010
0000
1001
0000
,  // measure 61
0100
0010
1001
0100
0001
0100
0010
1100
0011
0100
1001
0010
0100
0000
1001
0000
,  // measure 62
0010
0001
0110
1000
0001
0100
1001
0010
1000
0100
1001
0010
0001
0000
0100
1001
,  // measure 63
0010
0100
1001
0010
0001
1000
0011
0100
0010
1000
0101
0010
1000
0000
0110
0000
,  // measure 64
0010
0100
1001
0010
0100
0001
1010
0100
0001
1000
0101
0010
1000
0000
0101
0000
,  // measure 65
0010
0101
1000
0011
1000
0101
1000
0011
0100
1001
0010
1001
0100
1001
0010
1001
,  // measure 66
0100
0000
0011
1000
0010
0100
0101
0110
,  // measure 67
0010
0000
1000
0000
1100
0000
1000
0000
0001
0100
1000
0000
1010
0000
0101
0000
,  // measure 68
0010
0000
1000
0000
1001
0000
1000
0000
0100
0010
0001
0000
1010
0000
0101
0000
,  // measure 69
0010
0000
0100
0000
1100
0000
0100
0000
0010
0001
1000
0000
1100
0000
0011
0000
,  // measure 70
1001
0000
0100
0000
1001
0000
1000
0000
0110
0000
0001
0000
0100
0010
1000
0000
,  // measure 71
0001
1010
1001
0100
0110
0100
0011
1100
,  // measure 72
1010
0000
0101
0000
1000
0000
1100
0000
1000
0100
0001
0000
0101
0000
1000
0000
;
