#TITLE:Anarchaos;
#SUBTITLE:;
#ARTIST:Divine Heresy;
#TITLETRANSLIT:;
#SUBTITLETRANSLIT:;
#ARTISTTRANSLIT:;
#CREDIT:MURDER.V01DKeng07;
#BANNER:Anarchaos-bn.png;
#BACKGROUND:Anarchaos-bg.png;
#LYRICSPATH:;
#CDTITLE:Murder-cd-title.png;
#MUSIC:Anarchaos.ogg;
#OFFSET:-0.298;
#SAMPLESTART:70.920;
#SAMPLELENGTH:11.740;
#SELECTABLE:YES;
#DISPLAYBPM:210.000:230.000;
#BPMS:0.000=230.000,391.000=210.000,451.000=220.000,547.000=110.000,571.000=220.000,667.000=230.000;
#STOPS:694.000=2.087
;
#BGCHANGES:0.000=Anarchaos-bg.png=1.000=0=0=1,
99999=-nosongbg-=1.000=0=0=0 // don't automatically add -songbackground-
;
// cache tags:
#FIRSTBEAT:7.000;
#LASTBEAT:1004.500;
#SONGFILENAME:Songs/SSSC Pack 2/Anarchaos - [VO1D]/Anarchaos.sm;
#HASMUSIC:1;
#HASBANNER:1;
#MUSICLENGTH:278.804;
// end cache tags

//---------------dance-single - V01DKeng07----------------
#NOTES:
     dance-single:
     V01DKeng07:
     Challenge:
     16:
     1.000,1.000,0.395,0.269,1.000,2420.000,110.000,75.000,50.000,0.000:

0000
0000
0000
0000
,
0000
0000
0000
0000
0000
0000
0011
M000
,
0000
1001
00M0
0000
1010
0M00
0000
0000
,
001M
0M10
001M
101M
,
0M00
1001
0000
M000
0011
0000
M001
0000
,
0M01
0000
0000
0000
0010
0001
1000
0001
1000
0000
0000
0000
0110
0000
000M
0000
,
0000
0000
1100
0000
00M0
0000
0000
0000
M011
0000
0000
0000
0001
1000
0001
0100
,
0010
1000
0010
1000
0001
1000
0100
0010
0001
0010
0100
1000
0001
0000
0100
0000
,
0010
0000
1010
0000
1000
0000
0001
0000
0010
0000
M000
0000
0001
1000
0001
1000
,
0001
1000
0001
1000
0001
1000
0001
1000
0001
0000
0000
0000
0011
0000
0010
0000
,
0001
0000
1001
0000
1000
0000
0010
0000
0120
0000
0000
0000
0130
0001
0100
0001
,
0100
0001
0100
0001
0100
0001
0100
0001
0100
0001
0100
0001
0100
0000
0010
0000
,
1000
0000
1001
0000
0001
0000
0010
0000
0021
0000
0000
0000
0031
0010
0001
0010
,
0001
0010
0001
0010
0001
0010
0001
0010
0001
0010
0001
0010
0001
0000
1000
0000
,
0010
0000
1010
0000
1000
0000
0001
0000
1002
0000
0000
0000
1003
0100
1000
0100
,
1000
0100
1000
0100
1000
0100
1000
0100
1000
0100
1000
0100
1000
0000
0010
0000
,
0100
0000
0101
0000
0001
0000
1000
0000
0100
0010
0001
0010
0100
1000
0001
0100
,
0010
1000
0001
1000
0100
0010
0001
1000
0001
0000
0MM0
0000
1000
0010
1000
0010
,
1000
0000
0000
0000
0001
0000
0010
0000
0001
0000
1000
0000
0010
1000
0010
1000
,
0010
0000
0000
0000
1000
0000
0100
0000
0010
0000
0001
0000
0010
0001
0010
0001
,
0010
0000
0000
0000
0001
1000
0001
1000
0001
0000
0000
0000
0101
0000
1000
0000
,
0100
0000
0010
0000
0001
1000
0001
1000
0001
0000
1000
0000
0100
0010
0001
0010
,
0100
0000
0000
0000
1000
0000
0001
0000
0100
0000
0010
0000
0100
0001
0100
0001
,
0100
0000
0000
0000
0010
0000
1000
0000
0001
0000
1000
0000
0100
1000
0100
1000
,
0100
0000
0000
0000
0010
0001
0010
0001
0010
0000
0000
0000
0011
0000
0001
0000
,
1000
0000
0001
0000
0010
0100
1000
0100
0010
0000
0001
0000
1000
0001
1000
0001
,
0100
0000
0000
0000
1010
0000
0010
0000
1000
0000
0001
0000
0010
0001
0010
0100
,
1000
0000
0000
0000
1100
0000
0100
0000
1000
0000
0001
0000
0100
0010
1000
0001
,
0100
0000
0000
0000
0010
0100
0001
1000
0001
0000
0000
0000
1001
0000
1000
0000
,
0100
0000
0010
0000
0100
1000
0100
0010
0001
0000
1000
0000
0001
0100
0010
1000
,
0010
0000
0000
0000
1010
0000
1000
0000
0001
0000
0010
0000
0001
0010
0100
1000
,
0001
0000
0000
0000
1001
0000
1000
0000
0001
0000
0010
0000
0100
1000
0100
0010
,
0001
0000
0000
0000
1000
0001
0100
0010
0100
0000
0000
0000
0101
0000
0001
0000
,
1000
0000
0100
0000
1000
0001
1000
0001
0100
0000
0010
1000
0001
1000
0100
0010
,
0001
0010
0100
1000
0001
1000
0001
1000
0100
0000
00M0
0000
1000
0000
0001
0000
,
0100
0000
0110
0000
0010
0000
1000
0000
2001
0000
0000
0000
3001
1000
0001
1000
,
0001
1000
0001
1000
0001
1000
0001
1000
0001
1000
0001
1000
0001
0000
0100
0000
,
0010
0000
1010
0000
1000
0000
0001
0000
0012
0000
0000
0000
0013
0001
0010
0001
,
0010
0001
0010
0001
0010
0001
0010
0001
0010
0001
0010
0001
0010
0000
0100
0000
,
1000
0000
1100
0000
0100
0000
1000
0000
1002
0000
0000
0000
0103
0010
0100
0010
,
0100
0010
0100
0010
0100
0010
0100
0010
0100
0010
0100
0010
0100
0000
0001
0000
,
1000
0000
1001
0000
0001
0000
0010
0000
0001
0010
0100
1000
0100
0010
0001
1000
,
0001
0100
0010
1000
0001
1000
0001
1000
0100
0000
M000
0000
0010
0001
0010
0001
,
0010
0000
0000
0000
0001
0000
1000
0000
0001
0000
0100
0000
0010
1000
0010
1000
,
0010
0000
0000
0000
1000
0000
0100
0000
0010
0000
0001
0000
1000
0100
1000
0100
,
1000
0000
0000
0000
0001
0100
0001
0100
0001
0000
0000
0000
0110
0000
0010
0000
,
1000
0000
0001
0000
0010
0001
1000
0001
1000
0000
0001
0000
1000
0100
1000
0100
,
1000
0000
0000
0000
0110
0000
0100
0000
0001
0000
1000
0000
0001
0010
0100
1000
,
0001
0000
0000
0000
0011
0000
0010
0000
0100
0000
1000
0000
0001
0100
0001
0100
,
0010
0000
0000
0000
1000
0010
1000
0010
0100
0000
0000
0000
0101
0000
0001
0000
,
1000
0000
0100
0000
1000
0001
1000
0001
0010
0000
0000
0000
0001
0100
0001
0100
,
0010
0000
0000
0000
1010
0000
1000
0000
0001
0000
1000
0000
0100
0010
0001
0010
,
0100
0000
0000
0000
1010
0000
1000
0000
0010
0000
0100
0000
0001
0100
0010
1000
,
0010
0000
0000
0000
0100
0010
0100
0001
0100
0000
0000
0000
0101
0000
0001
0000
,
1000
0000
0100
0000
0010
0001
0010
0100
1000
0000
0001
0000
0100
0010
0100
0010
,
0100
0000
0000
0000
1001
0000
0001
0000
1000
0000
0100
0000
0010
0001
0010
0001
,
1000
0000
0000
0000
1010
0000
0010
0000
0100
0000
0001
0000
0100
0010
0100
0010
,
1000
0000
0000
0000
0001
1000
0001
1000
0100
0000
0000
0000
0011
0000
1000
0000
,
0100
0000
1000
0000
0001
0100
0001
0100
0010
0000
1000
0001
1000
0001
0010
0100
,
1000
0100
0010
0001
1000
0100
1000
0001
0100
0010
1000
0010
0100
0001
1000
0001
,
1000
0000
0001
1000
0200
0000
0310
0100
,
1000
0001
1001
0000
0000
0000
1010
0000
,
0000
0000
0000
0000
0001
1000
0001
1000
0200
0000
0000
0000
0310
0000
0001
0000
,
1000
0010
1010
0000
0000
0000
0110
0000
,
0000
0000
0000
0000
0100
0001
0100
0001
2000
0000
0000
0000
3010
0000
1000
0000
,
0001
0000
0010
0000
0011
0000
0000
0000
0000
0000
0000
0000
0001
1000
0001
1000
,
0001
0000
0000
0000
0100
0010
0100
0010
0100
0000
0000
0000
0001
1000
0001
1000
,
0001
0000
0000
0000
1000
0100
0010
0001
0010
0100
1000
0001
1000
0010
1000
0010
,
1000
0000
0011
0001
2000
0000
3100
1000
,
0001
0100
0101
0000
0000
0000
1010
0000
,
0000
0000
0000
0000
0010
1000
0001
1000
0002
0000
0000
0000
0013
0000
0001
0000
,
1000
0001
0101
0000
0000
0000
1100
0000
,
0000
0000
0000
0000
0001
1000
0001
1000
0200
0000
0000
0000
1300
0000
0001
0000
,
0100
0000
0010
0000
0110
0000
0000
0000
0000
0000
0000
0000
0100
0010
0100
0010
,
0100
0000
0000
0000
0001
1000
0001
1000
0001
0000
0000
0000
0100
0010
0100
0010
,
0100
0001
1000
0001
1000
0100
0010
0001
1000
0100
0010
0001
1000
0001
1000
0001
,
1000
0000
1100
0100
2000
0000
3001
1000
,
0100
1000
1002
0000
0100
0000
0010
0000
,
0000
0000
0000
0000
0103
0010
1000
0010
2000
0000
0000
0000
3001
0000
0010
0000
,
0100
1000
2100
0000
0001
0000
0100
0000
,
0000
0000
0000
0000
3010
0100
0010
0100
0002
0000
0000
0000
0013
0000
0001
0000
,
1000
0000
0001
0000
2001
0000
0000
0000
0000
0000
0000
0000
3010
1000
0001
1000
,
0001
0000
0000
0000
0010
0001
1000
0001
1000
0000
0000
0000
0010
1000
0001
1000
,
0001
0010
0100
1000
0001
0010
0100
0010
0001
1000
0001
1000
0010
0100
0010
0100
,
0010
0000
1010
1000
0002
0000
0013
0100
,
1000
0100
0020
0000
0001
0000
0100
0000
,
1000
0000
0000
0000
0031
1000
0001
1000
0020
0000
0000
0000
0130
0000
0001
0000
,
1000
0100
2100
0000
0010
0000
0100
0000
,
0001
0000
0000
0000
3010
1000
0001
1000
0002
0000
0000
0000
0013
0000
0001
0000
,
1000
0000
0010
0000
2010
0000
0000
0000
0001
0000
0000
0000
3100
1000
0100
0010
,
0001
0000
0000
0000
0100
0010
1000
0001
0100
0000
0000
0000
0001
0010
0100
1000
,
0001
0000
0000
0000
1000
0100
0010
0001
1000
0000
0000
0000
0010
1000
0010
1000
,
0001
0000
0000
0000
1000
0100
0010
0001
1000
0000
0000
0000
0001
0100
0010
1000
,
0010
0000
0000
0000
0100
0001
0100
0010
1000
0000
0000
0000
0001
0010
0100
1000
,
0002
0000
0000
0000
0013
0100
1000
0001
0200
0000
0000
0000
0310
1000
0010
0100
,
0002
0000
0000
0000
1003
0100
0010
0001
2000
0000
0000
0000
3010
0100
0010
0100
,
0001
0100
0010
1000
0010
0100
0001
1000
0100
0010
0001
1000
0100
0010
0100
1000
,
0001
1000
0001
0100
0010
1000
0010
0100
0001
0100
0001
1000
0001
0000
0000
0000
,
M000
0M00
00M0
0M00
,
M000
000M
0M00
00M0
,
1000
0010
1000
0000
0001
0000
0010
0000
0002
0000
0003
0000
1001
0000
1000
0000
,
0100
1000
0020
0000
0130
0001
0100
0010
,
2000
0000
3001
0010
0100
1000
0020
0000
,
0130
1000
0100
0010
0200
0000
0301
1000
,
0100
0001
0200
0000
1300
0010
0001
0010
,
2000
0000
3001
0010
1000
0010
0002
0000
,
0103
0010
1000
0001
0020
0000
0031
0010
,
0100
1000
1001
0000
0100
0010
1000
0001
,
0011
0000
0010
0100
1000
0001
1010
0000
,
0100
0000
0001
0000
1000
0000
0010
0000
0101
0000
0000
0000
1000
0001
1000
0100
,
0010
0001
0010
0100
1000
0001
1000
0010
0100
0001
1000
0100
0010
0001
1000
0100
,
0010
0100
1000
0100
0010
0001
1000
0001
0100
0010
1000
0010
0100
0001
0100
0010
,
1000
0010
0100
0001
1000
0001
0010
0100
2000
0000
0000
0000
3001
0100
0001
0100
,
0001
0100
0001
0100
0001
0000
0000
0000
1000
0001
1000
0001
1000
0001
1000
0001
,
1000
0000
0000
0000
0100
1000
0100
1000
0100
1000
0100
1000
0100
0000
0000
0000
,
1000
0010
1000
0010
1000
0010
1000
0010
1000
0000
0000
0000
0001
0100
0001
0100
,
0001
0100
0001
0100
0001
0000
0000
0000
1000
0001
1000
0001
1000
0001
1000
0001
,
1000
0000
0000
0000
0001
0010
0001
0010
0001
0010
0001
0010
0001
0000
0000
0000
,
1000
0100
1000
0100
1000
0100
1000
0100
1000
0000
0000
0000
0001
1000
0001
1000
,
0001
1000
0001
1000
0001
0000
0000
0000
0100
0010
0100
0010
0100
0010
0100
0010
,
0100
0000
0000
0000
0010
1000
0010
1000
0010
1000
0010
1000
0010
0000
0000
0000
,
1000
0001
1000
0001
1000
0001
1000
0001
1000
0000
0000
0000
0001
0010
0001
0010
,
0001
0010
0001
0010
0001
0000
0000
0000
0100
0001
0100
0001
0100
0001
0100
0001
,
0100
0000
0000
0000
0010
1000
0010
1000
0010
1000
0010
1000
0010
0000
0000
0000
,
1000
0100
0010
0001
1000
0100
0010
0100
1000
0001
0100
0010
1000
0001
0010
0100
,
1000
0001
1000
0010
0100
0001
0100
0010
1000
0001
1000
0001
0010
0100
1000
0100
,
0010
0001
1000
0100
1000
0010
0100
0001
0100
0010
1000
0010
0100
0001
1000
0001
,
0010
0100
1000
0100
0010
0001
1000
0100
1000
0010
0100
0001
0100
0010
1000
0010
,
0100
0001
1000
0001
0010
0001
0010
0100
1000
0100
1000
0001
1000
0001
0100
0010
,
1000
0010
0100
0001
1000
0100
0010
0001
0010
0100
1000
0001
0100
0010
1000
0001
,
0010
0100
1000
0100
0010
0001
1000
0001
0100
0010
1000
0010
0100
0001
1000
0001
,
0010
0100
0010
0001
1000
0100
1000
0010
0100
0001
0100
0010
1000
0010
0100
0001
,
1000
0100
0010
0100
1000
0001
0100
0010
0100
0001
1000
0001
0010
0100
1000
0100
,
0010
0001
1000
0100
1000
0010
0100
0001
0100
0010
1000
0010
1000
0001
1000
0001
,
0010
0100
1000
0100
1000
0001
1000
0001
0100
0010
1000
0010
0100
0001
1000
0001
,
0010
0100
1000
0100
0010
0001
1000
0100
1000
0010
0100
0001
1000
0001
1000
0001
,
0010
0100
1000
0001
0100
0010
1000
0010
0100
0001
1000
0001
2000
0000
0000
0000
,
000M
00M0
0M00
00M0
,
000M
3000
0M00
0000
00M0
0000
M000
0000
,
000M
0M00
000M
M000
,
0M00
00M0
000M
00M0
,
0M00
M000
000M
0M00
,
00M0
0000
0000
0000
M000
0000
0000
0000
000M
0000
0000
0000
0001
0010
0100
1000
,
0100
0010
0001
1000
0001
0000
0000
0000
1000
0010
0100
0001
0100
0010
1000
0001
,
0100
0000
0000
0000
0010
1000
0001
1000
0100
0010
0001
1000
0100
0000
0000
0000
,
0010
0001
0010
0100
1000
0001
0100
0010
1000
0000
0000
0000
0001
1000
0010
0100
,
0001
1000
0001
1000
0100
0000
0000
0000
0010
0100
1000
0100
0010
0001
1000
0001
,
0100
0000
0000
0000
0010
1000
0001
0100
0010
0100
0001
1000
0001
0000
0000
0000
,
1000
0100
0010
0001
1000
0001
0010
0100
1000
0000
0000
0000
0001
0100
0010
1000
,
0010
0100
0001
1000
0001
0000
0000
0000
1000
0001
0010
0100
1000
0100
0010
0001
,
1000
0000
0000
0000
0001
0100
0010
1000
0001
1000
0100
0010
0001
0000
0000
0000
,
0100
0010
1000
0010
0100
0001
0100
0010
1000
0000
0000
0000
0010
0100
0001
1000
,
0001
0010
0100
1000
0001
0000
0000
0000
1000
0100
0010
0001
1000
0001
0010
0100
,
1000
0000
0000
0000
0010
0100
0001
0100
0010
1000
0001
1000
0100
0010
0001
1000
,
0001
0100
0010
1000
0001
1000
0100
0010
0001
1000
0100
0010
0001
0010
0100
1000
,
0001
0010
0100
1000
0001
0100
0010
1000
0010
0100
0001
1000
0010
1000
0100
0010
,
0001
1000
0001
0010
0001
1000
0100
1000
0010
0100
0001
0100
0010
1000
0001
1000
,
0100
0010
0100
1000
0100
0010
0001
1000
0001
0100
0001
0100
0010
1000
0010
1000
,
0001
1000
0100
1000
0010
0100
0001
0100
0001
0010
0100
1000
0100
1000
0010
0100
,
0001
0100
0010
1000
0001
0010
0100
1000
0100
0010
0100
1000
0100
0010
0001
1000
,
0100
1000
0010
0100
0001
1000
0001
0010
0100
0010
0001
1000
0100
1000
0010
0100
,
0001
0100
0010
1000
0001
0010
0001
1000
0100
1000
0010
0100
0001
1000
0001
0010
,
0100
1000
0100
0010
0001
1000
0100
1000
0001
1000
0001
0100
0001
0100
0010
1000
,
0010
1000
0001
0010
0100
1000
0100
0010
0001
1000
0100
1000
0001
1000
0010
0100
,
0010
1000
0001
1000
0001
0010
0100
1000
0001
0010
0100
1000
0001
1000
0001
1000
,
0010
1000
0010
1000
0001
1000
0100
0010
0001
1000
0100
0010
0001
1000
0001
0100
,
0010
1000
0001
1000
0001
0010
0100
0010
0001
1000
0001
1000
0010
0000
0000
0000
,
0000
1010
0000
0000
1001
0000
0001
0000
,
0001
0001
0001
0011
,
0000
1100
0000
0000
1010
0000
0100
0000
,
0100
0000
0000
0000
0010
1000
0001
1000
0001
0000
0000
0000
1100
0000
0000
0000
,
0000
0000
0011
0000
0000
0000
0000
0000
1001
0000
0000
0000
0100
0000
0010
1000
,
0001
1000
0001
0010
0100
1000
0100
0010
0001
1000
0001
1000
0010
0000
0100
0000
,
0001
0000
1001
0000
1000
0000
0100
0000
0120
0000
0000
0000
0031
1000
0001
1000
,
0001
0000
0000
0000
0100
0000
0010
0000
1000
0000
0001
0000
1000
0100
1000
0100
,
1000
0000
0000
0000
0001
0000
0100
0000
0010
0000
0100
0000
0001
1000
0001
1000
,
0001
0000
0000
0000
0010
0001
0010
0001
0010
0000
0000
0000
0100
0000
1000
0000
,
0001
0000
1000
0000
0010
1000
0010
0100
0001
0000
1000
0000
0100
0010
0001
0010
,
0100
0000
0000
0000
1000
0000
0001
0000
0100
0000
0010
0000
1000
0001
1000
0001
,
0010
0000
0000
0000
0100
0000
1000
0000
0100
0000
0010
0000
0001
1000
0001
0100
,
0010
0000
0000
0000
0100
0010
1000
0001
0100
0000
0000
0000
0110
0000
0010
0000
,
1000
0000
0001
0000
1000
0100
0010
0001
1000
0000
0010
0000
0100
0001
0100
0010
,
1000
0000
0001
0000
0011
0000
0010
0000
0001
0000
1000
0000
0010
1000
0010
1000
,
0010
0000
0100
0000
0101
0000
0001
0000
1000
0000
0100
0000
0010
0001
0010
0100
,
1000
0000
0100
0000
1000
0001
1000
0001
0100
0000
0010
0000
0110
0000
0100
0000
,
0001
0000
1000
0000
0001
0010
0001
0010
0001
0000
1000
0000
0010
1000
0001
1000
,
0001
0000
0000
0000
0011
0000
0010
0000
0100
0000
1000
0000
0001
1000
0001
0100
,
0010
0000
0000
0000
1010
0000
1000
0000
0001
0000
0010
0000
0100
1000
0100
1000
,
0001
0000
0000
0000
0100
0001
0100
0010
1000
0000
0000
0000
0110
0000
0010
0000
,
1000
0000
0001
0000
0010
0001
0010
0100
1000
0001
0100
0001
0100
0010
1000
0001
,
1000
0100
0010
0001
1000
0001
0100
0010
1000
0000
0001
0000
0010
0001
1000
0001
,
1000
0000
1010
0010
0200
0000
0301
1000
,
0001
0010
0011
0000
0000
0000
1001
0000
,
0000
0000
0000
0000
1000
0010
1000
0001
2000
0000
0000
0000
3001
0000
0010
0000
,
0100
1000
1100
0000
0000
0000
1001
0000
,
0000
0000
0000
0000
0001
0100
0010
1000
0020
0000
0000
0000
0130
0000
0001
0000
,
1000
0000
0001
0000
1001
0000
0000
0000
0000
0000
0000
0000
1000
0100
0010
0001
,
1000
0000
0000
0000
0001
0010
0100
1000
0001
0000
0000
0000
0100
0010
1000
0001
,
0100
0000
0000
0000
0010
1000
0001
1000
0010
0100
0001
1000
0001
1000
0100
1000
,
0100
0000
0011
0001
2000
0000
3010
1000
,
0001
1000
1100
0000
0000
0000
1001
0000
,
0000
0000
0000
0000
0010
0100
0001
0100
0020
0000
0000
0000
1030
0000
0001
0000
,
0010
0001
0101
0000
0000
0000
1010
0000
,
0000
0000
0000
0000
1000
0100
0010
0001
2000
0000
0000
0000
3010
0000
1000
0000
,
0001
0000
0010
0000
0110
0000
0000
0000
0000
0000
0000
0000
0100
1000
0001
1000
,
0001
0000
0000
0000
0100
0010
1000
0001
1000
0000
0000
0000
0001
0010
0100
1000
,
0001
1000
0100
0010
0001
0010
0100
1000
0001
1000
0010
0100
0001
1000
0001
1000
,
0001
0000
0011
0010
0002
0000
1003
0001
,
0010
0001
2001
0000
0010
0000
0100
0000
,
0000
0000
0000
0000
3010
0100
0001
0100
0002
0000
0000
0000
1003
0000
0100
0000
,
0010
0001
0012
0000
1000
0000
0010
0000
,
0000
0000
0000
0000
0103
0010
0100
0010
2000
0000
0000
0000
3100
0000
1000
0000
,
0001
0000
1000
0000
1002
0000
0000
0000
0000
0000
0000
0000
0103
0001
1000
0001
,
1000
0000
0000
0000
0100
1000
0001
1000
0001
0000
0000
0000
0100
0001
1000
0001
,
1000
0100
0010
0001
1000
0100
0010
0100
1000
0001
1000
0001
0100
0010
0100
0010
,
0100
0000
0101
0001
2000
0000
3100
0010
,
0001
0010
0200
0000
1000
0000
0010
0000
,
0001
0000
0000
0000
1300
0001
1000
0001
0200
0000
0000
0000
0310
0000
1000
0000
,
0001
0010
0012
0000
0100
0000
0010
0000
,
1000
0000
0000
0000
0103
0001
1000
0001
2000
0000
0000
0000
3100
0000
1000
0000
,
0001
0000
0100
0000
0102
0000
0000
0000
1000
0000
0000
0000
0013
0001
0010
0100
,
1000
0000
0000
0000
0010
0100
0001
1000
0010
0000
0000
0000
1000
0100
0010
0001
,
1000
0000
0000
0000
0001
0010
0100
1000
0001
0000
0000
0000
0100
0001
0100
0001
,
1000
0000
0000
0000
0001
0010
0100
1000
0001
0000
0000
0000
1000
0010
0100
0001
,
0100
0000
0000
0000
0010
1000
0010
0100
0001
0000
0000
0000
1000
0100
0010
0001
,
1000
0010
0100
0001
0100
0010
1000
0001
1000
0100
1000
0100
0010
0001
0010
0001
,
1000
0001
1000
0001
0100
0010
1000
0010
0100
0001
1000
0100
1000
0010
0100
0001
,
1000
0001
0010
0100
1000
0001
0010
0100
1000
0001
0100
0010
1000
0010
0100
0001
,
1000
0001
0010
0001
0010
0100
1000
0100
1000
0001
1000
0001
0100
0001
1000
0001
,
1000
0000
1001
0010
0002
0000
1003
0010
,
0100
0001
0201
0000
1000
0000
0010
0000
,
0000
0000
0000
0000
0301
1000
0001
1000
0200
0000
0000
0000
0310
0000
0100
0000
,
1000
0001
1002
0000
0010
0000
0100
0000
,
0000
0000
0000
0000
1003
0010
1000
0010
0200
0000
0000
0000
0310
0000
1000
0000
,
0001
0000
0010
0000
0021
0000
0000
0000
0000
0000
0000
0000
0031
1000
0001
0100
,
0010
0000
0000
0000
1000
0100
0010
0001
1000
0000
0000
0000
0010
0100
0001
0100
,
0010
1000
0001
1000
0100
0010
0001
0010
0100
1000
0001
0100
0010
1000
0010
1000
,
0001
0000
0011
0010
0200
0000
1300
0001
,
0100
0010
2010
0000
0001
0000
0100
0000
,
0010
0000
0000
0000
3001
1000
0001
1000
0200
0000
0000
0000
0310
0000
0100
0000
,
1000
0001
0120
0000
1000
0000
0001
0000
,
0100
0000
0000
0000
1030
0001
1000
0001
0020
0000
0000
0000
0130
0000
1000
0000
,
0001
0000
0100
0000
2010
0000
0000
0000
0000
0000
0000
0000
3001
1000
0001
1000
,
0001
0000
0000
0000
0010
0100
1000
0100
0010
0000
0000
0000
0001
0010
0100
0010
,
0001
0000
0000
0000
1000
0001
0100
0010
1000
0000
0000
0000
0010
0100
0001
0100
,
0010
0000
0000
0000
1000
0001
0010
0100
1000
0000
0000
0000
0001
0100
0010
1000
,
0010
0000
0000
0000
0100
0010
1000
0001
1000
0000
0000
0000
0001
0010
0100
1000
,
0002
0000
0000
0000
0103
0010
1000
0010
0200
0000
0000
0000
0310
1000
0001
1000
,
0002
0000
0000
0000
0013
0100
1000
0100
0020
0000
0000
0000
0031
0010
0100
1000
,
0001
0100
0010
1000
0010
0100
0001
1000
0100
1000
0001
0100
0001
1000
0010
1000
,
0001
0010
0100
1000
0100
0010
0001
1000
0100
1000
0001
0100
0010
1000
0001
1000
,
0002
0003
0000
0000
0000
0000
0000
0000
;
