#TITLE:Corneria;
#SUBTITLE:- Star Fox;
#ARTIST:Unknown artist;
#TITLETRANSLIT:;
#SUBTITLETRANSLIT:;
#ARTISTTRANSLIT:;
#CREDIT:;
#BANNER:banner.PNG;
#BACKGROUND:background.jpg;
#LYRICSPATH:;
#CDTITLE:cdtitle.PNG;
#MUSIC:Corneria - Star Fox.mp3;
#OFFSET:0.000;
#SAMPLESTART:34.483;
#SAMPLELENGTH:12.000;
#SELECTABLE:YES;
#BPMS:0.000=190.000;
#STOPS:;
#BGCHANGES:0.000=background.jpg=1.000=0=0=1,
99999=-nosongbg-=1.000=0=0=0 // don't automatically add -songbackground-
;
// cache tags:
#FIRSTBEAT:2.500;
#LASTBEAT:294.500;
#SONGFILENAME:Songs/toune 8/Corneria - Star Fox/Corneria - Star Fox.sm;
#HASMUSIC:1;
#HASBANNER:1;
#MUSICLENGTH:93.528;
// end cache tags

//---------------dance-single - ----------------
#NOTES:
     dance-single:
     :
     Hard:
     8:
     0.845,0.748,0.781,0.417,0.877,441.000,73.000,39.000,0.000,5.000:
0000
0000
0000
0000
0000
0100
0010
0001
,
0010
1000
0000
0100
0000
0000
0000
0010
0000
0100
0000
0002
0000
0000
0010
0000
,
0003
1000
0000
0110
0000
0100
0000
1000
0000
0100
0000
1000
0000
0100
0000
0010
,
0000
0100
0000
1000
0100
0000
0010
0000
0001
0000
0020
0000
0000
0000
0100
0000
,
1000
0030
0100
0000
0001
0000
0010
0000
0100
0000
0001
0000
1000
0000
0010
0100
,
0000
0001
0010
0001
2010
0000
0100
0000
0010
3000
0001
0000
0010
0000
0000
0001
,
0000
0010
0000
0100
0000
1000
0000
0100
0000
1000
0000
0100
0000
0000
0001
0000
,
0000
0010
0100
0000
1000
0000
0100
0000
0000
0010
0002
0000
0000
0000
0003
0000
,
1000
0000
0100
0000
0010
0000
0001
0000
0100
0010
0002
0000
0000
1100
0000
0110
,
0000
1000
0003
0110
0000
1000
0000
0010
0000
0100
0000
1010
0000
0000
0000
1000
,
0000
0100
0000
0010
0000
0001
0000
0000
0110
0000
0202
0000
0000
0000
1303
0000
,
0110
0000
0001
0010
1000
0000
0000
1000
0000
0010
0000
1000
0000
0000
0100
0000
,
0000
0001
1000
0000
0000
0200
1000
0000
0010
0000
0300
0022
0033
0010
0100
1000
,
0000
0100
0001
0010
1000
0100
0000
0010
,
0010
0000
0100
0000
0000
0011
0000
0000
0100
0000
0100
0000
0000
0000
1001
0000
,
0110
0000
0100
0000
0010
0000
0000
0110
0000
0000
0200
0000
0000
0000
0001
0000
,
0010
0000
1000
0000
0000
0000
0010
0000
0010
0300
0202
0000
0000
0303
0020
0000
,
0030
0000
0200
0000
0300
0000
2000
0000
3000
0000
0001
0010
0100
1000
0100
0010
,
0100
0000
0000
0000
1000
0000
0100
0000
0000
0010
0000
0101
0000
0000
0110
0000
,
0101
0000
0000
0000
0011
0000
1100
0000
0000
1010
0000
0200
0000
0300
0010
0000
,
0200
0000
0000
0000
0000
0300
0002
0000
0000
0003
2000
0000
0000
0100
0000
0000
,
0020
0000
0000
3000
0030
0000
0001
0000
0000
0000
0002
0000
0000
0200
0000
0300
,
2020
0003
0000
0000
0000
3030
0110
0000
0000
1001
0000
0000
0000
0000
0110
0000
,
0202
0000
0000
0000
0000
0303
0020
0000
0000
0130
1000
0000
0100
0000
0010
0001
,
0000
0010
0000
0000
0100
1000
0000
0100
0000
0000
0011
0000
0100
0000
0001
0010
,
0000
0000
0000
0110
0001
0010
0100
2000
0000
0000
3000
0001
1000
0000
0100
0000
,
0010
0000
0100
0000
0001
1000
0000
0010
0100
0000
0001
0000
0010
0000
0100
0000
,
0200
0000
0000
0000
0300
0010
0000
0200
0000
0000
0001
0300
1000
0000
0000
0010
,
0100
0000
0001
0000
0000
0000
0002
0000
0010
0000
0100
0000
0000
0010
0000
0100
,
0000
0000
0103
0000
0000
0000
2000
0000
0100
0010
0000
0011
0000
0000
0000
0000
,
0000
0001
0010
3010
0000
0001
0010
0100
,
1000
0000
0000
0000
0100
0010
0100
0010
0000
0000
0001
0000
1000
0000
0010
0000
,
0100
0000
0010
0000
0000
0000
0002
0000
0000
0000
0010
0000
0000
1000
0000
0100
,
0000
0003
0110
0000
0000
0000
1001
0000
0000
0000
0020
0000
0000
0030
0200
0000
,
0000
0300
0002
0000
0000
0003
1000
0100
0010
0100
0010
0000
0101
0000
0000
0000
,
0100
0010
0001
0010
0000
0100
0100
0000
,
1000
0000
0100
0000
0010
0001
0000
0000
0000
0000
0010
0000
0100
0000
0000
0000
,
0000
0000
0110
0000
0000
1001
0000
0000
0000
0000
0011
0000
0100
0000
0000
0000
,
0000
0000
0110
0000
0000
0000
1001
0000
0000
0000
1010
0000
0000
0101
0000
0000
,
0000
0000
0000
1100
0000
0000
0011
0000
0000
0000
1100
0000
0011
0000
0000
0000
,
0000
0110
0000
0001
0010
1000
0100
0010
,
0001
0010
0100
0001
0010
0011
0000
0011
,
0000
0000
1000
0000
0100
0000
0000
1100
0000
0000
0100
0000
0010
0000
0100
0000
,
0000
0110
0000
0011
0100
0010
0000
0100
,
0000
0001
0010
0000
0000
0000
0100
0000
0000
0000
0000
1100
0000
1100
0000
0010
,
0000
0000
0101
0000
0000
0000
0011
0000
0000
0011
0000
0000
0000
0000
0110
0000
,
0110
0000
0000
0101
0000
0000
0100
1000
0000
0100
0010
0000
0000
0001
0010
0000
,
0100
0000
1000
0100
0000
0010
0000
0001
0000
0010
0000
0100
0000
0010
0000
0100
,
0000
0010
0000
0100
0001
0000
0010
0000
1000
0100
0001
0010
0000
0100
0010
0000
,
1000
0000
0001
0010
0100
0000
0001
0000
1000
0010
0000
0100
0000
0001
0010
0000
,
1000
0000
0100
0000
0000
0010
0000
0010
0000
0000
0110
0000
0000
0000
0011
0000
,
1000
0000
0100
0000
0000
0000
0000
0001
0000
1000
0000
0010
0100
0000
0001
0010
,
0000
0000
1000
0100
0000
0000
0010
0000
0000
0000
0100
0000
0000
0001
0010
1000
,
0100
0000
0000
0110
0000
0000
0001
0000
0000
0000
0000
0000
0110
0000
0000
0000
,
0011
0000
0000
0000
0100
0000
0010
0000
1000
0000
0100
0000
0010
0000
0001
0010
,
0000
0000
0100
0000
1000
0100
0000
0010
0000
0001
0010
0000
0100
0000
1000
0000
,
0000
0010
0100
0000
0001
0010
0000
1000
0100
0000
0010
0000
0001
0010
0000
1000
,
0100
0000
0010
0000
0001
0000
0000
0010
0010
0000
0100
0000
0001
0010
0001
0000
,
0000
0011
1000
0100
0000
0000
0000
0011
0000
1100
0010
0000
0100
0000
0001
0010
,
1000
0100
0010
0101
0000
0000
1100
0000
,
0010
0000
0000
0100
0000
0000
0001
1000
0000
0100
0000
0010
0000
0001
0010
0000
,
0000
1000
0100
0000
0010
0000
1001
0000
0220
0000
0000
0000
0000
0000
0330
0000
,
0000
0000
0000
0000
0000
0000
0011
0000
0100
0000
1000
0100
0000
0000
0010
0000
,
0001
0000
0010
0000
0100
0000
1000
0000
0000
0000
0010
0000
0000
0001
0010
0000
,
0000
0100
0000
0000
0000
1000
0000
0100
0000
0000
0000
0001
0000
0010
0000
0100
,
0000
0001
0000
0010
0000
0000
0000
0110
0000
0000
0000
0001
0000
1000
0000
0010
,
0000
0000
0000
0011
0000
0000
0000
1100
0000
0000
1000
0000
0000
0000
0000
0000
;

//---------------dance-single - ----------------
#NOTES:
     dance-single:
     :
     Challenge:
     11:
     1.000,1.000,1.000,0.428,1.000,704.000,116.000,40.000,0.000,12.000:
0000
0000
0000
0000
0000
0000
0000
0000
0000
0000
0000
0101
0000
1000
0100
0000
,
0001
0010
1000
0100
0001
0010
1000
0000
0101
0000
0000
0000
0011
0000
0001
0010
,
1000
0000
0100
0010
0000
0001
0000
0010
0000
1000
0000
0100
0001
0000
0010
1100
,
0001
0000
0010
1000
0100
0001
0010
0000
0000
0101
0010
1000
0000
0100
0010
0000
,
0001
0010
0000
0011
0000
0000
0001
0010
0000
0001
0010
1000
0100
0000
0001
0010
,
1000
0100
0001
0010
0000
1000
0100
0010
0000
0001
0010
0001
0010
0001
0010
0000
,
1001
0000
0101
0000
0010
0100
1000
0100
0010
0001
0010
0100
1000
0100
0010
0000
,
0000
1100
0001
0010
0000
1000
0001
0010
0100
0001
0010
0100
0000
0110
0000
1100
,
0000
0001
0100
0010
0000
0022
0000
0000
0000
0000
0000
0000
0033
0100
0010
0001
,
0010
0100
0000
0010
0000
0001
0010
1000
0100
0001
0010
1000
0001
0110
0000
0001
,
0010
0001
0010
0000
0000
1100
0000
0011
0000
1001
0010
0100
0000
0001
0010
0000
,
1000
0100
0000
0000
0010
0000
0000
0100
0010
1000
0001
0110
0001
0000
0010
1001
,
0000
0010
0000
1001
0000
0010
0100
1001
0010
0100
0000
0010
0100
0010
0000
1000
,
0000
0100
0000
0001
0010
0000
0000
0100
0001
0010
0000
0100
1000
0000
0010
0000
,
1000
0010
0100
0000
0001
0110
0000
0000
1100
0000
0100
0001
0010
0100
0001
0010
,
0000
0001
1010
0000
0100
0000
0011
0100
0000
0010
0000
0010
0000
0001
0010
0000
,
1000
0100
0010
0000
0001
0010
0001
0000
0010
1000
0001
0000
0010
0100
0001
0010
,
1000
0001
0110
0000
0001
0010
0000
0000
1000
0100
0000
0000
0000
0000
0010
0000
,
0001
0010
1000
0000
0100
0001
0010
0100
0001
0000
0010
0000
0000
0001
0000
0000
,
0010
0000
0000
0100
0000
1000
0100
0000
0001
0000
0010
0000
0000
0000
0001
0010
,
1000
0100
0000
0010
0000
0001
0010
0000
1000
0100
0010
0000
0100
0001
0000
0010
,
0000
1000
0001
0000
0010
0100
0001
0000
1000
0010
0000
0001
0010
0000
0000
0101
,
0000
0010
1000
0100
0011
0000
0000
0000
0000
0011
0000
0000
0000
0110
0000
1001
,
0000
0110
0000
0000
1001
0000
0110
0000
1100
0000
0101
0000
0000
0000
0001
0010
,
0000
1100
0000
0000
0000
0010
0000
1000
0100
0000
0001
0010
1100
0000
0011
1000
,
0000
0110
0000
0000
0010
0000
1100
0000
0010
0000
1000
0100
0000
0001
0010
0000
,
0100
0000
1000
0000
0100
0000
0010
0001
0010
0000
1000
0100
0010
0000
0001
0010
,
1000
0100
0000
0010
1000
0100
0010
0100
0010
0100
0000
0010
0002
0010
0000
1000
,
0103
0010
0001
0010
0100
0000
0010
0001
1000
0100
0010
0001
0010
0100
1000
0100
,
0010
0000
1100
0000
0000
0002
0003
0020
1030
0100
0000
0110
0000
0101
0000
1000
,
0000
0220
0330
0001
1000
0010
0000
0101
0000
0010
0000
1001
0110
0000
0000
0000
,
0011
0000
1100
0000
0010
0000
0101
0000
0100
1000
0000
0100
0010
1000
0100
0010
,
0001
0000
0010
0000
1100
0000
0220
0000
0000
0000
0330
0010
0001
0010
0000
1001
,
0110
0000
0001
0010
0000
1001
0010
0000
0100
0000
1000
0100
0000
1000
0100
0000
,
0000
0010
0001
0010
0000
1100
0000
0010
0000
0100
0000
0001
0000
0010
1000
0100
,
0001
0010
1000
0100
0000
0000
0010
0001
1100
0000
0001
0010
0100
0001
0000
1100
,
0000
0100
0000
0011
0000
1100
0000
0010
0000
0000
0000
2000
0100
0010
0001
0000
,
3020
0000
0000
0000
0000
0230
0000
0000
0001
0310
0000
1000
0100
1000
0200
0000
,
0000
0000
0000
0001
0310
0000
1000
0100
0001
0010
0000
0002
0000
0100
0000
0000
,
0023
1000
0001
0100
0030
1000
0010
0000
0100
0010
1000
0100
0002
0000
0010
0000
,
1000
0100
0000
0013
0001
1000
0110
0000
0220
0000
1000
0000
0330
2002
0000
0000
,
3003
0010
0000
0020
0000
0000
1000
0100
0030
0000
2200
0000
0010
0000
0000
3302
,
0010
0000
1000
0200
0003
0000
0000
0301
0010
0000
1100
0000
2000
0010
0100
0000
,
0001
3010
1000
0100
0010
0000
0000
0101
0000
0010
0000
1000
0100
0011
0000
0000
,
0100
0000
0001
0010
0000
1000
0100
0000
0000
0001
0000
0000
0010
0000
1000
0100
,
0000
0010
0000
0000
0001
0000
0011
0000
0011
0000
0000
0000
1100
0000
0000
0000
,
0110
0000
1001
0000
0110
0000
0000
0000
1000
0100
0001
0010
0100
0001
0010
0000
,
1100
0000
0010
0000
0101
0000
1010
0100
0001
0010
0100
0010
0000
0100
0000
0010
,
0000
0000
0100
0000
0010
0000
0100
0001
0010
1000
0100
0000
0010
0000
0100
0010
,
0100
0010
0000
0001
0010
1000
0000
0100
0010
0000
1000
0100
0010
0100
0010
0100
,
1000
0100
1000
0010
0000
0101
0000
0010
0000
0000
0000
1001
0000
0110
0000
0010
,
0100
1000
0110
0000
0001
0010
0000
1001
0010
0100
0000
0001
0000
1000
0000
0010
,
0100
0000
0001
0010
1000
0100
0000
0000
0010
0000
0001
0000
0010
1000
0100
0001
,
0010
0000
1000
0000
0110
0000
0001
0010
0000
0000
1100
0000
0010
0000
0001
0010
,
0000
0000
1000
0100
0000
0010
0001
0000
0010
0000
0100
0000
1000
0100
0000
0010
,
0001
0010
1000
0100
0000
0010
0000
0001
0010
0000
1000
0101
0000
0010
1000
0100
,
0001
0010
0000
1000
0101
0010
1000
0100
0000
0010
0010
0000
0010
0000
0100
0000
,
0000
1000
0100
0000
0011
0000
0000
1010
0100
0001
0010
0000
1001
0000
0110
0001
,
0110
0000
0000
0000
0022
0000
0000
0000
0000
0000
0000
2233
0000
0000
0000
0000
,
3322
0000
0000
0000
1133
0000
0010
0000
0100
0001
0010
0000
0100
0010
0000
1000
,
0001
0010
0000
0100
0000
1000
0100
0000
0010
0001
0000
0010
0000
1000
0100
0000
,
0010
0001
0000
0010
0000
1000
0000
0001
0100
0010
0000
0100
1000
0001
0010
1000
,
0000
0100
0010
0001
0000
0010
0000
1000
0100
0010
0000
0001
0010
0000
0001
0010
,
0000
0001
0010
1100
0000
0000
0100
0000
1000
0100
0000
1000
0100
1000
0000
0000
,
0001
0010
0000
1100
0011
0000
1000
0000
0110
0001
0110
0000
0000
0022
0000
0000
,
0000
0000
0000
0033
2200
0000
0000
0000
3311
0000
0000
0000
2200
0000
0000
0020
,
0000
0000
0000
0000
0000
0030
0010
0000
0010
0000
0000
0010
0000
0010
0000
3300
,
0002
0000
0000
0000
,
0003
0001
0010
0000
1000
0100
0001
0010
0000
1000
0000
0101
0010
0000
0001
0010
,
0000
0000
1100
0000
0001
0010
1000
0100
0001
0010
0000
0000
0011
0000
0011
0000
,
0000
1000
0100
0010
0001
1000
0110
0000
1001
0010
0100
0000
1000
0100
0000
0000
,
1100
0000
0000
0100
0000
0000
0011
0000
0100
0000
0001
0010
1100
0001
0000
0110
,
0000
0000
1100
0000
0001
0110
1000
0001
1010
0100
0000
0000
0001
0010
0000
1000
,
0100
0001
0000
0010
0000
1000
0000
0100
0000
0001
0010
0000
0000
0000
0000
0000
;
