#TITLE:Loaded Futurefile;
#SUBTITLE:;
#ARTIST:Anc;
#TITLETRANSLIT:;
#SUBTITLETRANSLIT:;
#ARTISTTRANSLIT:;
#CREDIT:Aoreo;
#BANNER:Bn-Future.png;
#BACKGROUND:Bg-Future.png;
#LYRICSPATH:;
#CDTITLE:;
#MUSIC:13 anc - loaded futurefile.ogg;
#OFFSET:0.617;
#SAMPLESTART:83.260;
#SAMPLELENGTH:7.160;
#SELECTABLE:YES;
#DISPLAYBPM:268.700;
#BPMS:0.000=130.000,4.000=134.000,9.000=133.000,16.000=143.500,18.000=133.000,33.000=124.545,56.000=268.644;
#STOPS:;
#BGCHANGES:;
// cache tags:
#FIRSTBEAT:2.000;
#LASTBEAT:579.000;
#SONGFILENAME:Songs/SPEEEDCOOOORE/Loaded Futurefile - [Aoreo]/Loaded Futurefile.sm;
#HASMUSIC:1;
#HASBANNER:1;
#MUSICLENGTH:142.677;
// end cache tags

//---------------dance-single - J. Nero----------------
#NOTES:
     dance-single:
     J. Nero:
     Challenge:
     13:
     1.000,1.000,1.000,1.000,0.231,831.000,273.000,209.000,43.000,133.000:

0000
0000
0000
0000
0000
0000
0000
0000
0000
0000
0000
0000
0000
0000
0000
0000
0000
0000
0000
0000
0000
0000
0000
0000
0000
0000
0000
0000
0000
0000
0000
0000
0200
0000
0000
0000
0000
0000
0000
0000
0002
0000
0000
0000
0000
0000
0000
0000
2000
0000
0000
0000
0000
0000
0000
0000
0020
0000
0000
0000
0000
0000
0000
0300
,
0200
0000
0000
0000
0000
0000
0000
0000
0000
0000
0000
0000
0000
0000
0000
0030
0020
0000
0000
0000
0000
0000
0000
0000
0000
0000
0000
0000
0000
0000
0000
3000
2000
0000
0000
0000
0000
0000
0000
0000
0000
0000
0000
0000
0000
0000
0000
0003
0002
0000
0000
0000
0000
0000
0000
0000
0000
0000
0000
0000
0000
0000
0000
0300
,
0200
0000
0000
0000
0000
0000
0000
0000
0000
0000
0000
0000
0000
0000
0000
0030
0020
0000
0000
0000
0000
0000
0000
0000
0000
0000
0000
0000
0000
0000
0000
3000
2333
0000
0000
0000
0000
0000
0000
0000
0200
0000
0000
0000
0000
0000
0000
0000
0020
0000
0000
0000
0000
0000
0000
0000
0002
0000
0000
0000
0000
0000
0000
3000
,
2000
0000
0000
0000
0000
0000
0000
0000
0000
0000
0000
0000
0000
0000
0300
0000
0200
0000
0000
0000
0000
0000
0000
0000
0000
0000
0000
0000
0000
0000
0000
0030
0020
0000
0000
0000
0000
0000
0000
0000
0000
0000
0000
0000
0000
0000
0000
0003
0002
0000
0000
0000
0000
0000
0000
0000
0000
0000
0000
0000
0000
0000
0000
3000
,
2000
0000
0000
0000
0000
0000
0000
0000
0000
0000
0000
0000
0000
0000
0000
0000
0000
0000
0000
0000
0000
0000
0000
0000
3333
0000
0000
0000
0000
0000
0000
0000
0000
0000
0000
0000
0000
0000
0000
0000
0000
0000
0000
0000
0000
0000
0000
0000
0001
0000
0000
0000
0000
0000
0000
0000
1000
0000
0000
0000
0000
0000
0000
0000
0001
0000
0000
0000
0000
0000
0000
0000
1000
0000
0000
0000
0000
0000
0000
0000
0001
0000
0000
0000
0000
0000
0000
0000
1000
0000
0000
0000
0000
0000
0000
0000
0002
0000
0000
0000
0000
0000
0000
0000
0000
0000
0000
0000
0000
0000
0000
0000
0000
0000
0000
0000
0000
0000
0000
0000
0200
0000
0000
0000
0000
0000
0000
0000
0000
0000
0000
0000
0000
0000
0000
0000
0000
0000
0000
0000
0000
0000
0000
0000
0020
0000
0000
0000
0000
0000
0000
0000
0000
0000
0000
0000
0000
0000
0000
0000
0000
0000
0000
0000
0000
0000
0000
0000
2000
0000
0000
0000
0000
0000
0000
0000
0000
0000
0000
0000
0000
0000
0000
0000
0000
0000
0000
0000
0000
0003
0000
0000
,
0002
0000
0000
0000
0000
0000
0000
0000
0000
0000
0000
0000
0000
0000
0000
0300
0200
0000
0000
0000
0000
0000
0000
0000
0000
0000
0000
0000
0000
0000
0000
0030
0020
0000
0000
0000
0000
0000
0000
0000
0000
0000
0000
0000
0000
0000
3000
0000
2000
0000
0000
0000
0000
0000
0000
0000
0000
0000
0000
0000
0000
0000
0000
0030
,
0020
0000
0000
0000
0000
0000
0000
0000
0000
0000
0000
0000
0000
0000
0000
0300
0200
0000
0000
0000
0000
0000
0000
0000
0000
0000
0000
0000
0000
0000
0000
0003
3332
0000
0000
0000
0000
0000
0000
0000
0020
0000
0000
0000
0000
0000
0000
0000
0200
0000
0000
0000
0000
0000
0000
0000
2000
0000
0000
0000
0000
0000
0000
0003
,
0002
0000
0000
0000
0000
0000
0000
0000
0000
0000
0000
0000
0000
0000
0000
0030
0020
0000
0000
0000
0000
0000
0000
0000
0000
0000
0000
0000
0000
0000
0000
0300
0200
0000
0000
0000
0000
0000
0000
0000
0000
0000
0000
0000
0000
0000
0000
3000
2000
0000
0000
0000
0000
0000
0000
0000
0000
0000
0000
0000
0000
0000
0000
0003
,
0002
3333
4000
0000
0000
0000
0000
0000
,
0000
0000
0000
0000
,
0000
0000
0000
0000
,
0000
0000
0000
3000
,
0000
0000
0000
0000
,
0000
0000
0000
0000
,
1000
0100
1000
0000
1010
0000
0110
0000
,
0101
0011
1100
1001
,
0010
0100
0010
0000
1000
0000
0100
0000
,
1000
0001
1000
0001
,
0100
0010
0100
0000
0001
0000
1000
0100
,
0000
1000
0100
1000
0100
0000
1000
0000
,
0100
0000
0000
0000
0000
0000
0000
0000
1000
0000
0000
0000
0000
0000
0000
0000
0020
0000
0000
0000
0000
0000
0000
0000
0000
0000
0000
0000
0000
0000
0000
0000
1100
0000
0000
0000
0000
0000
0000
0000
0000
0000
0000
0000
0000
0000
0000
0030
0021
0000
0000
0000
0000
0000
0000
0000
0000
0000
0000
0000
0000
0000
0000
0000
,
1100
0000
0000
0000
0000
0000
0000
0000
0000
0000
0000
0000
0000
0000
0000
0030
0021
0000
0000
0000
0000
0000
0000
0000
0000
0000
0000
0000
0000
0000
0000
0000
1100
0000
0000
0000
0000
0000
0000
0000
0000
0000
0000
0000
0000
0000
0000
0030
0021
0000
0000
0000
0000
0000
0000
0000
0000
0000
0000
0000
0000
0000
0000
0000
,
1100
0000
0000
0000
0000
0000
0000
0000
0000
0000
0000
0000
0000
0000
0000
0030
0021
0000
0000
0000
0000
0000
0000
0000
0000
0000
0000
0000
0000
0000
0000
0000
1100
0000
0000
0000
0000
0000
0000
0000
0000
0000
0000
0000
0000
0000
0000
0030
0021
0000
0000
0000
0000
0000
0000
0000
0000
0000
0000
0000
0000
0000
0000
0000
,
1100
0000
0000
0000
0000
0000
0000
0000
0000
0000
0000
0000
0000
0000
0000
0030
0021
0000
0000
0000
0000
0000
0000
0000
0000
0000
0000
0000
0000
0000
0000
0000
1100
0000
0000
0000
0000
0000
0000
0000
0000
0000
0000
0000
0000
0000
0000
0030
0021
0000
0000
0000
0000
0000
0000
0000
0000
0000
0000
0000
0000
0000
0000
0000
,
1100
0000
0000
0000
0000
0000
0000
0000
0000
0000
0000
0000
0000
0000
0000
0030
0021
0000
0000
0000
0000
0000
0000
0000
0000
0000
0000
0000
0000
0000
0000
0000
1100
0000
0000
0000
0000
0000
0000
0000
0000
0000
0000
0000
0000
0000
0000
0030
0021
0000
0000
0000
0000
0000
0000
0000
0000
0000
0000
0000
0000
0000
0000
0000
,
1100
0000
0000
0000
0000
0000
0000
0000
0000
0000
0000
0000
0000
0000
0000
0030
0021
0000
0000
0000
0000
0000
0000
0000
0000
0000
0000
0000
0000
0000
0000
0000
1100
0000
0000
0000
0000
0000
0000
0000
0000
0000
0000
0000
0000
0000
0000
0030
0011
0000
0000
0000
0000
0000
0000
0000
0000
0000
0000
0000
0000
0000
0000
0000
,
0000
0000
0000
0000
,
0000
0000
0000
0000
,
0000
0000
0000
0000
,
0000
0000
0000
0000
,
0000
0000
0000
0000
,
0101
1010
0101
1010
0101
1010
0101
1000
,
0011
1100
0011
1100
0011
1100
0011
1100
,
0011
1000
0110
1001
0110
1001
0110
1001
,
0100
1000
0101
1010
0101
1010
0101
1010
,
0100
1001
0110
1001
0110
1001
0110
1001
,
0110
1000
0110
0011
1100
0011
1100
0010
,
0101
1010
0101
1010
0101
1010
0101
1000
,
0011
1100
0011
1100
0011
1100
0011
1000
,
0011
0110
1001
0110
1001
0110
1001
0110
,
1001
0110
1001
0110
1001
0110
1001
0110
,
1001
0000
0000
0000
0000
0000
0000
0000
1000
0000
0001
0000
1000
0000
0010
0100
,
0010
0000
0100
0001
0100
0001
0100
0001
0100
0001
1000
0001
1000
0001
1000
0001
,
1000
0001
1000
0010
0100
0100
0010
0100
,
0010
0010
0100
0001
0010
0010
0100
0010
,
0100
0100
1000
0010
0100
0100
0010
0100
,
0010
0010
0100
0001
0010
0010
0100
0010
,
0100
0100
1000
0001
0100
0100
0010
0100
,
0010
0010
0100
0001
0010
0010
0100
0010
,
0100
0100
1000
0001
0100
0100
0010
0100
,
0010
0010
0100
0001
0010
0010
0100
0010
,
0100
0100
1000
0001
0100
0100
0010
0100
,
0010
0010
1000
0001
0010
0010
0100
0010
,
0100
0100
1000
0001
0100
0100
0010
0100
,
0010
0010
1000
0001
0010
0010
0100
0010
,
0100
0100
1000
0001
0100
0100
0010
0100
,
0010
0010
1000
0001
0010
0010
0100
0010
,
0100
0100
1000
0001
1001
0000
0000
0000
,
1001
0000
0000
0000
0000
0000
0000
0000
1001
0000
0000
0000
1000
0100
1000
0000
,
0100
0000
0000
0000
1000
0000
0010
0000
1000
0000
0010
0000
0100
0001
0100
0000
,
0010
0000
1000
0000
0000
0000
0100
1000
0100
0000
0000
0000
1100
0000
0000
0000
,
1000
0000
0000
0000
0010
0000
1000
0000
0100
0000
1000
0000
0001
0100
0001
0000
,
0100
0000
0001
0000
0000
0000
0010
0100
0010
0000
0000
0000
0110
0000
0000
0000
,
0100
0000
0000
0000
1000
0000
0001
0000
0100
0000
0010
0000
1000
0010
1000
0000
,
0010
0000
0100
0000
0000
0000
0001
1000
0001
0000
0000
0000
2200
0000
3322
0000
,
2233
0000
3300
0000
0001
0000
1000
0000
0001
0000
0010
0000
0100
0010
0100
0000
,
1000
0000
0001
0000
0000
0000
1000
0001
1000
0000
0000
0000
0010
0000
0000
0000
,
0010
0000
0000
0000
1000
0000
0100
0000
1000
0100
1000
0000
0100
0000
0000
0000
,
0100
0000
0000
0000
0000
0000
0010
0000
0000
0000
0000
0000
0000
0000
0000
0000
0000
0000
0001
0000
0000
1000
0000
0000
0001
0000
0000
0000
0000
0000
0000
0000
0000
0000
0000
0000
1000
0000
0000
0000
0100
0000
0000
0000
0010
0000
0000
0000
,
0001
0000
0000
0000
0000
0000
1000
0000
0010
0000
0100
0000
0001
0010
0001
0000
,
0010
0000
0100
0000
0000
0000
0010
0100
0010
0000
0000
0000
0100
0000
0000
0000
,
0100
0000
0000
0000
0000
0000
1000
0000
0001
0000
1000
0000
0010
1000
0010
0000
,
1000
0000
0100
0000
0000
0000
0010
0001
0010
0000
0000
0000
0001
0000
0000
0000
,
0001
0000
0000
0000
0000
0000
0100
0000
0001
0000
0100
0000
0010
1000
0010
0000
,
1000
0000
0100
0000
0000
0000
1000
0100
1000
0000
0000
0000
0010
0000
0000
0000
,
0100
0000
0000
0000
0000
0000
0001
0000
0010
0000
0100
0000
1000
0100
1000
0000
,
0100
0000
0010
0000
0000
0000
0001
0010
0001
0000
0000
0000
0100
0000
0000
0000
,
0100
0000
0000
0000
0000
0000
0001
0000
0100
0000
0001
1000
0001
0000
0000
0000
,
0100
0000
0001
0000
0000
0000
0100
0001
0100
0000
0000
0000
1001
0000
0000
0000
,
1M2M
0000
0000
0000
0000
0000
0000
0000
2000
0000
0000
0000
0000
0000
0000
0000
0002
0000
0000
0000
0000
0000
0000
0000
0200
0000
0000
0000
0000
0000
0000
0003
0002
0000
0000
0000
0000
0000
0000
0000
0000
0000
0000
0000
0000
0000
0000
0300
0200
0000
0000
0000
0000
0000
0000
0000
0000
0000
0000
0000
0000
0000
0000
0030
,
0020
0000
0000
0000
0000
0000
0000
0000
0000
0000
0000
0000
0000
0000
0000
3000
2000
0000
0000
0000
0000
0000
0000
0000
0000
0000
0000
0000
0000
0000
0000
0003
0002
0000
0000
0000
0000
0000
0000
0000
0000
0000
0000
0000
0000
0000
0000
0300
0200
0000
0000
0000
0000
0000
0000
0000
3333
0000
0000
0000
0000
0000
0000
0000
,
0002
0000
0000
0000
0000
0000
0000
0000
0020
0000
0000
0000
0000
0000
0000
0000
0200
0000
0000
0000
0000
0000
0000
0000
2000
0000
0000
0000
0000
0000
0000
0003
0002
0000
0000
0000
0000
0000
0000
0000
0000
0000
0000
0000
0000
0000
0000
0030
0020
0000
0000
0000
0000
0000
0000
0000
0000
0000
0000
0000
0000
0000
0000
0300
,
0200
0000
0000
0000
0000
0000
0000
0000
0000
0000
0000
0000
0000
0000
0000
3000
2000
0000
0000
0000
0000
0000
0000
0000
3333
0000
0000
0000
0000
0000
0000
0000
0001
0000
0000
0000
0000
0000
0000
0000
1000
0000
0000
0000
0001
0000
0000
0000
1000
0000
0000
0000
0000
0000
0000
0000
0001
0000
0000
0000
0000
0000
0000
0000
,
1001
0000
0000
0000
0000
0000
1000
0000
0010
0000
0100
0001
0100
0000
0000
0000
,
0001
0000
0100
0000
0000
0000
0001
1000
0001
0000
0000
0000
1000
0000
0000
0000
,
0022
0000
0000
0000
2233
0000
0000
0000
3322
0000
0000
0033
2002
0000
3003
0000
,
2020
3232
2323
3232
2323
3232
2323
3232
,
2303
0000
0000
0000
0000
0000
0000
0000
0002
0000
0000
0000
0000
0000
0000
0000
0200
0000
0000
0000
0000
0000
0000
0000
0020
0000
0000
0000
0000
0000
0000
3000
2000
0000
0000
0000
0000
0000
0000
0000
0000
0000
0000
0000
0000
0000
0000
0003
0002
0000
0000
0000
0000
0000
0000
0000
0000
0000
0000
0000
0000
0000
0000
0300
,
0200
0000
0000
0000
0000
0000
0000
0000
0000
0000
0000
0000
0000
0000
0000
0030
0020
0000
0000
0000
0000
0000
0000
0000
0000
0000
0000
0000
0000
0000
0000
3000
2000
0000
0000
0000
0000
0000
0000
0000
0000
0000
0000
0000
0000
0000
0000
0003
0002
0000
0000
0000
0000
0000
0000
0000
3333
0000
0000
0000
0000
0000
0000
0000
,
2000
0000
0000
0000
0000
0000
0000
0000
0200
0000
0000
0000
0000
0000
0000
0000
0020
0000
0000
0000
0000
0000
0000
0000
0002
0000
0000
0000
0000
0000
0000
3000
2000
0000
0000
0000
0000
0000
0000
0000
0000
0000
0000
0000
0000
0000
0300
0000
0200
0000
0000
0000
0000
0000
0000
0000
0000
0000
0000
0000
0000
0000
0000
0030
,
0020
0000
0000
0000
0000
0000
0000
0000
0000
0000
0000
0000
0000
0000
0000
0003
0002
0000
0000
0000
0000
0000
0000
0000
0000
0000
0000
0000
0000
0000
0000
3000
2000
0000
0000
0000
0000
0000
0000
0000
0003
0000
0000
0000
0000
0000
0000
0000
0002
0000
0000
0000
0000
0000
0000
0000
3333
0000
0000
0000
0000
0000
0000
0000
,
0002
0000
0000
0000
0000
0000
0000
0000
2000
0000
0000
0000
0000
0000
0000
0000
0020
0000
0000
0000
0000
0000
0000
0000
0200
0000
0000
0000
0000
0000
0000
0003
0002
0000
0000
0000
0000
0000
0000
0000
0000
0000
0000
0000
0000
0000
0000
3000
2000
0000
0000
0000
0000
0000
0000
0000
0000
0000
0000
0000
0000
0000
0000
0030
,
0020
0000
0000
0000
0000
0000
0000
0000
0000
0000
0000
0000
0000
0000
0000
0300
0200
0000
0000
0000
0000
0000
0000
0000
0000
0000
0000
0000
0000
0000
0000
0003
0002
0000
0000
0000
0000
0000
0000
0000
0000
0000
0000
0000
0000
0000
0000
3000
2000
0000
0000
0000
0000
0000
0000
0000
3333
0000
0000
0000
0000
0000
0000
0000
,
0002
0000
0000
0000
0000
0000
0000
0000
0020
0000
0000
0000
0000
0000
0000
0000
0200
0000
0000
0000
0000
0000
0000
0000
2000
0000
0000
0000
0000
0000
0000
0003
0002
0000
0000
0000
0000
0000
0000
0000
0000
0000
0000
0000
0000
0000
0030
0000
0020
0000
0000
0000
0000
0000
0000
0000
0000
0000
0000
0000
0000
0000
0000
0300
,
0200
0000
0000
0000
0000
0000
0000
0000
0000
0000
0000
0000
0000
0000
0000
3000
2000
0000
0000
0000
0000
0000
0000
0000
0000
0000
0000
0000
0000
0000
0000
0003
0002
0000
0000
0000
0000
0000
0000
0000
3000
0000
0000
0000
0000
0000
0000
0000
2000
0000
0000
0000
0000
0000
0000
0000
3333
0000
0000
0000
0000
0000
0000
0000
,
2000
0000
0000
0000
0000
0000
0000
0000
0002
0000
0000
0000
0000
0000
0000
0000
0200
0000
0000
0000
0000
0000
0000
0000
0020
0000
0000
0000
0000
0000
0000
3000
2000
0000
0000
0000
0000
0000
0000
0000
0000
0000
0000
0000
0000
0000
0000
0003
0002
0000
0000
0000
0000
0000
0000
0000
0000
0000
0000
0000
0000
0000
0000
0300
,
0200
0000
0000
0000
0000
0000
0000
0000
0000
0000
0000
0000
0000
0000
0000
0030
0020
0000
0000
0000
0000
0000
0000
0000
0000
0000
0000
0000
0000
0000
0000
3000
2000
0000
0000
0000
0000
0000
0000
0000
0000
0000
0000
0000
0000
0000
0000
0003
0002
0000
0000
0000
0000
0000
0000
0000
3333
0000
0000
0000
0000
0000
0000
0000
,
2000
0000
0000
0000
0000
0000
0000
0000
0200
0000
0000
0000
0000
0000
0000
0000
0020
0000
0000
0000
0000
0000
0000
0000
0002
0000
0000
0000
0000
0000
0000
3000
2000
0000
0000
0000
0000
0000
0000
0000
0000
0000
0000
0000
0000
0000
0300
0000
0200
0000
0000
0000
0000
0000
0000
0000
0000
0000
0000
0000
0000
0000
0000
0030
,
0020
0000
0000
0000
0000
0000
0000
0000
0000
0000
0000
0000
0000
0000
0000
0003
0002
0000
0000
0000
0000
0000
0000
0000
0000
0000
0000
0000
0000
0000
0000
3000
2000
0000
0000
0000
0000
0000
0000
0000
0003
0000
0000
0000
0000
0000
0000
0000
0002
0000
0000
0000
0000
0000
0000
0000
3333
0000
0000
0000
0000
0000
0000
0000
,
0002
0000
0000
0000
0000
0000
0000
0000
2000
0000
0000
0000
0000
0000
0000
0000
0020
0000
0000
0000
0000
0000
0000
0000
0200
0000
0000
0000
0000
0000
0000
0003
0002
0000
0000
0000
0000
0000
0000
0000
0000
0000
0000
0000
0000
0000
0000
3000
2000
0000
0000
0000
0000
0000
0000
0000
0000
0000
0000
0000
0000
0000
0000
0030
,
0020
0000
0000
0000
0000
0000
0000
0000
0000
0000
0000
0000
0000
0000
0000
0300
0200
0000
0000
0000
0000
0000
0000
0000
0000
0000
0000
0000
0000
0000
0000
0003
0002
0000
0000
0000
0000
0000
0000
0000
0000
0000
0000
0000
0000
0000
0000
3000
2000
0000
0000
0000
0000
0000
0000
0000
3333
0000
0000
0000
0000
0000
0000
0000
,
0002
0000
0000
0000
0000
0000
0000
0000
0020
0000
0000
0000
0000
0000
0000
0000
0200
0000
0000
0000
0000
0000
0000
0000
2000
0000
0000
0000
0000
0000
0000
0003
0002
0000
0000
0000
0000
0000
0000
0000
0000
0000
0000
0000
0000
0000
0030
0000
0020
0000
0000
0000
0000
0000
0000
0000
0000
0000
0000
0000
0000
0000
0000
0300
,
0200
0000
0000
0000
0000
0000
0000
0000
0000
0000
0000
0000
0000
0000
0000
3000
2000
0000
0000
0000
0000
0000
0000
0000
0000
0000
0000
0000
0000
0000
0000
0003
0002
0000
0000
0000
0000
0000
0000
0000
3000
0000
0000
0000
0000
0000
0000
0000
2000
0000
0000
0000
0000
0000
0000
0000
3333
0000
0000
0000
0000
0000
0000
0000
,
0101
0000
0000
1010
0000
0000
1001
0000
,
0000
0101
0110
1010
,
1001
0000
0000
0011
0000
0000
0110
0000
,
0000
1100
1001
0101
,
0100
0000
0010
0000
1000
0000
0010
0000
0100
0000
0001
0000
0010
0100
0010
0000
,
0100
0000
1000
0000
0010
0000
0100
0001
0100
0000
0001
0000
0100
0000
0010
0000
,
1000
0000
0100
0000
0010
0000
0100
0000
1000
0000
0001
0000
1000
0100
1000
0000
,
0100
0000
1000
0000
0010
0000
0100
0010
0100
0000
0010
0000
0100
0000
0001
0000
,
0010
0000
0100
0000
1000
0000
0001
0000
1000
0000
0010
0000
1000
0001
1000
0000
,
0001
0000
0010
0000
0100
0000
1000
0001
1000
0000
0010
0000
0100
0000
0001
0000
,
0010
0000
0100
0000
1000
0000
0010
0000
0100
0000
0010
0000
0100
0001
0100
0000
,
0001
0000
0010
0000
0100
0000
1000
0100
1000
0000
0001
0000
0100
0000
0001
0000
,
1100
0011
1100
0011
1100
0011
1100
0011
,
1100
0011
1100
0011
1100
0011
1100
0011
,
1000
0110
1001
0110
1001
0110
1001
0110
,
1001
0110
1001
0110
1001
0110
2002
3003
,
0101
1010
0101
1010
0101
1010
0101
1010
,
0101
1010
0101
1010
0101
1010
0202
0303
,
1100
0011
1100
0011
1100
0011
1100
0011
,
1100
0011
1100
0011
2200
3300
0101
1010
,
0101
1010
0101
1010
0101
1010
0101
1010
,
0101
1010
0101
1010
0101
1010
0101
0010
,
1100
0011
1100
0011
1100
0011
1100
0011
,
1100
0011
1100
0011
1100
0011
1100
0011
,
1100
0000
1001
0000
,
1010
0000
0000
0000
0000
0000
0000
0000
0000
0000
0000
0000
1000
0001
0000
0000
0000
0000
1001
0000
0000
0000
0000
0000
,
0001
0000
0000
0000
0100
0000
0001
0000
0010
0001
0010
0000
0100
0000
0000
0000
,
1000
0000
0100
0000
0000
0000
1000
0000
0100
1000
0100
0000
1000
0000
0001
0000
,
1100
0011
1100
0011
1100
0011
1100
0011
,
1100
0011
1100
0011
1100
0011
1100
0011
,
1000
0110
1001
0110
1001
0110
1001
0110
,
1001
0110
1001
0110
1001
0110
1001
0000
,
2200
3300
0022
0033
2200
3300
0022
0033
,
2200
3300
0022
0033
2200
3300
0000
0001
,
2020
3030
0202
0303
2020
3030
0202
0303
,
2020
0000
3030
0000
0001
1000
0001
0000
1000
0000
0000
0000
2002
0000
0000
0000
,
0000
0000
0000
0000
0000
0000
0000
0000
0000
0000
0000
0000
0M00
0000
0000
0000
00M0
0000
0000
0000
0M00
0000
0000
0000
00M0
0000
0000
0000
0M00
0000
0000
0000
00M0
0000
0000
0000
0M00
0000
0000
0000
0000
0000
00M0
0000
0000
0M00
0000
0000
,
0000
00M0
0M00
0000
0000
00M0
0M00
0000
0000
00M0
0M00
0000
0000
00M0
0000
0M00
,
0000
0000
0000
0000
0000
0000
0000
0000
0000
00M0
0000
0M00
0000
00M0
0000
0000
,
0M00
00M0
0M00
00M0
0M00
0000
00M0
0M00
,
0000
00M0
0000
0000
0M00
0000
0000
00M0
0000
0M00
00M0
0000
0M00
0000
00M0
0000
,
0M00
00M0
0M00
00M0
0M00
00M0
3M03
0000
;
