#TITLE:WE EAT AT FIVE FIVE FIVE;
#SUBTITLE:(guys);
#ARTIST:Cardboard Box vs. STereochan;
#TITLETRANSLIT:;
#SUBTITLETRANSLIT:;
#ARTISTTRANSLIT:;
#CREDIT:Mad Matt;
#BANNER:../banner.png;
#BACKGROUND:../bg.png;
#LYRICSPATH:;
#CDTITLE:;
#MUSIC:WE EAT AT FIVE FIVE FIVE.ogg;
#OFFSET:-0.015;
#SAMPLESTART:15.586;
#SAMPLELENGTH:10.000;
#SELECTABLE:YES;
#BPMS:0.000=555.000;
#STOPS:;
#BGCHANGES:;
// cache tags:
#FIRSTBEAT:16.000;
#LASTBEAT:432.000;
#SONGFILENAME:Songs/Tachyon Epsilon Short Cuts/WE EAT AT FIVE FIVE FIVE (guys) - [Mad Matt]/WE EAT AT FIVE FIVE FIVE.sm;
#HASMUSIC:1;
#HASBANNER:1;
#MUSICLENGTH:46.701;
// end cache tags

//---------------dance-single - Mad Matt----------------
#NOTES:
     dance-single:
     Mad Matt:
     Medium:
     19:
     1.000,1.000,0.000,1.000,0.814,529.000,0.000,47.000,0.000,0.000:







0000
0000
0000
0000
,
0000
0000
0000
0000
,
0000
0000
0000
0000
,
0000
0000
0000
0000
,
1000
0000
0100
0000
0010
0000
0001
0000
1000
0000
0100
0000
,
0010
0000
0001
0000
1000
0000
0100
0000
0010
0000
0001
0000
,
1000
0000
0010
0000
0100
0000
0001
0000
1000
0000
0010
0000
,
0100
0000
0001
0000
1000
0000
0010
0000
0100
0000
0001
0000
,
1000
0000
0100
0000
0010
0000
0001
0000
1000
0000
0100
0000
,
0010
0000
0001
0000
1000
0000
0100
0000
0010
0000
0001
0000
,
1000
0000
0010
0000
0100
0000
0001
0000
1000
0000
0010
0000
,
0100
0000
0001
0000
1000
0000
0010
0000
0100
0000
0001
0000
,
1000
0100
0010
0001
1000
0001
0100
0010
,
1000
0010
0100
0001
1000
0001
0010
0100
,
1000
0001
1000
0010
0100
0001
0100
0010
,
1000
0001
0010
0100
1000
0001
1000
0010
,
0100
0001
1000
0001
0010
0100
1000
0100
,
0010
0001
1000
0001
0100
0010
1000
0001
,
0010
0100
1000
0100
0010
0001
1000
0001
,
0100
0010
1000
0001
0010
0100
1000
0001
,
4000
3000
0000
0000
0010
0000
0000
0000
0100
0000
0000
0000
0004
0003
0000
0000
,
0010
0000
0000
0000
0100
0000
0000
0000
4000
3000
0000
0000
0001
0000
0000
0000
,
0200
0300
0010
0000
1000
0000
0001
0000
,
0200
0300
0010
0000
1000
0000
0001
0000
,
4000
3000
0000
0000
0100
0000
0000
0000
0010
0000
0000
0000
0004
0003
0000
0000
,
0100
0000
0000
0000
0010
0000
0000
0000
4000
3000
0000
0000
0001
0000
0000
0000
,
0020
0030
0100
0000
1000
0000
0001
0000
,
0200
0300
0010
0000
1000
0000
0001
0000
,
4000
3000
0000
0000
0010
0000
0000
0000
0100
0000
0000
0000
0004
0003
0000
0000
,
0010
0000
0000
0000
0100
0000
0000
0000
4000
3000
0000
0000
0001
0000
0000
0000
,
2000
3000
0010
0000
0100
0000
0001
0000
,
2000
3000
0010
0000
0100
0000
0001
0000
,
4000
3000
0000
0000
0100
0000
0000
0000
0010
0000
0000
0000
0004
0003
0000
0000
,
0100
0000
0000
0000
0010
0000
0000
0000
4000
3000
0000
0000
0001
0000
0000
0000
,
4000
3000
0100
0000
0010
0000
0001
0000
,
2000
0000
0010
3000
0100
0000
0001
0000
,
1000
0000
0100
0000
0010
0000
0001
0000
0010
0000
0100
0000
,
1000
0000
0001
0000
0100
0000
0010
0000
0100
0000
0001
0000
,
1000
0001
0100
0010
0100
0001
1000
0001
,
0010
0100
0010
0001
1000
0001
0100
0010
,
1000
0000
0001
0000
0100
0000
0010
0000
0100
0000
0001
0000
,
1000
0000
0100
0000
0010
0000
0001
0000
0010
0000
0100
0000
,
1000
0100
0010
0100
1000
0001
1000
0010
,
0100
0010
1000
0001
1000
0100
0010
0100
,
1000
0001
0010
0100
1000
0001
1000
0010
,
0100
0010
1000
0001
1000
0100
0010
0001
,
1000
0001
0100
0010
0100
0001
1000
0001
,
0010
0100
1000
0001
1000
0010
0100
0010
,
1000
0100
0010
0001
,
1000
0010
0100
0001
,
1000
0010
0100
0010
1000
0001
1000
0100
,
0010
0100
1000
0001
1000
0010
0100
0001
,
1000
0000
0010
0000
0100
0000
0001
0000
0100
0000
0010
0000
,
1000
0000
0001
0000
0010
0000
0100
0000
0010
0000
0001
0000
,
1000
0001
0010
0100
0010
0001
1000
0001
,
0100
0010
0100
0001
1000
0001
0010
0100
,
1000
0000
0001
0000
0010
0000
0100
0000
0010
0000
0001
0000
,
1000
0000
0010
0000
0100
0000
0001
0000
0100
0000
0010
0000
,
1000
0010
0100
0010
1000
0001
1000
0100
,
0010
0100
1000
0001
1000
0010
0100
0010
,
1000
0001
0100
0010
1000
0001
1000
0100
,
0010
0100
1000
0001
1000
0010
0100
0001
,
1000
0001
0010
0100
0010
0001
1000
0001
,
0100
0010
1000
0001
1000
0100
0010
0100
,
1000
0010
0100
0001
,
1000
0100
0010
0001
,
1000
0100
0010
0100
1000
0001
1000
0010
,
0100
0010
1000
0001
1000
0100
0010
0001
,
1000
0100
1000
0100
,
1000
0100
1000
0100
,
0010
0001
0010
0001
,
0010
0001
0010
0001
,
1000
0001
0100
0010
1000
0001
1000
0100
,
0010
0001
0010
0100
1000
0001
1000
0010
,
0100
0010
1000
0001
1000
0100
0010
0100
,
1000
0001
1000
0010
0100
0001
0100
0010
,
1000
0001
1000
0001
,
1000
0001
1000
0001
,
0100
0010
0100
0010
,
0100
0010
0100
0010
,
1000
0100
0010
0001
,
0100
0010
1000
0100
,
1000
0010
0100
0001
,
1000
0100
0010
0001
,
2000
3020
0230
0302
,
2003
3200
0320
0032
,
2003
3010
0100
0010
,
2000
3100
0010
0100
,
2000
3020
0230
0302
,
0023
0230
2300
3020
,
2030
3100
0010
0001
,
2000
3010
0100
0001
,
2000
3200
0320
0032
,
0203
0320
2030
3200
,
2300
3010
0100
0010
,
2000
3100
0010
0100
,
2000
3020
0230
0302
,
0023
0230
2300
3020
,
2030
3001
0010
0100
,
2000
3010
0400
0000
,
0000
0000
0000
0000
,
0000
0000
0000
0000
,
0000
0000
0000
0000
,
0000
0000
0000
0000
,
0000
0000
0000
0000
,
0000
0000
0000
0000
,
0000
0000
0000
0000
,
0000
0000
0000
0000
,
0300
0000
0000
0000
;

//---------------dance-single - TheBoxX----------------
#NOTES:
     dance-single:
     TheBoxX:
     Beginner:
     18:
     1.000,1.000,0.000,1.000,0.814,529.000,0.000,47.000,0.000,0.000:





0000
0000
0000
0000
,
0000
0000
0000
0000
,
0000
0000
0000
0000
,
0000
0000
0000
0000
,
1000
0000
0100
0000
0010
0000
0001
0000
1000
0000
0100
0000
,
0010
0000
0001
0000
1000
0000
0100
0000
0010
0000
0001
0000
,
1000
0000
0010
0000
0100
0000
0001
0000
1000
0000
0010
0000
,
0100
0000
0001
0000
1000
0000
0010
0000
0100
0000
0001
0000
,
1000
0000
0100
0000
0010
0000
0001
0000
1000
0000
0100
0000
,
0010
0000
0001
0000
1000
0000
0100
0000
0010
0000
0001
0000
,
1000
0000
0010
0000
0100
0000
0001
0000
1000
0000
0010
0000
,
0100
0000
0001
0000
1000
0000
0010
0000
0100
0000
0001
0000
,
1000
0001
0010
0001
1000
0001
1000
0100
,
1000
0001
0010
0100
1000
0100
1000
0001
,
1000
0001
0100
0001
1000
0001
1000
0010
,
1000
0001
0100
0010
1000
0010
1000
0001
,
1000
0001
0010
0001
1000
0100
0010
0100
,
0010
0001
0010
0001
1000
0100
1000
0001
,
1000
0001
0100
0001
1000
0010
1000
0001
,
1000
0001
0100
0010
0100
0001
0100
0010
,
4000
3000
0000
0000
0010
0000
0000
0000
0100
0000
0000
0000
0004
0003
0000
0000
,
0010
0000
0000
0000
0100
0000
0000
0000
4000
3000
0000
0000
0001
0000
0000
0000
,
0200
0300
0010
0000
1000
0000
0001
0000
,
0200
0300
0010
0000
1000
0000
0001
0000
,
4000
3000
0000
0000
0100
0000
0000
0000
0010
0000
0000
0000
0004
0003
0000
0000
,
0100
0000
0000
0000
0010
0000
0000
0000
4000
3000
0000
0000
0001
0000
0000
0000
,
0020
0030
0100
0000
1000
0000
0001
0000
,
0200
0300
0010
0000
1000
0000
0001
0000
,
4000
3000
0000
0000
0010
0000
0000
0000
0100
0000
0000
0000
0004
0003
0000
0000
,
0010
0000
0000
0000
0100
0000
0000
0000
4000
3000
0000
0000
0001
0000
0000
0000
,
2000
3000
0010
0000
0100
0000
0001
0000
,
2000
3000
0010
0000
0100
0000
0001
0000
,
4000
3000
0000
0000
0100
0000
0000
0000
0010
0000
0000
0000
0004
0003
0000
0000
,
0100
0000
0000
0000
0010
0000
0000
0000
4000
3000
0000
0000
0001
0000
0000
0000
,
4000
3000
0100
0000
0010
0000
0001
0000
,
2000
0000
0010
3000
0100
0000
0001
0000
,
1000
0000
0100
0000
0010
0000
0001
0000
0010
0000
0100
0000
,
1000
0000
0001
0000
0100
0000
0010
0000
0100
0000
0001
0000
,
1000
0001
0100
0010
0100
0001
1000
0001
,
1000
0100
1000
0001
1000
0001
0010
0001
,
1000
0000
0001
0000
0100
0000
0010
0000
0100
0000
0001
0000
,
1000
0000
0100
0000
0010
0000
0001
0000
0010
0000
0100
0000
,
1000
0100
0010
0001
0010
0001
1000
0001
,
1000
0010
1000
0001
0100
0001
0100
0010
,
1000
0001
1000
0010
1000
0001
0100
0001
,
1000
0001
1000
0010
0100
0010
1000
0001
,
1000
0001
0010
0001
1000
0001
1000
0100
,
0010
0001
1000
0001
1000
0100
0010
0001
,
1000
0100
0010
0001
,
1000
0010
0100
0001
,
1000
0010
0100
0010
0100
0001
1000
0001
,
1000
0100
1000
0001
0010
0100
0010
0100
,
1000
0000
0100
0000
0010
0000
0001
0000
0010
0000
0100
0000
,
1000
0000
0001
0000
0100
0000
0010
0000
0100
0000
0001
0000
,
1000
0001
0100
0010
0100
0001
1000
0001
,
1000
0100
1000
0001
1000
0001
0010
0001
,
1000
0000
0001
0000
0100
0000
0010
0000
0100
0000
0001
0000
,
1000
0000
0100
0000
0010
0000
0001
0000
0010
0000
0100
0000
,
1000
0100
0010
0001
0010
0001
1000
0001
,
1000
0010
1000
0001
0100
0001
0100
0010
,
1000
0001
1000
0010
1000
0001
0100
0001
,
1000
0001
1000
0010
0100
0010
1000
0001
,
1000
0001
0010
0001
1000
0001
1000
0100
,
0010
0001
1000
0001
1000
0100
0010
0001
,
1000
0100
0010
0001
,
1000
0010
0100
0001
,
1000
0010
0100
0010
0100
0001
1000
0001
,
1000
0100
1000
0001
0010
0100
0010
0100
,
1000
0100
1000
0100
,
1000
0100
1000
0100
,
0010
0001
0010
0001
,
0010
0001
0010
0001
,
1000
0100
1000
0100
0010
0100
0010
0001
,
1000
0100
1000
0100
0010
0100
0010
0001
,
1000
0100
1000
0100
0010
0100
0010
0001
,
1000
0100
1000
0100
0010
0100
0010
0001
,
1000
0001
1000
0001
,
1000
0001
1000
0001
,
0100
0010
0100
0010
,
0100
0010
0100
0010
,
1000
0100
0010
0001
,
0100
0010
1000
0100
,
1000
0010
0100
0001
,
1000
0100
0010
0001
,
2000
3020
0230
0302
,
2003
3200
0320
0032
,
2003
3010
0100
0010
,
2000
3100
0010
0100
,
2000
3020
0230
0302
,
0023
0230
2300
3020
,
2030
3100
0010
0001
,
2000
3010
0100
0001
,
2000
3200
0320
0032
,
0203
0320
2030
3200
,
2300
3010
0100
0010
,
2000
3100
0010
0100
,
2000
3020
0230
0302
,
0023
0230
2300
3020
,
2030
3001
0010
0100
,
2000
3010
0400
0000
,
0000
0000
0000
0000
,
0000
0000
0000
0000
,
0000
0000
0000
0000
,
0000
0000
0000
0000
,
0000
0000
0000
0000
,
0000
0000
0000
0000
,
0000
0000
0000
0000
,
0000
0000
0000
0000
,
0300
0000
0000
0000
;

//---------------dance-single - Mad Matt----------------
#NOTES:
     dance-single:
     Mad Matt:
     Easy:
     18:
     1.000,1.000,0.000,1.000,0.814,529.000,0.000,47.000,0.000,0.000:






0000
0000
0000
0000
,
0000
0000
0000
0000
,
0000
0000
0000
0000
,
0000
0000
0000
0000
,
1000
0000
0100
0000
0010
0000
0001
0000
1000
0000
0100
0000
,
0010
0000
0001
0000
1000
0000
0100
0000
0010
0000
0001
0000
,
1000
0000
0010
0000
0100
0000
0001
0000
1000
0000
0010
0000
,
0100
0000
0001
0000
1000
0000
0010
0000
0100
0000
0001
0000
,
1000
0000
0100
0000
0010
0000
0001
0000
1000
0000
0100
0000
,
0010
0000
0001
0000
1000
0000
0100
0000
0010
0000
0001
0000
,
1000
0000
0010
0000
0100
0000
0001
0000
1000
0000
0010
0000
,
0100
0000
0001
0000
1000
0000
0010
0000
0100
0000
0001
0000
,
1000
0001
0010
0100
0010
0001
1000
0100
,
1000
0001
0010
0100
1000
0001
1000
0010
,
1000
0001
0100
0001
1000
0010
0100
0010
,
1000
0001
0100
0001
1000
0010
0100
0001
,
1000
0001
0010
0001
1000
0100
1000
0001
,
0010
0100
0010
0001
1000
0100
1000
0001
,
0100
0001
1000
0010
0100
0010
1000
0001
,
0100
0010
1000
0001
0100
0010
0100
0001
,
4000
3000
0000
0000
0010
0000
0000
0000
0100
0000
0000
0000
0004
0003
0000
0000
,
0010
0000
0000
0000
0100
0000
0000
0000
4000
3000
0000
0000
0001
0000
0000
0000
,
0200
0300
0010
0000
1000
0000
0001
0000
,
0200
0300
0010
0000
1000
0000
0001
0000
,
4000
3000
0000
0000
0100
0000
0000
0000
0010
0000
0000
0000
0004
0003
0000
0000
,
0100
0000
0000
0000
0010
0000
0000
0000
4000
3000
0000
0000
0001
0000
0000
0000
,
0020
0030
0100
0000
1000
0000
0001
0000
,
0200
0300
0010
0000
1000
0000
0001
0000
,
4000
3000
0000
0000
0010
0000
0000
0000
0100
0000
0000
0000
0004
0003
0000
0000
,
0010
0000
0000
0000
0100
0000
0000
0000
4000
3000
0000
0000
0001
0000
0000
0000
,
2000
3000
0010
0000
0100
0000
0001
0000
,
2000
3000
0010
0000
0100
0000
0001
0000
,
4000
3000
0000
0000
0100
0000
0000
0000
0010
0000
0000
0000
0004
0003
0000
0000
,
0100
0000
0000
0000
0010
0000
0000
0000
4000
3000
0000
0000
0001
0000
0000
0000
,
4000
3000
0100
0000
0010
0000
0001
0000
,
2000
0000
0010
3000
0100
0000
0001
0000
,
1000
0000
0100
0000
0010
0000
0001
0000
0010
0000
0100
0000
,
1000
0000
0001
0000
0100
0000
0010
0000
0100
0000
0001
0000
,
1000
0001
0100
0010
0100
0001
1000
0001
,
0010
0001
1000
0100
1000
0001
0010
0001
,
1000
0000
0001
0000
0100
0000
0010
0000
0100
0000
0001
0000
,
1000
0000
0100
0000
0010
0000
0001
0000
0010
0000
0100
0000
,
1000
0100
0010
0001
1000
0100
1000
0001
,
0010
0001
1000
0001
0100
0001
1000
0010
,
1000
0001
0100
0010
1000
0001
0100
0010
,
0100
0001
1000
0010
0100
0010
1000
0001
,
1000
0100
1000
0001
0010
0001
1000
0100
,
0010
0001
1000
0100
1000
0001
0010
0001
,
1000
0100
0010
0001
,
1000
0010
0100
0001
,
1000
0010
0100
0010
1000
0001
0100
0001
,
1000
0100
1000
0001
0010
0100
0010
0001
,
1000
0000
0010
0000
0100
0000
0001
0000
0100
0000
0010
0000
,
1000
0000
0001
0000
0010
0000
0100
0000
0010
0000
0001
0000
,
1000
0001
0010
0100
0010
0001
1000
0001
,
0100
0001
1000
0010
1000
0001
0100
0001
,
1000
0000
0001
0000
0010
0000
0100
0000
0010
0000
0001
0000
,
1000
0000
0010
0000
0100
0000
0001
0000
0100
0000
0010
0000
,
1000
0010
0100
0001
1000
0010
1000
0001
,
0100
0001
1000
0001
0010
0001
1000
0100
,
1000
0001
0010
0100
1000
0001
0010
0100
,
0010
0001
1000
0100
0010
0100
1000
0001
,
1000
0010
1000
0001
0100
0001
1000
0010
,
0100
0001
1000
0010
1000
0001
0100
0001
,
1000
0010
0100
0001
,
1000
0100
0010
0001
,
1000
0100
0010
0100
1000
0001
0010
0001
,
1000
0010
1000
0001
0100
0010
0100
0001
,
1000
0100
1000
0100
,
1000
0100
1000
0100
,
0010
0001
0010
0001
,
0010
0001
0010
0001
,
1000
0001
0100
0010
1000
0001
0100
0001
,
1000
0010
1000
0001
0100
0010
1000
0001
,
1000
0100
1000
0001
0010
0100
0010
0001
,
1000
0100
0010
0100
1000
0001
0010
0100
,
1000
0001
1000
0001
,
1000
0001
1000
0001
,
0100
0010
0100
0010
,
0100
0010
0100
0010
,
1000
0100
0010
0001
,
0100
0010
1000
0100
,
1000
0010
0100
0001
,
1000
0100
0010
0001
,
2000
3020
0230
0302
,
2003
3200
0320
0032
,
2003
3010
0100
0010
,
2000
3100
0010
0100
,
2000
3020
0230
0302
,
0023
0230
2300
3020
,
2030
3100
0010
0001
,
2000
3010
0100
0001
,
2000
3200
0320
0032
,
0203
0320
2030
3200
,
2300
3010
0100
0010
,
2000
3100
0010
0100
,
2000
3020
0230
0302
,
0023
0230
2300
3020
,
2030
3001
0010
0100
,
2000
3010
0400
0000
,
0000
0000
0000
0000
,
0000
0000
0000
0000
,
0000
0000
0000
0000
,
0000
0000
0000
0000
,
0000
0000
0000
0000
,
0000
0000
0000
0000
,
0000
0000
0000
0000
,
0000
0000
0000
0000
,
0300
0000
0000
0000
;

//---------------dance-single - Mad Matt----------------
#NOTES:
     dance-single:
     Mad Matt:
     Hard:
     20:
     1.000,1.000,0.000,1.000,0.128,561.000,0.000,47.000,0.000,0.000:



0000
0000
0000
0000
,
0000
0000
0000
0000
,
0000
0000
0000
0000
,
0000
0000
0000
0000
,
1000
0001
0010
0100
1000
0001
1000
0010
,
1000
0001
0100
0010
1000
0001
1000
0010
,
0100
0001
1000
0010
1000
0001
0010
0001
,
1000
0100
0010
0001
1000
0001
0010
0100
,
1000
0001
0100
0001
1000
0010
1000
0001
,
0100
0010
1000
0001
1000
0100
1000
0001
,
0010
0100
1000
0001
0010
0100
1000
0001
,
1000
0010
1000
0001
0100
0010
0100
0001
,
1000
0001
0010
0100
0010
0001
1000
0100
,
1000
0001
0010
0100
1000
0001
1000
0010
,
1000
0001
0100
0001
1000
0010
0100
0010
,
1000
0001
0100
0001
1000
0010
0100
0001
,
1000
0001
0010
0001
1000
0100
1000
0001
,
0010
0100
0010
0001
1000
0100
1000
0001
,
0100
0001
1000
0010
0100
0010
1000
0001
,
0100
0010
1000
0001
0100
0010
0100
0001
,
4000
3000
0000
0000
0010
0000
0000
0000
0100
0000
0000
0000
0004
0003
0000
0000
,
0010
0000
0000
0000
0100
0000
0000
0000
4000
3000
0000
0000
0001
0000
0000
0000
,
0200
0300
0010
0000
1000
0000
0001
0000
,
0200
0300
0010
0000
1000
0000
0001
0000
,
4000
3000
0000
0000
0100
0000
0000
0000
0010
0000
0000
0000
0004
0003
0000
0000
,
0100
0000
0000
0000
0010
0000
0000
0000
4000
3000
0000
0000
0001
0000
0000
0000
,
0020
0030
0100
0000
1000
0000
0001
0000
,
0200
0300
0010
0000
1000
0000
0001
0000
,
4000
3000
0000
0000
0010
0000
0000
0000
0100
0000
0000
0000
0004
0003
0000
0000
,
0010
0000
0000
0000
0100
0000
0000
0000
4000
3000
0000
0000
0001
0000
0000
0000
,
2000
3000
0010
0000
0100
0000
0001
0000
,
2000
3000
0010
0000
0100
0000
0001
0000
,
4000
3000
0000
0000
0100
0000
0000
0000
0010
0000
0000
0000
0004
0003
0000
0000
,
0100
0000
0000
0000
0010
0000
0000
0000
4000
3000
0000
0000
0001
0000
0000
0000
,
4000
3000
0100
0000
0010
0000
0001
0000
,
2000
0000
0010
3000
0100
0000
0001
0000
,
1000
0010
0100
0001
1000
0010
0100
0001
,
1000
0001
0010
0100
1000
0001
0010
0100
,
1000
0001
0100
0010
0100
0001
1000
0001
,
0010
0001
1000
0100
1000
0001
0010
0001
,
1000
0100
0010
0001
1000
0100
0010
0001
,
1000
0001
0100
0010
1000
0001
0100
0010
,
1000
0001
0010
0001
1000
0100
1000
0001
,
0010
0001
1000
0001
0100
0001
1000
0010
,
1000
0001
0100
0010
1000
0001
0100
0010
,
0100
0001
1000
0010
0100
0010
1000
0001
,
1000
0100
1000
0001
0010
0001
1000
0100
,
0010
0001
1000
0100
1000
0001
0010
0001
,
1000
0100
0010
0001
,
1000
0010
0100
0001
,
1000
0010
0100
0010
1000
0001
0100
0001
,
1000
0100
1000
0001
0010
0100
0010
0001
,
1000
0010
0100
0001
1000
0010
0100
0001
,
1000
0001
0010
0100
1000
0001
0010
0100
,
1000
0001
0100
0010
0100
0001
1000
0001
,
0010
0001
1000
0100
1000
0001
0010
0001
,
1000
0100
0010
0001
1000
0100
0010
0001
,
1000
0001
0100
0010
1000
0001
0100
0010
,
1000
0001
0010
0001
1000
0100
1000
0001
,
0010
0001
1000
0001
0100
0001
1000
0010
,
1000
0001
0100
0010
1000
0001
0100
0010
,
0100
0001
1000
0010
0100
0010
1000
0001
,
1000
0100
1000
0001
0010
0001
1000
0100
,
0010
0001
1000
0100
1000
0001
0010
0001
,
1000
0010
0100
0001
,
1000
0100
0010
0001
,
1000
0100
0010
0100
1000
0001
0010
0001
,
1000
0010
1000
0001
0100
0010
0100
0001
,
1000
0100
1000
0100
,
1000
0100
1000
0100
,
0010
0001
0010
0001
,
0010
0001
0010
0001
,
1000
0001
0100
0010
1000
0001
0100
0001
,
1000
0010
1000
0001
0100
0010
1000
0001
,
1000
0100
1000
0001
0010
0100
0010
0001
,
1000
0100
0010
0100
1000
0001
0010
0100
,
1000
0001
1000
0001
,
1000
0001
1000
0001
,
0100
0010
0100
0010
,
0100
0010
0100
0010
,
1000
0100
0010
0001
,
0100
0010
1000
0100
,
1000
0010
0100
0001
,
1000
0100
0010
0001
,
2000
3020
0230
0302
,
2003
3200
0320
0032
,
2003
3010
0100
0010
,
2000
3100
0010
0100
,
2000
3020
0230
0302
,
0023
0230
2300
3020
,
2030
3100
0010
0001
,
2000
3010
0100
0001
,
2000
3200
0320
0032
,
0203
0320
2030
3200
,
2300
3010
0100
0010
,
2000
3100
0010
0100
,
2000
3020
0230
0302
,
0023
0230
2300
3020
,
2030
3001
0010
0100
,
2000
3010
0400
0000
,
0000
0000
0000
0000
,
0000
0000
0000
0000
,
0000
0000
0000
0000
,
0000
0000
0000
0000
,
0000
0000
0000
0000
,
0000
0000
0000
0000
,
0000
0000
0000
0000
,
0000
0000
0000
0000
,
0300
0000
0000
0000
;

//---------------dance-single - Mad Matt----------------
#NOTES:
     dance-single:
     Mad Matt:
     Challenge:
     21:
     1.000,1.000,0.000,1.000,0.128,561.000,0.000,47.000,0.000,0.000:

0000
0000
0000
0000
,
0000
0000
0000
0000
,
0000
0000
0000
0000
,
0000
0000
0000
0000
,
1000
0100
0010
0001
1000
0001
0100
0010
,
1000
0001
1000
0100
1000
0001
0100
0010
,
1000
0001
0010
0001
1000
0010
1000
0001
,
0100
0010
1000
0001
1000
0100
0010
0100
,
1000
0001
0010
0100
0010
0001
1000
0001
,
0100
0010
1000
0001
1000
0100
1000
0001
,
0100
0010
1000
0001
1000
0100
1000
0001
,
0100
0010
0100
0001
1000
0100
1000
0001
,
1000
0100
0010
0001
1000
0001
0100
0001
,
1000
0100
0010
0001
1000
0001
0100
0001
,
1000
0010
0100
0001
1000
0001
0010
0001
,
1000
0100
0010
0100
1000
0001
0010
0001
,
1000
0100
0010
0001
1000
0001
0100
0010
,
1000
0001
1000
0100
0010
0100
1000
0001
,
0010
0100
0010
0001
1000
0001
0100
0010
,
1000
0001
1000
0100
1000
0001
0100
0010
,
4000
3000
0000
0000
0010
0000
0000
0000
0100
0000
0000
0000
0004
0003
0000
0000
,
0010
0000
0000
0000
0100
0000
0000
0000
4000
3000
0000
0000
0001
0000
0000
0000
,
0200
0300
0010
0000
1000
0000
0001
0000
,
0200
0300
0010
0000
1000
0000
0001
0000
,
4000
3000
0000
0000
0100
0000
0000
0000
0010
0000
0000
0000
0004
0003
0000
0000
,
0100
0000
0000
0000
0010
0000
0000
0000
4000
3000
0000
0000
0001
0000
0000
0000
,
0020
0030
0100
0000
1000
0000
0001
0000
,
0200
0300
0010
0000
1000
0000
0001
0000
,
4000
3000
0000
0000
0010
0000
0000
0000
0100
0000
0000
0000
0004
0003
0000
0000
,
0010
0000
0000
0000
0100
0000
0000
0000
4000
3000
0000
0000
0001
0000
0000
0000
,
2000
3000
0010
0000
0100
0000
0001
0000
,
2000
3000
0010
0000
0100
0000
0001
0000
,
4000
3000
0000
0000
0100
0000
0000
0000
0010
0000
0000
0000
0004
0003
0000
0000
,
0100
0000
0000
0000
0010
0000
0000
0000
4000
3000
0000
0000
0001
0000
0000
0000
,
4000
3000
0100
0000
0010
0000
0001
0000
,
2000
0000
0010
3000
0100
0000
0001
0000
,
1000
0100
0010
0001
1000
0001
0100
0010
,
1000
0001
1000
0100
1000
0001
0100
0010
,
1000
0001
1000
0100
1000
0010
0100
0001
,
1000
0001
0010
0001
1000
0010
0100
0001
,
1000
0100
1000
0001
0010
0100
0010
0001
,
1000
0001
0100
0010
1000
0001
1000
0100
,
1000
0001
0100
0001
0010
0100
1000
0001
,
1000
0010
1000
0001
0010
0100
0010
0001
,
1000
0010
1000
0001
1000
0100
0010
0100
,
1000
0001
1000
0010
0100
0001
1000
0001
,
0010
0001
1000
0010
1000
0001
1000
0100
,
1000
0001
0010
0100
0010
0001
1000
0001
,
0100
0010
0100
0001
,
1000
0100
0010
0001
,
1000
0100
0010
0001
1000
0010
1000
0001
,
1000
0010
0100
0010
1000
0001
0010
0001
,
1000
0010
0100
0001
1000
0001
0010
0100
,
1000
0001
1000
0010
1000
0001
0010
0100
,
1000
0001
1000
0010
1000
0100
0010
0001
,
1000
0001
0100
0001
1000
0100
0010
0001
,
1000
0010
1000
0001
0100
0010
0100
0001
,
1000
0001
0010
0100
1000
0001
1000
0010
,
1000
0001
0010
0001
0100
0010
1000
0001
,
1000
0100
1000
0001
0100
0010
0100
0001
,
1000
0100
1000
0001
1000
0010
0100
0010
,
1000
0001
1000
0100
0010
0001
1000
0001
,
0100
0001
1000
0100
1000
0001
1000
0010
,
1000
0001
0100
0010
0100
0001
1000
0001
,
0010
0100
0010
0001
,
1000
0010
0100
0001
,
1000
0010
0100
0001
1000
0100
1000
0001
,
1000
0100
0010
0100
1000
0001
0100
0001
,
1000
0100
1000
0100
,
1000
0100
1000
0100
,
0010
0001
0010
0001
,
0010
0001
0010
0001
,
1000
0001
0100
0001
1000
0100
1000
0001
,
1000
0010
0100
0010
1000
0001
0100
0010
,
1000
0001
1000
0100
1000
0001
0010
0100
,
0010
0001
1000
0100
1000
0001
0100
0001
,
1000
0001
1000
0001
,
1000
0001
1000
0001
,
0100
0010
0100
0010
,
0100
0010
0100
0010
,
1000
0100
0010
0001
,
0100
0010
1000
0100
,
1000
0010
0100
0001
,
1000
0100
0010
0001
,
2000
3020
0230
0302
,
2003
3200
0320
0032
,
2003
3010
0100
0010
,
2000
3100
0010
0100
,
2000
3020
0230
0302
,
0023
0230
2300
3020
,
2030
3100
0010
0001
,
2000
3010
0100
0001
,
2000
3200
0320
0032
,
0203
0320
2030
3200
,
2300
3010
0100
0010
,
2000
3100
0010
0100
,
2000
3020
0230
0302
,
0023
0230
2300
3020
,
2030
3001
0010
0100
,
2000
3010
0400
0000
,
0000
0000
0000
0000
,
0000
0000
0000
0000
,
0000
0000
0000
0000
,
0000
0000
0000
0000
,
0000
0000
0000
0000
,
0000
0000
0000
0000
,
0000
0000
0000
0000
,
0000
0000
0000
0000
,
0300
0000
0000
0000
;
