#TITLE:Spooky Scary Skeletons;
#SUBTITLE:they gonna getchya;
#ARTIST:Andrew Gold;
#TITLETRANSLIT:;
#SUBTITLETRANSLIT:;
#ARTISTTRANSLIT:;
#CREDIT:;
#BANNER:Spooky - bn.png;
#BACKGROUND:Spooky - bg.png;
#LYRICSPATH:;
#CDTITLE:../aCD.png;
#MUSIC:Spooky Scary Skeletons.ogg;
#OFFSET:0.010;
#SAMPLESTART:49.326;
#SAMPLELENGTH:12.000;
#SELECTABLE:YES;
#BPMS:0.000=154.078;
#STOPS:;
#BGCHANGES:0.000=2 spooky.avi=1.000=0=0=1,
99999=-nosongbg-=1.000=0=0=0 // don't automatically add -songbackground-
;
// cache tags:
#FIRSTBEAT:0.000;
#LASTBEAT:322.167;
#SONGFILENAME:Songs/Aoreo's Index Jawn/Spooky Scary Skeletons - [Aoreo]/Spooky Scary Skeletons.sm;
#HASMUSIC:1;
#HASBANNER:1;
#MUSICLENGTH:126.173;
// end cache tags

//---------------dance-single - J. Nero----------------
#NOTES:
     dance-single:
     J. Nero:
     Challenge:
     29:
     1.000,1.000,0.159,0.412,1.000,1791.000,20.000,52.000,0.000,4.000:
1000
0000
0001
0000
0100
0010
0100
0000
0000
0000
0001
0000
1000
0000
0100
0000
0010
0001
1000
0000
0000
0000
0001
0000
,
0100
0000
0001
0000
0010
0000
0100
0000
1000
0000
0010
0000
0100
0000
0010
0000
1000
0100
0010
0000
0001
0000
1000
0000
,
0001
0000
0100
0000
0001
0000
0010
0000
0100
0000
1000
0000
0010
0000
0100
0000
0010
0000
1000
0000
0100
0000
0010
0001
,
1000
0000
0000
0000
0000
0001
0010
0100
0000
0000
0000
1000
0001
1000
0000
0000
0000
0000
1001
0000
0000
0000
0001
0000
,
0100
0000
0001
0000
0010
0100
1000
0000
0000
0000
0001
0000
1000
0000
0100
0000
0010
0100
1000
0000
0000
0000
0001
0000
,
0100
0000
0001
0000
0010
0000
0100
0000
1000
0000
0001
0000
0100
0000
0010
0000
1000
0100
0010
0000
0000
0000
0001
0000
,
0100
0000
0001
0000
0010
0000
0100
0000
1000
0000
0001
0000
0100
0010
0100
0000
0001
0000
1000
0000
0000
0000
0000
0001
,
0010
0100
0000
0000
0000
1000
0100
0010
0000
0000
0000
0001
1000
0001
0000
0000
0000
0000
0000
0000
0000
0000
0000
0000
,
1000
0001
0100
0001
1000
0010
0100
0010
1000
0001
1000
0100
0010
0001
1000
0001
0100
0010
1000
0001
1000
0100
0010
0001
1000
0001
0100
0010
0100
0001
1000
0100
,
0010
0100
1000
0001
0100
0001
0100
0010
1000
0010
0100
0001
1000
0100
0010
0001
1000
0001
0100
0010
0100
0001
1000
0001
0010
0100
1000
0001
0100
0001
0100
0010
,
1000
0010
0100
0001
1000
0001
1000
0100
0010
0001
1000
0001
0100
0010
0100
0001
1000
0001
0010
0100
1000
0001
0100
0001
0100
0010
1000
0001
1000
0100
0010
0001
,
1000
0100
0010
0100
1000
0001
0100
0001
0100
0010
1000
0010
0100
0001
1000
0100
0010
0001
1000
0100
1000
0001
0100
0001
0100
0010
1000
0001
0100
0001
0100
0010
,
1000
0001
1000
0100
0010
0001
0100
0001
1000
0010
0100
0010
1000
0001
1000
0100
0010
0001
1000
0001
0100
0010
0100
0001
1000
0100
0010
0001
1000
0001
0100
0010
,
0100
0001
1000
0001
0010
0100
0010
0001
1000
0100
1000
0001
0100
0001
0100
0010
1000
0010
0100
0001
1000
0100
0010
0001
1000
0010
0100
0010
1000
0001
0100
0001
,
0100
0010
1000
0001
0100
0001
0010
0100
1000
0001
0100
0001
1000
0100
1000
0100
0010
0001
1000
0010
0100
0010
1000
0100
0010
0001
1000
0010
0100
0010
1000
0001
,
2000
3000
2002
3003
2002
3003
0000
0000
,
0001
0100
0001
1000
0100
0010
0001
1000
0001
0100
0010
0100
0001
1000
0100
1000
0001
0100
0001
0100
0010
1000
0001
1000
0100
0010
0001
1000
0100
1000
0001
0100
,
0001
1000
0010
0100
0010
0100
0001
1000
0100
0010
0100
1000
0001
0100
0001
1000
0010
0100
0010
1000
0001
1000
0100
0010
0001
1000
0001
0100
0010
0100
0001
1000
,
0100
0010
0001
1000
0001
0100
0010
0100
0001
1000
0001
0010
0100
1000
0001
0100
0001
0100
0010
1000
0010
0100
0001
1000
0001
0100
0010
1000
0010
0100
0001
1000
,
0100
1000
0001
0010
0100
0010
0001
1000
0001
0100
0010
0100
0001
1000
0010
0100
0001
1000
0001
0010
0100
1000
0001
1000
0010
0100
0001
0100
0001
1000
0100
0010
,
0001
1000
0100
1000
0001
0100
0010
0100
0001
1000
0001
0100
0010
0100
0001
1000
0100
0010
0001
1000
0001
0100
0010
0100
0001
1000
0001
1000
0100
0010
0001
1000
,
0001
0100
0010
0100
0001
1000
0100
0010
0100
1000
0001
0100
0001
0100
0010
1000
0010
0100
0001
1000
0001
0010
0100
1000
0001
0100
0010
0100
0001
1000
0100
0010
,
0100
1000
0001
0100
0001
0100
0010
1000
0010
0100
0001
0100
0010
1000
0001
1000
0100
0010
0001
1000
0001
0100
0010
0100
0001
1000
0100
0010
0100
1000
0001
1000
,
0002
0003
2002
3003
2002
3003
0000
0000
,
1000
0000
0100
1000
0000
0001
0100
0000
0001
0010
0000
0100
,
1000
0000
0001
0100
0000
0010
0100
0000
0001
1000
0000
0100
,
0020
0000
0001
2030
0000
0010
3200
0000
0001
0320
0000
0001
,
2030
0000
0000
3010
0000
0010
0200
0000
0000
0301
0000
0001
,
1000
0000
0100
0010
0000
0001
1000
0000
0001
0100
0000
0010
,
0100
0000
0001
0010
0000
0100
1000
0000
0001
0100
0000
0010
,
0200
0300
1010
0000
0020
0030
0101
0000
,
0001
0000
2222
3333
2222
3333
1000
0000
,
0001
0100
0001
0100
0010
1000
0001
1000
0100
0010
0100
1000
0001
0100
0001
1000
0100
1000
0001
0100
0001
1000
0100
1000
0001
0100
0010
0100
0001
1000
0100
0010
,
0001
1000
0001
0100
0010
0100
0001
1000
0001
0100
0010
0100
0001
1000
0100
0010
0100
1000
0001
0100
0001
0100
0010
1000
0010
0100
0001
1000
0100
0010
0001
1000
,
0100
1000
0001
0100
0010
0100
0001
1000
0100
1000
0001
0100
0001
0010
0100
1000
0001
0100
0001
1000
0100
0010
0100
1000
0001
0100
0001
0100
0010
1000
0010
0100
,
0001
1000
0100
0010
0001
1000
0001
0100
0010
0100
0001
1000
0100
1000
0100
0010
0001
1000
0001
0100
0010
0100
0001
1000
0100
0010
0100
1000
0001
0100
0001
1000
,
0010
0100
0010
1000
0001
0100
0001
1000
0100
0010
0001
1000
0001
0100
0010
0100
0001
1000
0100
0010
0100
1000
0001
1000
0100
0010
0001
0100
0001
1000
0010
0100
,
0010
1000
0001
0010
0100
0010
0001
1000
0001
0100
0010
0100
0001
1000
0100
0010
0100
1000
0001
0100
0001
0100
0010
1000
0010
0100
0001
1000
0100
0010
0001
1000
,
0100
1000
0001
0100
0001
1000
0010
0100
0010
1000
0001
1000
0100
1000
0001
0100
0010
0100
0001
1000
0100
0010
0100
1000
0001
0100
0001
1000
0010
0100
0001
1000
,
0002
0003
2002
3003
2002
3003
0000
0000
,
0001
0100
0001
0010
0100
1000
0010
0100
0010
1000
0100
0010
0001
1000
0001
0100
0010
0100
0001
1000
0100
0010
0100
1000
,
0010
0100
0010
1000
0100
0010
0001
1000
0001
0010
0100
1000
0001
0100
0010
0100
0001
1000
0100
0010
0100
1000
0010
0100
,
0010
1000
0100
0010
0001
1000
0001
0010
0100
1000
0001
0100
0010
0100
0001
1000
0100
0010
0100
1000
0010
0100
0010
1000
,
0001
0000
0000
0000
0000
1000
0100
0010
0000
0000
0000
0001
1000
0001
0000
0000
0000
0000
1001
0000
0000
0000
0000
1000
,
0100
0010
0100
1000
0010
0100
0010
1000
0100
0010
0001
0100
0001
1000
0100
0010
0100
1000
0001
0100
0001
1000
0010
0100
,
0010
1000
0100
0010
0001
0100
0001
0010
0100
1000
0010
0100
0010
1000
0100
0010
0001
1000
0001
0010
0100
0010
0001
1000
,
0100
0010
0100
1000
0010
0100
0010
1000
0100
0010
0001
1000
0001
0100
0010
0100
0001
1000
0100
0010
0100
1000
0001
0100
,
0001
0000
0000
0000
0000
1000
0100
0010
0000
0000
0000
0001
1000
0001
0000
0000
0000
0000
0000
0000
0000
0000
0000
0000
,
1000
0100
1000
0001
0100
0001
1000
0010
0100
0010
1000
0001
1000
0001
0010
0100
1000
0001
0100
0001
1000
0100
0010
0100
1000
0001
0100
0001
0100
0010
1000
0010
,
0100
0001
1000
0100
0010
0001
1000
0001
0100
0010
0100
0001
1000
0100
0010
0100
1000
0001
0100
0001
1000
0010
0100
0010
1000
0001
1000
0100
0010
0001
1000
0001
,
0100
0010
0100
0001
1000
0100
0010
0100
1000
0001
0100
0001
1000
0010
0100
0010
1000
0001
0010
0100
1000
0001
0100
0001
1000
0100
0010
0100
1000
0001
0100
0010
,
0100
0001
1000
0100
0010
0001
1000
0001
0100
0010
0100
0001
1000
0100
0010
0100
1000
0001
0100
0010
0100
0001
1000
0100
0010
0001
1000
0001
0100
0010
0100
0001
,
1000
0100
0010
0100
1000
0001
0100
0001
0100
0010
1000
0010
0100
0001
1000
0100
0010
0001
1000
0001
0100
0010
0100
0001
1000
0100
0010
0100
1000
0001
0100
0001
,
1000
0010
0100
0010
1000
0001
1000
0100
0010
0001
1000
0001
0100
0010
0100
0001
1000
0100
1000
0100
0010
0001
1000
0001
0100
0010
0100
0001
1000
0100
0010
0100
,
1000
0001
0100
0001
1000
0010
0100
0010
1000
0001
1000
0100
0010
0001
1000
0001
0100
0010
0100
0001
1000
0100
0010
0100
1000
0001
0100
0001
0100
0010
1000
0001
,
2000
3000
2002
3003
2002
3003
0000
0000
,
0001
1000
0010
1000
0001
0100
0010
0100
0001
1000
0100
0010
0001
1000
0100
1000
0001
0100
0001
1000
0010
0100
0010
1000
0001
1000
0100
0010
0001
1000
0001
0100
,
0010
0100
0001
1000
0100
1000
0001
0100
0001
0100
0010
1000
0001
0100
0010
0100
0001
1000
0100
0010
0001
1000
0100
1000
0001
0100
0001
1000
0010
1000
0001
0100
,
0001
0100
0010
1000
0001
1000
0100
0010
0001
1000
0001
0100
0010
0100
0001
1000
0100
1000
0001
0010
0100
0010
0001
1000
0010
0100
0010
1000
0001
0100
0010
0100
,
0001
1000
0100
0010
0001
1000
0100
1000
0001
0100
0001
0100
0010
1000
0001
0010
0100
1000
0001
0100
0001
1000
0100
1000
0001
0010
0100
1000
0001
1000
0010
0100
,
0001
1000
0100
0010
0001
1000
0100
1000
0001
0100
0010
0100
0001
1000
0010
0100
0010
1000
0001
1000
0100
0010
0001
1000
0010
0100
0010
1000
0001
1000
0010
0100
,
0010
1000
0001
0010
0100
1000
0001
0100
0001
1000
0100
0010
0100
1000
0001
0100
0010
1000
0001
1000
0100
0010
0001
1000
0001
0100
0010
0100
0001
1000
0010
1000
,
0010
0100
0001
1000
0010
1000
0100
0010
0001
1000
0010
1000
0001
0100
0001
1000
0100
0010
0100
1000
0001
0100
0001
1000
0100
0010
0001
1000
0010
0100
0001
1000
,
0002
0003
2002
3003
2002
3003
0000
0000
,
1000
0001
0100
0001
1000
0010
0100
0010
1000
0001
1000
0100
0010
0001
1000
0001
0100
0010
1000
0001
1000
0100
0010
0001
1000
0001
0100
0010
0100
0001
1000
0100
,
0010
0100
1000
0001
0100
0001
0100
0010
1000
0010
0100
0001
1000
0100
0010
0001
1000
0001
0100
0010
0100
0001
1000
0001
0010
0100
1000
0001
0100
0001
0100
0010
,
1000
0010
0100
0001
1000
0001
1000
0100
0010
0001
1000
0001
0100
0010
0100
0001
1000
0001
0010
0100
1000
0001
0100
0001
0100
0010
1000
0001
1000
0100
0010
0001
,
1000
0100
0010
0100
1000
0001
0100
0001
0100
0010
1000
0010
0100
0001
1000
0100
0010
0001
1000
0100
1000
0001
0100
0001
0100
0010
1000
0001
0100
0001
0100
0010
,
1000
0001
1000
0100
0010
0001
0100
0001
1000
0010
0100
0010
1000
0001
1000
0100
0010
0001
1000
0001
0100
0010
0100
0001
1000
0100
0010
0001
1000
0001
0100
0010
,
0100
0001
1000
0001
0010
0100
0010
0001
1000
0100
1000
0001
0100
0001
0100
0010
1000
0010
0100
0001
1000
0100
0010
0001
1000
0010
0100
0010
1000
0001
0100
0001
,
0100
0010
1000
0001
0100
0001
0010
0100
1000
0001
0100
0001
1000
0100
1000
0100
0010
0001
1000
0010
0100
0010
1000
0100
0010
0001
1000
0010
0100
0010
1000
0001
,
0010
0100
1000
0001
0100
0010
0100
0001
1000
0100
0010
0001
1000
0010
1000
0100
0010
0001
1000
0001
0010
0100
1000
0010
0100
0010
0100
0001
1000
0100
0010
0001
,
2000
0000
3000
0000
2222
0000
3333
0000
2222
0000
3333
0000
2002
3003
0000
0000
,
1000
0000
0001
0000
0100
0010
0100
0000
0000
0000
0001
0000
1000
0000
0100
0000
0010
0001
1000
0000
0000
0000
0001
0000
,
0100
0000
0001
0000
0010
0000
0100
0000
1000
0000
0010
0000
0100
0000
0010
0000
1000
0100
0010
0000
0001
0000
1000
0000
,
0001
0000
0100
0000
0001
0000
0010
0000
0100
0000
1000
0000
0010
0000
0100
0000
0010
0000
1000
0000
0100
0000
0010
0001
,
1000
0000
0000
0000
0000
0001
0010
0100
0000
0000
0000
1000
0001
1000
0000
0000
0000
0000
1001
0000
0000
0000
0001
0000
,
0100
0000
0001
0000
0010
0100
1000
0000
0000
0000
0001
0000
1000
0000
0100
0000
0010
0100
1000
0000
0000
0000
0001
0000
,
0100
0000
0001
0000
0010
0000
0100
0000
1000
0000
0001
0000
0100
0000
0010
0000
1000
0100
0010
0000
0000
0000
0001
0000
,
0100
0000
0001
0000
0010
0000
0100
0000
1000
0000
0001
0000
0100
0010
0100
0000
0001
0000
1000
0000
0000
0000
0000
0001
,
0010
0100
0000
0000
0000
1000
0100
0010
0000
0000
0000
0001
1000
0001
0000
0000
0000
0000
0000
0000
0000
0000
0000
0000
;

//---------------dance-single - J. Nero----------------
#NOTES:
     dance-single:
     J. Nero:
     Hard:
     28:
     1.000,1.000,0.159,0.571,1.000,1651.000,20.000,72.000,0.000,4.000:
1000
0000
0001
0000
0100
0010
0100
0000
0000
0000
0001
0000
1000
0000
0100
0000
0010
0001
1000
0000
0000
0000
0001
0000
,
0100
0000
0001
0000
0010
0000
0100
0000
1000
0000
0010
0000
0100
0000
0010
0000
1000
0100
0010
0000
0001
0000
1000
0000
,
0001
0000
0100
0000
0001
0000
0010
0000
0100
0000
1000
0000
0010
0000
0100
0000
0010
0000
1000
0000
0100
0000
0010
0001
,
1000
0000
0000
0000
0000
0001
0010
0100
0000
0000
0000
1000
0001
1000
0000
0000
0000
0000
1001
0000
0000
0000
0001
0000
,
0100
0000
0001
0000
0010
0100
1000
0000
0000
0000
0001
0000
1000
0000
0100
0000
0010
0100
1000
0000
0000
0000
0001
0000
,
0100
0000
0001
0000
0010
0000
0100
0000
1000
0000
0001
0000
0100
0000
0010
0000
1000
0100
0010
0000
0000
0000
0001
0000
,
0100
0000
0001
0000
0010
0000
0100
0000
1000
0000
0001
0000
0100
0010
0100
0000
0001
0000
1000
0000
0000
0000
0000
0001
,
0010
0100
0000
0000
0000
1000
0100
0010
0000
0000
0000
0001
1000
0001
0000
0000
0000
0000
0000
0000
0000
0000
0000
0000
,
1000
0001
0100
0001
1000
0010
0100
0010
1000
0001
1000
0100
0010
0001
1000
0001
0100
0010
1000
0001
1000
0100
0010
0001
1000
0001
0100
0010
0100
0001
1000
0100
,
0010
0100
1000
0001
0100
0001
0100
0010
1000
0010
0100
0001
1000
0100
0010
0001
1000
0001
0100
0010
0100
0001
1000
0001
0010
0100
1000
0001
0100
0001
0100
0010
,
1000
0010
0100
0001
1000
0001
1000
0100
0010
0001
1000
0001
0100
0010
0100
0001
1000
0001
0010
0100
1000
0001
0100
0001
0100
0010
1000
0001
1000
0100
0010
0001
,
2000
3000
0200
0300
0020
0030
0002
0003
,
1000
0001
1000
0100
0010
0001
0100
0001
1000
0010
0100
0010
1000
0001
1000
0100
0010
0001
1000
0001
0100
0010
0100
0001
1000
0100
0010
0001
1000
0001
0100
0010
,
0100
0001
1000
0001
0010
0100
0010
0001
1000
0100
1000
0001
0100
0001
0100
0010
1000
0010
0100
0001
1000
0100
0010
0001
1000
0010
0100
0010
1000
0001
0100
0001
,
0100
0010
1000
0001
0100
0001
0010
0100
1000
0001
0100
0001
1000
0100
1000
0100
0010
0001
1000
0010
0100
0010
1000
0100
0010
0001
1000
0010
0100
0010
1000
0001
,
2000
3000
2002
3003
2002
3003
0000
0000
,
0001
0100
0001
1000
0100
0010
0001
1000
0001
0100
0010
0100
0001
1000
0100
1000
0001
0100
0001
0100
0010
1000
0001
1000
0100
0010
0001
1000
0100
1000
0001
0100
,
0001
1000
0010
0100
0010
0100
0001
1000
0100
0010
0100
1000
0001
0100
0001
1000
0010
0100
0010
1000
0001
1000
0100
0010
0001
1000
0001
0100
0010
0100
0001
1000
,
0100
0010
0001
1000
0001
0100
0010
0100
0001
1000
0001
0010
0100
1000
0001
0100
0001
0100
0010
1000
0010
0100
0001
1000
0001
0100
0010
1000
0010
0100
0001
1000
,
0002
0003
0020
0030
0200
0300
2000
3000
,
0001
1000
0100
1000
0001
0100
0010
0100
0001
1000
0001
0100
0010
0100
0001
1000
0100
0010
0001
1000
0001
0100
0010
0100
0001
1000
0001
1000
0100
0010
0001
1000
,
0001
0100
0010
0100
0001
1000
0100
0010
0100
1000
0001
0100
0001
0100
0010
1000
0010
0100
0001
1000
0001
0010
0100
1000
0001
0100
0010
0100
0001
1000
0100
0010
,
0100
1000
0001
0100
0001
0100
0010
1000
0010
0100
0001
0100
0010
1000
0001
1000
0100
0010
0001
1000
0001
0100
0010
0100
0001
1000
0100
0010
0100
1000
0001
1000
,
0002
0003
2002
3003
2002
3003
0000
0000
,
1000
0000
0100
1000
0000
0001
0100
0000
0001
0010
0000
0100
,
1000
0000
0001
0100
0000
0010
0100
0000
0001
1000
0000
0100
,
0020
0000
0001
2030
0000
0010
3200
0000
0001
0320
0000
0001
,
2030
0000
0000
3010
0000
0010
0200
0000
0000
0301
0000
0001
,
1000
0000
0100
0010
0000
0001
1000
0000
0001
0100
0000
0010
,
0100
0000
0001
0010
0000
0100
1000
0000
0001
0100
0000
0010
,
0200
0300
1010
0000
0020
0030
0101
0000
,
0001
0000
2222
3333
2222
3333
1000
0000
,
0001
0100
0001
0100
0010
1000
0001
1000
0100
0010
0100
1000
0001
0100
0001
1000
0100
1000
0001
0100
0001
1000
0100
1000
0001
0100
0010
0100
0001
1000
0100
0010
,
0001
1000
0001
0100
0010
0100
0001
1000
0001
0100
0010
0100
0001
1000
0100
0010
0100
1000
0001
0100
0001
0100
0010
1000
0010
0100
0001
1000
0100
0010
0001
1000
,
0100
1000
0001
0100
0010
0100
0001
1000
0100
1000
0001
0100
0001
0010
0100
1000
0001
0100
0001
1000
0100
0010
0100
1000
0001
0100
0001
0100
0010
1000
0010
0100
,
0002
0003
0020
0030
0200
0300
2000
3000
,
0001
0100
0010
1000
0001
0100
0001
1000
0100
0010
0001
1000
0001
0100
0010
0100
0001
1000
0100
0010
0100
1000
0001
1000
0100
0010
0001
0100
0001
1000
0010
0100
,
0010
1000
0001
0010
0100
0010
0001
1000
0001
0100
0010
0100
0001
1000
0100
0010
0100
1000
0001
0100
0001
0100
0010
1000
0010
0100
0001
1000
0100
0010
0001
1000
,
0100
1000
0001
0100
0001
1000
0010
0100
0010
1000
0001
1000
0100
1000
0001
0100
0010
0100
0001
1000
0100
0010
0100
1000
0001
0100
0001
1000
0010
0100
0001
1000
,
0002
0003
2002
3003
2002
3003
0000
0000
,
0001
0100
0001
0010
0100
1000
0010
0100
0010
1000
0100
0010
0001
1000
0001
0100
0010
0100
0001
1000
0100
0010
0100
1000
,
0010
0100
0010
1000
0100
0010
0001
1000
0001
0010
0100
1000
0001
0100
0010
0100
0001
1000
0100
0010
0100
1000
0010
0100
,
0010
1000
0100
0010
0001
1000
0001
0010
0100
1000
0001
0100
0010
0100
0001
1000
0100
0010
0100
1000
0010
0100
0010
1000
,
0001
0000
0000
0000
0000
1000
0100
0010
0000
0000
0000
0001
1000
0001
0000
0000
0000
0000
1001
0000
0000
0000
0000
1000
,
0100
0010
0100
1000
0010
0100
0010
1000
0100
0010
0001
0100
0001
1000
0100
0010
0100
1000
0001
0100
0001
1000
0010
0100
,
0010
1000
0100
0010
0001
0100
0001
0010
0100
1000
0010
0100
0010
1000
0100
0010
0001
1000
0001
0010
0100
0010
0001
1000
,
0100
0010
0100
1000
0010
0100
0010
1000
0100
0010
0001
1000
0001
0100
0010
0100
0001
1000
0100
0010
0100
1000
0001
0100
,
0001
0000
0000
0000
0000
1000
0100
0010
0000
0000
0000
0001
1000
0001
0000
0000
0000
0000
0000
0000
0000
0000
0000
0000
,
1000
0100
1000
0001
0100
0001
1000
0010
0100
0010
1000
0001
1000
0001
0010
0100
1000
0001
0100
0001
1000
0100
0010
0100
1000
0001
0100
0001
0100
0010
1000
0010
,
0100
0001
1000
0100
0010
0001
1000
0001
0100
0010
0100
0001
1000
0100
0010
0100
1000
0001
0100
0001
1000
0010
0100
0010
1000
0001
1000
0100
0010
0001
1000
0001
,
0100
0010
0100
0001
1000
0100
0010
0100
1000
0001
0100
0001
1000
0010
0100
0010
1000
0001
0010
0100
1000
0001
0100
0001
1000
0100
0010
0100
1000
0001
0100
0010
,
0100
0001
1000
0100
0010
0001
1000
0001
0100
0010
0100
0001
1000
0100
0010
0100
1000
0001
0100
0010
0100
0001
1000
0100
0010
0001
1000
0001
0100
0010
0100
0001
,
1000
0100
0010
0100
1000
0001
0100
0001
0100
0010
1000
0010
0100
0001
1000
0100
0010
0001
1000
0001
0100
0010
0100
0001
1000
0100
0010
0100
1000
0001
0100
0001
,
1000
0010
0100
0010
1000
0001
1000
0100
0010
0001
1000
0001
0100
0010
0100
0001
1000
0100
1000
0100
0010
0001
1000
0001
0100
0010
0100
0001
1000
0100
0010
0100
,
1000
0001
0100
0001
1000
0010
0100
0010
1000
0001
1000
0100
0010
0001
1000
0001
0100
0010
0100
0001
1000
0100
0010
0100
1000
0001
0100
0001
0100
0010
1000
0001
,
2000
3000
2002
3003
2002
3003
0000
0000
,
0001
1000
0010
1000
0001
0100
0010
0100
0001
1000
0100
0010
0001
1000
0100
1000
0001
0100
0001
1000
0010
0100
0010
1000
0001
1000
0100
0010
0001
1000
0001
0100
,
0010
0100
0001
1000
0100
1000
0001
0100
0001
0100
0010
1000
0001
0100
0010
0100
0001
1000
0100
0010
0001
1000
0100
1000
0001
0100
0001
1000
0010
1000
0001
0100
,
0001
0100
0010
1000
0001
1000
0100
0010
0001
1000
0001
0100
0010
0100
0001
1000
0100
1000
0001
0010
0100
0010
0001
1000
0010
0100
0010
1000
0001
0100
0010
0100
,
0002
0003
0020
0030
0200
0300
2000
3000
,
0001
1000
0100
0010
0001
1000
0100
1000
0001
0100
0010
0100
0001
1000
0010
0100
0010
1000
0001
1000
0100
0010
0001
1000
0010
0100
0010
1000
0001
1000
0010
0100
,
0010
1000
0001
0010
0100
1000
0001
0100
0001
1000
0100
0010
0100
1000
0001
0100
0010
1000
0001
1000
0100
0010
0001
1000
0001
0100
0010
0100
0001
1000
0010
1000
,
0010
0100
0001
1000
0010
1000
0100
0010
0001
1000
0010
1000
0001
0100
0001
1000
0100
0010
0100
1000
0001
0100
0001
1000
0100
0010
0001
1000
0010
0100
0001
1000
,
0002
0003
2002
3003
2002
3003
0000
0000
,
1000
0001
0100
0001
1000
0010
0100
0010
1000
0001
1000
0100
0010
0001
1000
0001
0100
0010
1000
0001
1000
0100
0010
0001
1000
0001
0100
0010
0100
0001
1000
0100
,
0010
0100
1000
0001
0100
0001
0100
0010
1000
0010
0100
0001
1000
0100
0010
0001
1000
0001
0100
0010
0100
0001
1000
0001
0010
0100
1000
0001
0100
0001
0100
0010
,
1000
0010
0100
0001
1000
0001
1000
0100
0010
0001
1000
0001
0100
0010
0100
0001
1000
0001
0010
0100
1000
0001
0100
0001
0100
0010
1000
0001
1000
0100
0010
0001
,
2000
3000
0200
0300
0020
0030
0002
0003
,
1000
0001
1000
0100
0010
0001
0100
0001
1000
0010
0100
0010
1000
0001
1000
0100
0010
0001
1000
0001
0100
0010
0100
0001
1000
0100
0010
0001
1000
0001
0100
0010
,
0100
0001
1000
0001
0010
0100
0010
0001
1000
0100
1000
0001
0100
0001
0100
0010
1000
0010
0100
0001
1000
0100
0010
0001
1000
0010
0100
0010
1000
0001
0100
0001
,
0100
0010
1000
0001
0100
0001
0010
0100
1000
0001
0100
0001
1000
0100
1000
0100
0010
0001
1000
0010
0100
0010
1000
0100
0010
0001
1000
0010
0100
0010
1000
0001
,
0010
0100
1000
0001
0100
0010
0100
0001
1000
0100
0010
0001
1000
0010
1000
0100
0010
0001
1000
0001
0010
0100
1000
0010
0100
0010
0100
0001
1000
0100
0010
0001
,
2000
0000
3000
0000
2222
0000
3333
0000
2222
0000
3333
0000
2002
3003
0000
0000
,
1000
0000
0001
0000
0100
0010
0100
0000
0000
0000
0001
0000
1000
0000
0100
0000
0010
0001
1000
0000
0000
0000
0001
0000
,
0100
0000
0001
0000
0010
0000
0100
0000
1000
0000
0010
0000
0100
0000
0010
0000
1000
0100
0010
0000
0001
0000
1000
0000
,
0001
0000
0100
0000
0001
0000
0010
0000
0100
0000
1000
0000
0010
0000
0100
0000
0010
0000
1000
0000
0100
0000
0010
0001
,
1000
0000
0000
0000
0000
0001
0010
0100
0000
0000
0000
1000
0001
1000
0000
0000
0000
0000
1001
0000
0000
0000
0001
0000
,
0100
0000
0001
0000
0010
0100
1000
0000
0000
0000
0001
0000
1000
0000
0100
0000
0010
0100
1000
0000
0000
0000
0001
0000
,
0100
0000
0001
0000
0010
0000
0100
0000
1000
0000
0001
0000
0100
0000
0010
0000
1000
0100
0010
0000
0000
0000
0001
0000
,
0100
0000
0001
0000
0010
0000
0100
0000
1000
0000
0001
0000
0100
0010
0100
0000
0001
0000
1000
0000
0000
0000
0000
0001
,
0010
0100
0000
0000
0000
1000
0100
0010
0000
0000
0000
0001
1000
0001
0000
0000
0000
0000
0000
0000
0000
0000
0000
0000
;

//---------------dance-single - For Brennan----------------
#NOTES:
     dance-single:
     For Brennan:
     Medium:
     26:
     1.000,1.000,0.159,0.571,1.000,1533.000,20.000,72.000,0.000,4.000:
1000
0000
0001
0000
0100
0010
0100
0000
0000
0000
0001
0000
1000
0000
0100
0000
0010
0001
1000
0000
0000
0000
0001
0000
,
0100
0000
0001
0000
0010
0000
0100
0000
1000
0000
0010
0000
0100
0000
0010
0000
1000
0100
0010
0000
0001
0000
1000
0000
,
0001
0000
0100
0000
0001
0000
0010
0000
0100
0000
1000
0000
0010
0000
0100
0000
0010
0000
1000
0000
0100
0000
0010
0001
,
1000
0000
0000
0000
0000
0001
0010
0100
0000
0000
0000
1000
0001
1000
0000
0000
0000
0000
1001
0000
0000
0000
0001
0000
,
0100
0000
0001
0000
0010
0100
1000
0000
0000
0000
0001
0000
1000
0000
0100
0000
0010
0100
1000
0000
0000
0000
0001
0000
,
0100
0000
0001
0000
0010
0000
0100
0000
1000
0000
0001
0000
0100
0000
0010
0000
1000
0100
0010
0000
0000
0000
0001
0000
,
0100
0000
0001
0000
0010
0000
0100
0000
1000
0000
0001
0000
0100
0010
0100
0000
0001
0000
1000
0000
0000
0000
0000
0001
,
0010
0100
0000
0000
0000
1000
0100
0010
0000
0000
0000
0001
1000
0001
0000
0000
0000
0000
0000
0000
0000
0000
0000
0000
,
1000
0001
0100
0001
1000
0010
0100
0010
1000
0001
1000
0100
0010
0001
1000
0001
0100
0010
1000
0001
1000
0100
0010
0001
1000
0001
0100
0010
0100
0001
1000
0100
,
0010
0100
1000
0001
0100
0001
0100
0010
1000
0010
0100
0001
1000
0100
0010
0001
1000
0001
0100
0010
0100
0001
1000
0001
0010
0100
1000
0001
0100
0001
0100
0010
,
1000
0010
0100
0001
1000
0001
1000
0100
0010
0001
1000
0001
0100
0010
0100
0001
1000
0001
0010
0100
1000
0001
0100
0001
0100
0010
1000
0001
1000
0100
0010
0001
,
2000
3000
0200
0300
0020
0030
0002
0003
,
1000
0100
0010
0100
1000
0010
0100
0001
1000
0100
0010
0001
1000
0001
0100
0010
0100
0001
1000
0001
0010
0100
1000
0001
,
0100
0010
0100
0001
1000
0100
0010
0100
1000
0010
0100
0010
1000
0100
0010
0001
1000
0001
0100
0010
0100
0001
1000
0001
,
0010
0100
1000
0001
0100
0010
0100
0001
1000
0100
0010
0001
1000
0001
0100
0010
0100
0001
1000
0001
0010
0100
1000
0001
,
2000
3000
2002
3003
2002
3003
0000
0000
,
0001
0100
0001
1000
0100
0010
0001
1000
0001
0100
0010
0100
0001
1000
0100
1000
0001
0100
0001
0100
0010
1000
0001
1000
0100
0010
0001
1000
0100
1000
0001
0100
,
0001
1000
0010
0100
0010
0100
0001
1000
0100
0010
0100
1000
0001
0100
0001
1000
0010
0100
0010
1000
0001
1000
0100
0010
0001
1000
0001
0100
0010
0100
0001
1000
,
0100
0010
0001
1000
0001
0100
0010
0100
0001
1000
0001
0010
0100
1000
0001
0100
0001
0100
0010
1000
0010
0100
0001
1000
0001
0100
0010
1000
0010
0100
0001
1000
,
0002
0003
0020
0030
0200
0300
2000
3000
,
0001
0100
0001
0010
0100
1000
0010
0100
0010
1000
0100
0010
0001
1000
0001
0010
0100
1000
0001
0100
0010
0100
0001
1000
,
0100
0010
0100
1000
0001
0100
0001
1000
0010
0100
0010
1000
0001
1000
0100
0010
0001
1000
0001
0100
0010
0100
0001
1000
,
0100
0010
0100
1000
0001
0100
0001
1000
0010
0100
0010
1000
0001
1000
0100
0010
0001
1000
0010
0100
0010
1000
0100
0010
,
0002
0003
2002
3003
2002
3003
0000
0000
,
1000
0000
0100
1000
0000
0001
0100
0000
0001
0010
0000
0100
,
1000
0000
0001
0100
0000
0010
0100
0000
0001
1000
0000
0100
,
0020
0000
0001
2030
0000
0010
3200
0000
0001
0320
0000
0001
,
2030
0000
0000
3010
0000
0010
0200
0000
0000
0301
0000
0001
,
1000
0000
0100
0010
0000
0001
1000
0000
0001
0100
0000
0010
,
0100
0000
0001
0010
0000
0100
1000
0000
0001
0100
0000
0010
,
0200
0300
1010
0000
0020
0030
0101
0000
,
0001
0000
2222
3333
2222
3333
1000
0000
,
0001
0100
0001
0100
0010
1000
0001
1000
0100
0010
0100
1000
0001
0100
0001
1000
0100
1000
0001
0100
0001
1000
0100
1000
0001
0100
0010
0100
0001
1000
0100
0010
,
0001
1000
0001
0100
0010
0100
0001
1000
0001
0100
0010
0100
0001
1000
0100
0010
0100
1000
0001
0100
0001
0100
0010
1000
0010
0100
0001
1000
0100
0010
0001
1000
,
0100
1000
0001
0100
0010
0100
0001
1000
0100
1000
0001
0100
0001
0010
0100
1000
0001
0100
0001
1000
0100
0010
0100
1000
0001
0100
0001
0100
0010
1000
0010
0100
,
0002
0003
0020
0030
0200
0300
2000
3000
,
0001
0100
0001
0010
0100
1000
0010
0100
0010
1000
0100
0010
0001
0100
0001
1000
0100
1000
0010
0100
0001
0010
0001
0100
,
0010
1000
0100
0010
0001
1000
0001
0010
0100
1000
0010
0100
0010
1000
0100
0010
0001
1000
0001
0010
0100
0010
0001
0100
,
0001
1000
0100
0010
0100
1000
0001
0100
0010
0100
0001
1000
0100
0010
0001
0100
0001
0010
0100
1000
0010
0100
0010
1000
,
0002
0003
2002
3003
2002
3003
0000
0000
,
0001
0100
0001
0010
0100
1000
0010
0100
0010
1000
0100
0010
0001
1000
0001
0100
0010
0100
0001
1000
0100
0010
0100
1000
,
0001
0000
0000
0000
0000
0000
0100
0000
0000
0000
0000
0000
0001
0000
0000
0000
0000
0000
1000
0000
0000
0000
0000
0000
0100
0000
0000
0000
0000
0000
0010
0000
0000
0000
0000
0000
0001
0000
0000
0000
0000
0000
1000
0000
0000
0000
0000
0000
0001
0000
0000
0000
0000
0000
0000
0000
1000
0000
0000
0000
0000
0000
0000
0000
0001
0000
0000
0000
0000
0000
0000
0000
0010
0000
0000
0000
0000
0000
0000
0000
0100
0000
0000
0000
0000
0000
0000
0000
1000
0000
0000
0000
0000
0000
0000
0000
0001
0000
0000
0000
0000
0000
0000
0000
0100
0000
0000
0000
0000
0000
0000
0000
0010
0000
0000
0000
0000
0000
0000
0000
0100
0000
0000
0000
0000
0000
0000
0000
0001
0000
0000
0000
0000
0000
0000
0000
1000
0000
0000
0000
0000
0000
0000
0000
0100
0000
0000
0000
0000
0000
0000
0000
0010
0000
0000
0000
0000
0000
0000
0000
0100
0000
0000
0000
0000
0000
0000
0000
1000
0000
0000
0000
0000
0000
0000
0000
0010
0000
0000
0000
0000
0000
0000
0000
0100
0000
0000
0000
0000
0000
0000
0000
,
0001
0000
0000
0000
0000
0000
1000
0000
0000
0000
0000
0000
0001
0000
0000
0000
0000
0000
0010
0000
0000
0000
0000
0000
0100
0000
0000
0000
0000
0000
1000
0000
0000
0000
0000
0000
0001
0000
0000
0000
0000
0000
0100
0000
0000
0000
0000
0000
0001
0000
0000
0000
0000
0000
0000
0000
0010
0000
0000
0000
0000
0000
0000
0000
0100
0000
0000
0000
0000
0000
0000
0000
1000
0000
0000
0000
0000
0000
0000
0000
0001
0000
0000
0000
0000
0000
0000
0000
0100
0000
0000
0000
0000
0000
0000
0000
0010
0000
0000
0000
0000
0000
0000
0000
0100
0000
0000
0000
0000
0000
0000
0000
0001
0000
0000
0000
0000
0000
0000
0000
1000
0000
0000
0000
0000
0000
0000
0000
0100
0000
0000
0000
0000
0000
0000
0000
0010
0000
0000
0000
0000
0000
0000
0000
0100
0000
0000
0000
0000
0000
0000
0000
1000
0000
0000
0000
0000
0000
0000
0000
0010
0000
0000
0000
0000
0000
0000
0000
0100
0000
0000
0000
0000
0000
0000
0000
0010
0000
0000
0000
0000
0000
0000
0000
1000
0000
0000
0000
0000
0000
0000
0000
,
0001
0000
0000
0000
0000
1000
0100
0010
0000
0000
0000
0001
1000
0001
0000
0000
0000
0000
1001
0000
0000
0000
0000
1000
,
0100
0010
0100
1000
0010
0100
0010
1000
0100
0010
0001
0100
0001
1000
0100
0010
0100
1000
0001
0100
0001
1000
0010
0100
,
0010
1000
0100
0010
0001
0100
0001
0010
0100
1000
0010
0100
0010
1000
0100
0010
0001
1000
0001
0010
0100
0010
0001
1000
,
0100
0010
0100
1000
0010
0100
0010
1000
0100
0010
0001
1000
0001
0100
0010
0100
0001
1000
0100
0010
0100
1000
0001
0100
,
0001
0000
0000
0000
0000
1000
0100
0010
0000
0000
0000
0001
1000
0001
0000
0000
0000
0000
0000
0000
0000
0000
0000
0000
,
1000
0001
0100
0001
0100
0010
1000
0001
1000
0010
0100
0010
1000
0001
1000
0100
0010
0001
1000
0100
0010
0001
1000
0100
1000
0001
0100
0001
0100
0010
1000
0010
,
0100
0001
1000
0010
0100
0010
1000
0001
1000
0010
0100
0001
0100
0010
1000
0001
0100
0010
0100
0001
1000
0100
0010
0001
1000
0100
0010
0001
1000
0010
1000
0010
,
0100
0001
0100
0001
1000
0100
1000
0001
0100
0001
1000
0100
0010
0001
1000
0010
0100
0001
0100
0001
1000
0010
0100
0010
1000
0001
1000
0010
0100
0001
0100
0001
,
1000
0000
0000
0001
0000
0100
0001
0000
0000
1000
0000
0001
,
1000
0001
0100
0001
0100
0010
1000
0001
0100
0010
1000
0010
0100
0001
1000
0100
1000
0001
0010
0100
1000
0001
0010
0100
1000
0001
0100
0001
0100
0010
1000
0001
,
1000
0010
0100
0010
1000
0001
1000
0010
0100
0010
1000
0001
0100
0010
0100
0001
1000
0100
1000
0100
0010
0001
1000
0001
0100
0010
0100
0001
1000
0001
0100
0010
,
0100
0001
1000
0001
1000
0010
0100
0010
1000
0001
1000
0100
0010
0001
1000
0100
0010
0001
1000
0100
1000
0001
0100
0001
1000
0010
1000
0001
0100
0010
1000
0001
,
2000
3000
2002
3003
2002
3003
0000
0000
,
0001
1000
0010
1000
0001
0100
0010
0100
0001
1000
0100
0010
0001
1000
0100
1000
0001
0100
0001
1000
0010
0100
0010
1000
0001
1000
0100
0010
0001
1000
0001
0100
,
0010
0100
0001
1000
0100
1000
0001
0100
0001
0100
0010
1000
0001
0100
0010
0100
0001
1000
0100
0010
0001
1000
0100
1000
0001
0100
0001
1000
0010
1000
0001
0100
,
0001
0100
0010
1000
0001
1000
0100
0010
0001
1000
0001
0100
0010
0100
0001
1000
0100
1000
0001
0010
0100
0010
0001
1000
0010
0100
0010
1000
0001
0100
0010
0100
,
0002
0003
0020
0030
0200
0300
2000
3000
,
0001
0100
0001
0010
0100
1000
0001
0100
0010
0100
0001
1000
0100
0010
0001
1000
0001
0100
0010
0100
0001
1000
0100
0010
,
0100
1000
0001
0100
0010
0100
0001
1000
0100
0010
0001
1000
0001
0100
0010
0100
0001
1000
0001
0010
0100
1000
0001
0100
,
0001
1000
0100
0010
0100
1000
0001
0100
0001
0100
0010
1000
0010
0100
0001
1000
0100
0010
0001
1000
0010
0100
0010
1000
,
0002
0003
2002
3003
2002
3003
0000
0000
,
1000
0001
0100
0001
0100
0010
1000
0010
1000
0001
0100
0001
1000
0100
0010
0001
1000
0001
0100
0010
0100
0001
1000
0100
0010
0001
1000
0010
1000
0001
0100
0001
,
0100
0010
1000
0001
1000
0100
0010
0001
1000
0100
0010
0001
1000
0100
1000
0001
0100
0001
0100
0010
1000
0001
1000
0010
0100
0010
1000
0001
0100
0001
0100
0010
,
1000
0010
0100
0001
1000
0001
1000
0100
0010
0001
1000
0100
0010
0100
1000
0001
0100
0001
1000
0010
1000
0001
0100
0001
0100
0010
1000
0001
0100
0001
0100
0010
,
2000
3000
0200
0300
0020
0030
0002
0003
,
1000
0001
1000
0100
0010
0001
0100
0001
1000
0010
0100
0010
1000
0001
1000
0100
0010
0001
1000
0001
0100
0010
0100
0001
1000
0100
0010
0001
1000
0001
0100
0010
,
0100
0001
1000
0001
0010
0100
0010
0001
1000
0100
1000
0001
0100
0001
0100
0010
1000
0010
0100
0001
1000
0100
0010
0001
1000
0010
0100
0010
1000
0001
0100
0001
,
0100
0010
1000
0001
0100
0001
0010
0100
1000
0001
0100
0001
1000
0100
1000
0100
0010
0001
1000
0010
0100
0010
1000
0100
0010
0001
1000
0010
0100
0010
1000
0001
,
0010
0100
1000
0001
0100
0010
0100
0001
1000
0100
0010
0001
1000
0010
1000
0100
0010
0001
1000
0001
0010
0100
1000
0010
0100
0010
0100
0001
1000
0100
0010
0001
,
2000
0000
3000
0000
2222
0000
3333
0000
2222
0000
3333
0000
2002
3003
0000
0000
,
1000
0000
0001
0000
0100
0010
0100
0000
0000
0000
0001
0000
1000
0000
0100
0000
0010
0001
1000
0000
0000
0000
0001
0000
,
0100
0000
0001
0000
0010
0000
0100
0000
1000
0000
0010
0000
0100
0000
0010
0000
1000
0100
0010
0000
0001
0000
1000
0000
,
0001
0000
0100
0000
0001
0000
0010
0000
0100
0000
1000
0000
0010
0000
0100
0000
0010
0000
1000
0000
0100
0000
0010
0001
,
1000
0000
0000
0000
0000
0001
0010
0100
0000
0000
0000
1000
0001
1000
0000
0000
0000
0000
1001
0000
0000
0000
0001
0000
,
0100
0000
0001
0000
0010
0100
1000
0000
0000
0000
0001
0000
1000
0000
0100
0000
0010
0100
1000
0000
0000
0000
0001
0000
,
0100
0000
0001
0000
0010
0000
0100
0000
1000
0000
0001
0000
0100
0000
0010
0000
1000
0100
0010
0000
0000
0000
0001
0000
,
0100
0000
0001
0000
0010
0000
0100
0000
1000
0000
0001
0000
0100
0010
0100
0000
0001
0000
1000
0000
0000
0000
0000
0001
,
0010
0100
0000
0000
0000
1000
0100
0010
0000
0000
0000
0001
1000
0001
0000
0000
0000
0000
0000
0000
0000
0000
0000
0000
;

//---------------dance-single - MayB 4 Brennan 2----------------
#NOTES:
     dance-single:
     MayB 4 Brennan 2:
     Easy:
     25:
     1.000,1.000,0.159,0.571,1.000,1485.000,20.000,72.000,0.000,4.000:
1000
0000
0001
0000
0100
0010
0100
0000
0000
0000
0001
0000
1000
0000
0100
0000
0010
0001
1000
0000
0000
0000
0001
0000
,
0100
0000
0001
0000
0010
0000
0100
0000
1000
0000
0010
0000
0100
0000
0010
0000
1000
0100
0010
0000
0001
0000
1000
0000
,
0001
0000
0100
0000
0001
0000
0010
0000
0100
0000
1000
0000
0010
0000
0100
0000
0010
0000
1000
0000
0100
0000
0010
0001
,
1000
0000
0000
0000
0000
0001
0010
0100
0000
0000
0000
1000
0001
1000
0000
0000
0000
0000
1001
0000
0000
0000
0001
0000
,
0100
0000
0001
0000
0010
0100
1000
0000
0000
0000
0001
0000
1000
0000
0100
0000
0010
0100
1000
0000
0000
0000
0001
0000
,
0100
0000
0001
0000
0010
0000
0100
0000
1000
0000
0001
0000
0100
0000
0010
0000
1000
0100
0010
0000
0000
0000
0001
0000
,
0100
0000
0001
0000
0010
0000
0100
0000
1000
0000
0001
0000
0100
0010
0100
0000
0001
0000
1000
0000
0000
0000
0000
0001
,
0010
0100
0000
0000
0000
1000
0100
0010
0000
0000
0000
0001
1000
0001
0000
0000
0000
0000
0000
0000
0000
0000
0000
0000
,
1000
0001
0100
0001
1000
0010
0100
0010
1000
0001
1000
0100
0010
0001
1000
0001
0100
0010
1000
0001
1000
0100
0010
0001
1000
0001
0100
0010
0100
0001
1000
0100
,
0010
0100
1000
0001
0100
0001
0100
0010
1000
0010
0100
0001
1000
0100
0010
0001
1000
0001
0100
0010
0100
0001
1000
0001
0010
0100
1000
0001
0100
0001
0100
0010
,
1000
0010
0100
0001
1000
0001
1000
0100
0010
0001
1000
0001
0100
0010
0100
0001
1000
0001
0010
0100
1000
0001
0100
0001
0100
0010
1000
0001
1000
0100
0010
0001
,
2000
3000
0200
0300
0020
0030
0002
0003
,
1000
0100
0010
0100
1000
0010
0100
0001
1000
0100
0010
0001
1000
0001
0100
0010
0100
0001
1000
0001
0010
0100
1000
0001
,
0100
0010
0100
0001
1000
0100
0010
0100
1000
0010
0100
0010
1000
0100
0010
0001
1000
0001
0100
0010
0100
0001
1000
0001
,
0010
0100
1000
0001
0100
0010
0100
0001
1000
0100
0010
0001
1000
0001
0100
0010
0100
0001
1000
0001
0010
0100
1000
0001
,
2000
3000
2002
3003
2002
3003
0000
0000
,
0001
0100
0001
1000
0100
0010
0001
1000
0001
0100
0010
0100
0001
1000
0100
1000
0001
0100
0001
0100
0010
1000
0001
1000
0100
0010
0001
1000
0100
1000
0001
0100
,
0001
1000
0010
0100
0010
0100
0001
1000
0100
0010
0100
1000
0001
0100
0001
1000
0010
0100
0010
1000
0001
1000
0100
0010
0001
1000
0001
0100
0010
0100
0001
1000
,
0100
0010
0001
1000
0001
0100
0010
0100
0001
1000
0001
0010
0100
1000
0001
0100
0001
0100
0010
1000
0010
0100
0001
1000
0001
0100
0010
1000
0010
0100
0001
1000
,
0002
0003
0020
0030
0200
0300
2000
3000
,
0001
0100
0001
0010
0100
1000
0010
0100
0010
1000
0100
0010
0001
1000
0001
0010
0100
1000
0001
0100
0010
0100
0001
1000
,
0100
0010
0100
1000
0001
0100
0001
1000
0010
0100
0010
1000
0001
1000
0100
0010
0001
1000
0001
0100
0010
0100
0001
1000
,
0100
0010
0100
1000
0001
0100
0001
1000
0010
0100
0010
1000
0001
1000
0100
0010
0001
1000
0010
0100
0010
1000
0100
0010
,
0002
0003
2002
3003
2002
3003
0000
0000
,
1000
0000
0100
1000
0000
0001
0100
0000
0001
0010
0000
0100
,
1000
0000
0001
0100
0000
0010
0100
0000
0001
1000
0000
0100
,
0020
0000
0001
2030
0000
0010
3200
0000
0001
0320
0000
0001
,
2030
0000
0000
3010
0000
0010
0200
0000
0000
0301
0000
0001
,
1000
0000
0100
0010
0000
0001
1000
0000
0001
0100
0000
0010
,
0100
0000
0001
0010
0000
0100
1000
0000
0001
0100
0000
0010
,
0200
0300
1010
0000
0020
0030
0101
0000
,
0001
0000
2222
3333
2222
3333
1000
0000
,
0001
0100
0001
0100
0010
1000
0001
1000
0100
0010
0100
1000
0001
0100
0001
1000
0100
1000
0001
0100
0001
1000
0100
1000
0001
0100
0010
0100
0001
1000
0100
0010
,
0001
1000
0001
0100
0010
0100
0001
1000
0001
0100
0010
0100
0001
1000
0100
0010
0100
1000
0001
0100
0001
0100
0010
1000
0010
0100
0001
1000
0100
0010
0001
1000
,
0100
1000
0001
0100
0010
0100
0001
1000
0100
1000
0001
0100
0001
0010
0100
1000
0001
0100
0001
1000
0100
0010
0100
1000
0001
0100
0001
0100
0010
1000
0010
0100
,
0002
0003
0020
0030
0200
0300
2000
3000
,
0001
0100
0001
0010
0100
1000
0010
0100
0010
1000
0100
0010
0001
0100
0001
1000
0100
1000
0010
0100
0001
0010
0001
0100
,
0010
1000
0100
0010
0001
1000
0001
0010
0100
1000
0010
0100
0010
1000
0100
0010
0001
1000
0001
0010
0100
0010
0001
0100
,
0001
1000
0100
0010
0100
1000
0001
0100
0010
0100
0001
1000
0100
0010
0001
0100
0001
0010
0100
1000
0010
0100
0010
1000
,
0002
0003
2002
3003
2002
3003
0000
0000
,
0001
0100
0001
0010
0100
1000
0010
0100
0010
1000
0100
0010
0001
1000
0001
0100
0010
0100
0001
1000
0100
0010
0100
1000
,
0001
0000
0000
0000
0000
0000
0100
0000
0000
0000
0000
0000
0001
0000
0000
0000
0000
0000
1000
0000
0000
0000
0000
0000
0100
0000
0000
0000
0000
0000
0010
0000
0000
0000
0000
0000
0001
0000
0000
0000
0000
0000
1000
0000
0000
0000
0000
0000
0001
0000
0000
0000
0000
0000
0000
0000
1000
0000
0000
0000
0000
0000
0000
0000
0001
0000
0000
0000
0000
0000
0000
0000
0010
0000
0000
0000
0000
0000
0000
0000
0100
0000
0000
0000
0000
0000
0000
0000
1000
0000
0000
0000
0000
0000
0000
0000
0001
0000
0000
0000
0000
0000
0000
0000
0100
0000
0000
0000
0000
0000
0000
0000
0010
0000
0000
0000
0000
0000
0000
0000
0100
0000
0000
0000
0000
0000
0000
0000
0001
0000
0000
0000
0000
0000
0000
0000
1000
0000
0000
0000
0000
0000
0000
0000
0100
0000
0000
0000
0000
0000
0000
0000
0010
0000
0000
0000
0000
0000
0000
0000
0100
0000
0000
0000
0000
0000
0000
0000
1000
0000
0000
0000
0000
0000
0000
0000
0010
0000
0000
0000
0000
0000
0000
0000
0100
0000
0000
0000
0000
0000
0000
0000
,
0001
0000
0000
0000
0000
0000
1000
0000
0000
0000
0000
0000
0001
0000
0000
0000
0000
0000
0010
0000
0000
0000
0000
0000
0100
0000
0000
0000
0000
0000
1000
0000
0000
0000
0000
0000
0001
0000
0000
0000
0000
0000
0100
0000
0000
0000
0000
0000
0001
0000
0000
0000
0000
0000
0000
0000
0010
0000
0000
0000
0000
0000
0000
0000
0100
0000
0000
0000
0000
0000
0000
0000
1000
0000
0000
0000
0000
0000
0000
0000
0001
0000
0000
0000
0000
0000
0000
0000
0100
0000
0000
0000
0000
0000
0000
0000
0010
0000
0000
0000
0000
0000
0000
0000
0100
0000
0000
0000
0000
0000
0000
0000
0001
0000
0000
0000
0000
0000
0000
0000
1000
0000
0000
0000
0000
0000
0000
0000
0100
0000
0000
0000
0000
0000
0000
0000
0010
0000
0000
0000
0000
0000
0000
0000
0100
0000
0000
0000
0000
0000
0000
0000
1000
0000
0000
0000
0000
0000
0000
0000
0010
0000
0000
0000
0000
0000
0000
0000
0100
0000
0000
0000
0000
0000
0000
0000
0010
0000
0000
0000
0000
0000
0000
0000
1000
0000
0000
0000
0000
0000
0000
0000
,
0001
0000
0000
0000
0000
1000
0100
0010
0000
0000
0000
0001
1000
0001
0000
0000
0000
0000
1001
0000
0000
0000
0000
1000
,
0100
0010
0100
1000
0010
0100
0010
1000
0100
0010
0001
0100
0001
1000
0100
0010
0100
1000
0001
0100
0001
1000
0010
0100
,
0010
1000
0100
0010
0001
0100
0001
0010
0100
1000
0010
0100
0010
1000
0100
0010
0001
1000
0001
0010
0100
0010
0001
1000
,
0100
0010
0100
1000
0010
0100
0010
1000
0100
0010
0001
1000
0001
0100
0010
0100
0001
1000
0100
0010
0100
1000
0001
0100
,
0001
0000
0000
0000
0000
1000
0100
0010
0000
0000
0000
0001
1000
0001
0000
0000
0000
0000
0000
0000
0000
0000
0000
0000
,
1000
0001
0100
0001
0100
0010
1000
0001
1000
0010
0100
0010
1000
0001
1000
0100
0010
0001
1000
0100
0010
0001
1000
0100
1000
0001
0100
0001
0100
0010
1000
0010
,
0100
0001
1000
0010
0100
0010
1000
0001
1000
0010
0100
0001
0100
0010
1000
0001
0100
0010
0100
0001
1000
0100
0010
0001
1000
0100
0010
0001
1000
0010
1000
0010
,
0100
0001
0100
0001
1000
0100
1000
0001
0100
0001
1000
0100
0010
0001
1000
0010
0100
0001
0100
0001
1000
0010
0100
0010
1000
0001
1000
0010
0100
0001
0100
0001
,
1000
0000
0000
0001
0000
0100
0001
0000
0000
1000
0000
0001
,
1000
0100
0010
0100
1000
0010
0100
0010
1000
0100
0010
0001
1000
0001
0010
0100
1000
0001
0100
0010
0100
0001
1000
0100
,
0010
0100
1000
0001
0100
0010
0100
0001
1000
0100
0010
0001
1000
0001
0100
0010
0100
0001
1000
0100
0010
0100
1000
0010
,
0100
0010
1000
0100
0010
0001
1000
0001
0100
0010
0100
0001
0010
0100
1000
0010
0100
0010
1000
0100
0010
0001
0100
0001
,
2000
3000
2002
3003
2002
3003
0000
0000
,
0001
1000
0010
1000
0001
0100
0010
0100
0001
1000
0100
0010
0001
1000
0100
1000
0001
0100
0001
1000
0010
0100
0010
1000
0001
1000
0100
0010
0001
1000
0001
0100
,
0010
0100
0001
1000
0100
1000
0001
0100
0001
0100
0010
1000
0001
0100
0010
0100
0001
1000
0100
0010
0001
1000
0100
1000
0001
0100
0001
1000
0010
1000
0001
0100
,
0001
0100
0010
1000
0001
1000
0100
0010
0001
1000
0001
0100
0010
0100
0001
1000
0100
1000
0001
0010
0100
0010
0001
1000
0010
0100
0010
1000
0001
0100
0010
0100
,
0002
0003
0020
0030
0200
0300
2000
3000
,
0001
0100
0001
0010
0100
1000
0001
0100
0010
0100
0001
1000
0100
0010
0001
1000
0001
0100
0010
0100
0001
1000
0100
0010
,
0100
1000
0001
0100
0010
0100
0001
1000
0100
0010
0001
1000
0001
0100
0010
0100
0001
1000
0001
0010
0100
1000
0001
0100
,
0001
1000
0100
0010
0100
1000
0001
0100
0001
0100
0010
1000
0010
0100
0001
1000
0100
0010
0001
1000
0010
0100
0010
1000
,
0002
0003
2002
3003
2002
3003
0000
0000
,
1000
0100
1000
0010
0100
0001
0010
0001
0100
0010
1000
0100
1000
0010
0100
0001
0010
0001
0100
0010
1000
0100
1000
0010
,
0100
0001
0010
0100
1000
0001
0100
0010
0100
0001
1000
0100
0010
0001
0100
0010
1000
0100
0010
0001
0100
0010
0100
0001
,
1000
0100
0010
0100
1000
0010
0100
0010
1000
0100
0010
0001
0100
0001
0010
0100
1000
0010
0100
0010
1000
0100
0010
0001
,
2000
3000
0200
0300
0020
0030
0002
0003
,
1000
0001
1000
0001
0100
0010
0100
0010
1000
0001
0100
0010
0100
0001
1000
0100
0010
0001
1000
0100
0010
0001
1000
0001
1000
0010
0100
0001
0100
0001
1000
0010
,
0100
0010
1000
0001
1000
0100
0010
0001
1000
0001
0100
0010
0100
0001
1000
0010
1000
0010
0100
0001
1000
0001
0010
0100
1000
0001
0100
0001
0100
0010
1000
0010
,
0100
0001
1000
0001
1000
0100
0010
0001
1000
0100
0010
0001
1000
0001
1000
0010
0100
0010
1000
0001
0100
0001
0100
0010
1000
0001
1000
0010
0100
0010
1000
0001
,
0010
0100
1000
0001
0010
0100
1000
0001
0100
0001
1000
0010
1000
0001
0100
0001
0100
0010
1000
0001
1000
0100
0010
0001
1000
0100
1000
0001
0010
0100
1000
0001
,
2000
0000
3000
0000
2222
0000
3333
0000
2222
0000
3333
0000
2002
3003
0000
0000
,
1000
0000
0001
0000
0100
0010
0100
0000
0000
0000
0001
0000
1000
0000
0100
0000
0010
0001
1000
0000
0000
0000
0001
0000
,
0100
0000
0001
0000
0010
0000
0100
0000
1000
0000
0010
0000
0100
0000
0010
0000
1000
0100
0010
0000
0001
0000
1000
0000
,
0001
0000
0100
0000
0001
0000
0010
0000
0100
0000
1000
0000
0010
0000
0100
0000
0010
0000
1000
0000
0100
0000
0010
0001
,
1000
0000
0000
0000
0000
0001
0010
0100
0000
0000
0000
1000
0001
1000
0000
0000
0000
0000
1001
0000
0000
0000
0001
0000
,
0100
0000
0001
0000
0010
0100
1000
0000
0000
0000
0001
0000
1000
0000
0100
0000
0010
0100
1000
0000
0000
0000
0001
0000
,
0100
0000
0001
0000
0010
0000
0100
0000
1000
0000
0001
0000
0100
0000
0010
0000
1000
0100
0010
0000
0000
0000
0001
0000
,
0100
0000
0001
0000
0010
0000
0100
0000
1000
0000
0001
0000
0100
0010
0100
0000
0001
0000
1000
0000
0000
0000
0000
0001
,
0010
0100
0000
0000
0000
1000
0100
0010
0000
0000
0000
0001
1000
0001
0000
0000
0000
0000
0000
0000
0000
0000
0000
0000
;
