#TITLE:Boss machine;
#SUBTITLE:(Fenix Style);
#ARTIST:DM Ashura;
#TITLETRANSLIT:;
#SUBTITLETRANSLIT:;
#ARTISTTRANSLIT:;
#CREDIT:;
#BANNER:Boss Machine (Fenix Style)-bn.JPG;
#BACKGROUND:Boss Machine (Fenix Style)-bg.jpg;
#LYRICSPATH:;
#CDTITLE:!dan23title.png;
#MUSIC:Boss Machine.mp3;
#OFFSET:-1.580;
#SAMPLESTART:78.040;
#SAMPLELENGTH:15.000;
#SELECTABLE:YES;
#BPMS:0.000=160.000,332.000=20.000;
#STOPS:;
#BGCHANGES:;
// cache tags:
#FIRSTBEAT:4.000;
#LASTBEAT:332.750;
#SONGFILENAME:Songs/toune 2/Boss Machine (Fenix Style)/Boss Machine.sm;
#HASMUSIC:1;
#HASBANNER:1;
#MUSICLENGTH:129.705;
// end cache tags

//---------------dance-single - ----------------
#NOTES:
     dance-single:
     :
     Challenge:
     13:
     0.932,1.000,0.686,0.833,0.678,649.000,89.000,108.000,0.000,11.000:
0000
0000
0000
0000
,
0000
0000
0000
0000
,
0000
0000
0000
0000
,
0001
1000
1000
0001
1000
1000
0001
0010
,
2001
0010
0001
0010
0001
0010
0001
0010
,
3001
0100
0100
0010
0100
0100
1000
0001
,
0210
1000
0010
1000
0010
1000
0010
1300
,
0010
0001
0001
1000
0001
0001
1000
0001
,
0021
0100
0001
0100
0001
0100
0001
0130
,
0001
0010
0010
1000
0100
0100
0001
0010
,
2010
0001
0010
0100
0010
0001
0010
3100
,
1001
0000
0000
0000
0110
0000
0000
0000
1100
0000
0000
0000
0110
0000
0001
0100
,
1000
0200
0320
2030
,
3100
0000
0010
0000
0001
0000
0010
0000
0100
0000
1000
0000
0100
0000
1000
0100
,
0010
0001
0010
0000
1000
0000
0010
0000
0002
0000
0000
0000
2003
0000
0000
0000
,
3100
0000
0010
0000
0010
0000
0001
0000
0100
0000
0100
0000
0010
0000
0001
0010
,
2000
0000
0000
0000
3200
0000
0000
0000
0320
0000
0000
0000
0032
0000
0000
0003
,
1000
0000
0100
0000
1000
0000
0100
0000
1000
0000
0100
0000
1000
0000
0100
0010
0100
0010
0100
0010
0100
0000
1000
0000
0100
0000
1000
0000
0100
0000
0010
0000
,
0001
0000
0010
0000
0001
0000
0010
0000
0001
0000
0010
0000
0001
0000
0010
0100
0010
0100
0010
0100
0010
0000
0001
0000
1000
0100
1000
0100
1000
0100
1000
0100
,
0022
0033
1000
0000
0001
0000
0000
0000
0201
0000
0000
0000
0310
0000
0000
0000
,
1000
0100
1000
0021
0000
0130
1002
0000
,
1003
0010
0210
0000
0301
0000
0010
0000
,
0100
1000
0100
0010
2002
0000
0000
3003
,
0100
1000
0001
0000
1200
0000
0310
0000
,
1000
0100
1000
0201
0000
0310
0102
0000
,
1003
0010
1000
0000
2010
0000
3001
0000
,
0010
1000
0010
1000
2002
0000
0000
3003
,
1000
0001
0200
0000
0310
0000
2001
0000
,
3100
0010
0001
1200
0000
0301
2010
0000
,
3010
0001
0100
0000
0001
0000
2100
0000
,
3010
0100
0001
1000
0220
0000
0000
0330
,
0001
1000
0010
0000
0201
0000
0301
0000
,
1000
0010
1000
1200
0000
1300
0021
0000
,
0130
0000
1000
0000
0100
0000
1000
0000
0100
0000
1000
0100
0010
0100
0010
0100
1000
0000
0100
0000
1000
0000
0100
0000
1000
0000
0100
0010
0100
0010
0100
0010
,
1000
0000
0100
0000
1000
0000
0100
0000
1000
0100
0010
0100
0010
0100
0010
0000
0001
0000
0010
0100
0010
0100
0010
0100
0010
0001
1000
0100
0010
0001
1000
0100
,
0022
0000
0000
0000
0000
0000
0000
0033
,
1000
0000
0100
0010
0000
0010
0100
0000
1010
0000
0001
0100
0000
0100
0001
0000
,
0202
0000
0000
0000
0000
0000
0000
0303
,
1000
0000
0100
0001
0000
0001
0100
0000
1100
0000
0010
0100
0000
0100
0010
0000
,
2200
0000
0000
0000
0000
0000
0000
0000
0000
0000
0000
0000
0000
0000
0000
3300
,
0010
0000
0001
1000
0000
1000
0001
0000
0110
0000
1000
0010
0000
0010
1000
0000
,
0220
0000
0000
0000
0000
0000
0000
0330
,
0001
0000
1000
0100
0000
0100
1000
0000
0110
0000
0010
0001
0000
0001
0010
0000
,
2200
3300
1000
0100
0010
0001
1000
0100
0010
0001
1000
0100
0010
0001
1000
0100
,
0220
0330
0001
0000
0010
0000
0100
0000
1000
0000
0001
0000
0010
0000
0100
0000
1000
0000
0001
0000
0010
0000
0100
0000
1000
0000
0100
0000
0010
0000
0001
0000
,
1000
0001
0100
0010
1000
0001
0100
0010
1000
0001
0100
0010
1000
0001
0100
0010
,
2002
0000
0000
3003
0100
0000
0000
0000
0001
0000
0000
0000
1000
0000
0000
0000
0010
0000
0000
0000
0100
0000
0000
0000
0001
0000
0000
0000
1000
0000
0000
0000
0010
0000
0000
0000
0100
0000
0000
0000
0001
0000
0000
0000
0010
0000
0000
0000
0100
0000
0000
0000
1000
0000
0000
0000
0100
0000
0000
0000
0010
0000
0000
0000
,
0001
1000
0010
0001
0010
0100
1000
0001
1000
0100
0010
0001
0100
0010
0100
0001
,
0220
0330
0001
0000
1000
0000
0001
0000
1000
0000
0100
0000
0010
0000
0100
0000
1000
0000
0100
0000
0010
0000
0001
0000
0010
0000
0100
0000
1000
0000
0010
0000
,
0100
0010
1000
0001
0100
0010
0001
0100
1000
0100
0010
0001
0010
0100
1000
0100
,
0220
0330
0001
0000
1000
0000
0001
0000
0010
0000
0100
0000
1000
0000
0001
0000
0010
0000
0100
0000
1000
0000
0100
0000
0010
0000
0001
0000
0010
0000
0100
0000
,
2200
3300
0001
0000
0010
0000
0000
0000
0201
0000
0000
0000
0301
0000
0000
0000
,
1000
0010
1000
0210
0000
0310
1002
0000
,
0103
0010
2001
0000
3100
0000
0021
0000
,
0031
1000
0010
1000
2002
0000
0000
0000
,
3013
0100
0001
0000
2100
0000
3010
0000
,
0100
0001
0010
0100
0000
1000
1020
0000
,
1030
0001
0210
0000
0310
0000
2001
0000
,
3001
0100
0010
1000
2002
0000
0000
0000
,
3013
0100
0010
0000
2001
0000
3001
0000
,
0100
0010
0010
1002
0000
0103
0021
0000
,
1030
0100
0021
0000
2031
0000
3201
0000
,
0310
1000
0001
1000
0021
0000
0000
0030
,
1000
0100
0021
0000
1032
0000
1203
0000
,
0310
1000
0010
2010
0000
3100
1020
0000
,
0031
0000
0000
0000
0100
0000
0000
0000
0010
0000
0001
0000
0010
0000
0001
0000
0010
0000
0001
0000
0010
0100
0010
0100
0010
0100
0010
0000
0001
0000
0010
0000
,
0001
0000
0010
0000
0100
0010
0100
0010
0100
0010
0100
0000
1000
0000
0100
0000
0010
0100
0010
0100
0010
0100
0010
0000
0001
0010
0100
1000
0001
0010
0100
1000
,
0220
0330
0000
0000
1001
0000
0000
0000
0110
0000
0000
0000
1100
0000
0001
0010
,
2000
0000
0000
0000
3020
0000
0000
0030
0200
0000
0000
0000
0302
0000
0000
0000
,
1103
0000
0000
0000
0110
0000
0000
0000
0011
0000
0000
0000
1100
0000
0100
0010
,
0001
1000
0010
0100
0002
0000
2003
0000
,
3110
0000
0000
0000
1100
0000
0000
0000
0101
0000
0000
0000
0110
0000
1000
0001
,
0020
0230
2300
3200
,
0311
0000
0000
0000
1100
0000
0000
0000
0110
0000
0000
0000
0011
0000
0100
0010
,
1000
0000
0100
0000
0010
0000
0001
0000
2000
0000
0000
0000
3002
0000
0000
0003
,
1100
0000
0000
0000
0110
0000
0000
0000
1100
0000
0000
0000
0110
0000
0100
0010
,
0002
0023
2030
3002
,
1103
0000
0000
0000
0101
0000
0000
0000
0110
0000
0000
0000
1100
0000
0001
1000
,
0010
0001
0100
0010
0002
0000
2003
0000
,
3001
0000
0010
0000
0010
0000
0001
0000
0010
0000
0010
0000
0001
0000
0010
0100
,
0010
2000
3200
0320
,
0031
0000
1000
0000
1000
0000
0001
0000
1000
0000
1000
0000
0001
0000
1000
0001
,
1000
0100
0010
0001
2000
0000
0000
0000
,
3022
0000
0000
0033
0000
0000
0000
0000
0000
0000
0000
0000
0000
0000
0000
0000
;

//---------------dance-single - ----------------
#NOTES:
     dance-single:
     :
     Edit:
     15:
     1.000,1.000,1.000,0.162,1.000,1062.000,145.000,21.000,0.000,42.000:
0000
0000
0000
0000
,
1000
0001
0001
1000
0010
0010
1000
0100
,
1000
1001
0100
1010
0100
0011
0100
1001
,
0001
1000
1010
0001
0100
0101
0010
1000
,
0100
0000
1100
0001
0000
0101
0000
0000
0010
0000
1010
0000
0001
0000
0011
0000
,
0100
1000
1100
0001
0100
0101
0001
1000
,
0010
0000
1010
0000
0001
0001
0100
0000
0001
1000
0100
0000
0001
0000
1100
0000
,
0001
0000
1000
0000
0100
0000
1101
0000
0100
0000
0100
1000
0101
0000
1000
0000
,
1100
0000
0001
0000
1100
0000
0001
0000
1100
0010
1001
0000
0010
0001
1010
0000
,
0001
0100
0101
0000
0010
1000
1100
0000
0001
0010
0101
0000
0010
1000
1001
0000
,
0010
1000
0100
0010
0001
0100
0001
1000
0010
0100
0001
1000
0100
0010
0001
0000
,
0001
0010
0001
0000
0010
0000
0100
1000
0100
0000
1000
0000
1000
0010
0100
0000
,
0001
1000
0010
1000
0001
0010
0100
0010
0001
0010
0001
0010
0001
0010
0001
0000
,
0100
1000
0100
0000
1000
0000
0010
0100
0001
0000
1000
0000
0010
0100
0001
0011
,
0010
0100
1000
1000
0010
0100
0001
0010
0001
0001
0010
0100
1000
1000
0001
0100
,
0010
0001
0000
0000
0020
0000
1000
0001
1000
0000
0030
2000
0000
0000
0010
0000
,
0000
0010
0000
0010
0000
0010
0000
0010
,
0000
0020
0001
0000
0000
0000
0100
0000
0001
0000
0100
0000
0001
0000
0100
3000
,
0000
0000
0001
0000
0100
0000
0001
0000
0100
0000
0001
0000
0100
0000
0001
0030
,
1000
0000
0001
0000
0100
0000
0010
1000
0010
0100
0001
0100
0001
0001
1000
0000
,
1000
0100
0010
0001
0100
0001
0001
1000
0010
0100
0010
1000
0001
1100
1000
0000
,
0001
0100
0001
0010
0100
1000
0001
0100
0001
1000
0010
0100
0001
0010
0011
0000
,
0001
0100
0101
0001
1000
0010
1010
0100
0001
1000
1010
0001
0100
0001
0011
0000
,
0100
1000
0001
0010
0100
1000
0001
0100
0010
1000
1010
0010
0101
1000
0011
0001
,
1000
0100
0011
1000
0001
0100
1010
0001
0100
0100
1000
0001
0010
0001
0001
0010
,
0100
1000
0001
0100
0010
1000
0001
0100
0100
1000
0100
1000
0010
1000
0010
0010
,
1000
0001
0100
0001
0010
0100
1000
0001
1000
1000
1010
0000
0101
0001
0011
0001
,
1000
0100
0010
0001
1000
0100
0010
0001
1000
1000
1010
0001
1001
1000
1100
1000
,
1010
1000
0001
0010
0100
1000
0001
0010
0011
0001
0100
0001
1001
1000
0010
0100
,
0001
1000
1001
0000
0001
0100
0010
1000
0001
0010
0100
0010
0001
1000
0100
0010
,
0001
0001
1000
1000
0010
0010
0100
0100
0001
0001
1000
1000
0001
2000
0001
0010
,
0100
0200
0000
0000
0000
0000
0000
0000
0000
0000
3000
0000
0000
0000
0300
0000
,
2001
0000
0200
0000
3020
0000
0300
0030
0001
1000
2001
0001
0000
0000
3100
0010
,
0001
1001
1000
0010
0100
0001
1000
0100
0010
0001
0010
0001
1000
0001
0001
1000
,
0010
0100
0001
1000
0100
0010
0001
1000
0001
1000
0001
1000
0002
1000
0000
1000
,
2000
0000
0000
3203
0020
0000
0000
0300
0130
0000
0001
1000
0001
1000
0001
1001
,
1000
0010
0100
0001
1000
0001
0010
0100
1000
0001
0010
0000
1001
0100
0010
0001
,
1000
0001
0100
0000
1010
0001
0100
0001
1001
0010
0100
0000
1001
0001
0010
0001
,
1000
0001
0100
0010
1000
0001
0001
1000
0010
0100
0001
1000
0001
0010
0001
0001
,
0010
0100
1000
0001
1001
1000
0001
0100
0010
1000
0001
0100
0010
1000
1010
0001
,
0100
0001
0011
0100
1000
0001
1100
0001
0010
0001
0101
0010
1000
0001
0110
1000
,
0001
1000
0010
0100
0001
1000
0100
0010
0001
0001
0010
0001
1000
0100
0010
0001
,
1001
1000
0010
0100
0110
0001
1000
0100
0011
0100
1000
0001
1001
0100
0110
0001
,
1001
1001
1001
1001
0010
1000
0001
0010
0100
1000
0001
0010
0100
1000
0001
0010
,
0100
1000
0001
0010
0100
1000
0001
0010
0100
1000
0001
0010
0100
1000
0001
1000
,
1001
0010
0100
0001
1000
0010
0100
0001
1000
0010
0100
0001
1000
0010
0100
0001
,
1000
0010
0100
0001
1000
0010
0100
0001
1000
0010
0100
0001
0010
0100
1000
0001
,
0110
0001
1000
0100
0011
0100
1000
0001
0011
0100
1000
0001
0011
0100
1000
0001
,
1010
0001
0100
0010
1001
0010
0100
0001
1010
0001
0100
0010
1100
0001
0010
0100
,
1001
0001
0100
0010
1001
0010
0100
0001
1000
0100
0010
0001
1000
0100
0010
0001
,
0010
0100
1000
0001
1000
1000
0001
0001
0100
0010
1000
0001
0100
0001
0010
0100
,
1000
1001
0000
0101
0100
0010
0010
1000
1001
0001
0100
0110
1010
1000
0001
0101
,
0100
0010
0010
1000
1000
0001
0001
0100
0110
0010
1000
1000
0001
0101
0000
0100
,
0010
1010
1000
0001
0101
0100
0010
0010
1000
1001
0001
0100
0100
0010
1000
1000
,
0001
0101
0000
0110
1010
1000
0100
0100
0010
0011
0001
0100
0110
0010
1000
1001
,
0001
0001
0010
0110
1100
1000
0001
0001
0010
1010
1100
0001
0011
0100
1000
0001
,
0010
1100
0001
0010
1100
0000
0011
1100
0001
0010
1100
1000
0001
0001
1000
0010
,
0100
0001
1001
0010
0100
1001
0001
0010
0100
0001
1001
0010
0100
1001
1000
0001
,
0010
0100
1000
0001
0010
0100
1000
0001
1000
1000
0001
0001
0100
0100
0001
0001
,
1000
0001
1000
0001
1000
0001
1000
0001
1000
0001
1000
0001
1000
0001
1000
0010
,
0100
0010
0100
0010
0100
0010
0100
0010
0100
0010
0100
0010
0100
0010
0100
0010
,
0100
0001
0100
0001
0100
0001
0100
0001
0100
0001
0100
0001
0100
0001
0100
0001
,
0100
1000
0100
1000
0100
1000
0100
1000
0100
1000
0100
1000
0100
1000
0100
1000
,
0100
0010
0100
0010
1000
0010
1000
0010
0100
0010
0100
0010
0001
0010
0001
0010
,
0100
0001
0100
0001
0100
0010
0100
0010
0100
1000
0100
0101
0100
0001
0100
0001
,
0010
0001
0010
0001
1000
0001
1000
0001
0100
0001
0100
0001
0010
0001
0010
0001
,
1000
0100
1000
0100
1000
0001
1000
0001
1000
0010
1000
0010
1000
0001
0100
0001
,
1000
0001
0010
0100
1000
0001
0010
0100
1001
0010
0100
1000
0001
0010
0100
1000
,
0010
1000
0101
0001
1000
0010
0101
0001
0000
0001
0001
0000
0010
0001
1100
0000
,
0010
1000
0101
0000
0010
1000
1100
0000
0001
0010
0011
0000
0001
1000
0010
0100
,
1001
0000
1001
0001
0100
0100
0001
0001
0010
0010
0100
1000
0001
1000
0010
0100
,
1001
0001
1000
0010
0101
0001
1000
0100
0011
0100
1000
0001
0101
1000
0100
1000
,
0001
1000
0001
0010
0100
0010
0001
1000
0010
0100
0001
1001
0000
1000
1001
0000
,
0010
1000
0101
0010
1000
0001
0110
0001
1000
0100
0011
1000
0100
0010
1001
0100
,
1000
0001
1002
2010
0110
0110
0110
0000
0000
0000
0000
0000
0110
0110
0110
0110
,
0000
0000
0000
0000
0000
0000
0000
0000
0000
0000
0000
0000
0000
0000
0000
0000
0000
0000
0000
0000
0000
0000
0000
0000
0000
0000
0000
0000
0000
0000
0000
0000
0000
0000
0000
0000
0000
0000
0000
0000
0000
0000
0000
0000
0000
0000
0000
0000
0000
0000
0000
0000
0000
0000
0000
0000
0000
0000
0000
0000
0000
0000
0000
0000
0000
0000
0000
0000
0000
0000
0000
0000
0000
0000
0000
0000
0000
0000
0000
0000
0000
0000
0000
0000
0000
0000
0000
0000
0000
0000
0000
0000
0000
0000
0000
0000
0000
0000
0000
0000
0000
0000
0000
0000
0000
0000
0000
0000
0000
0000
0000
0000
0000
0000
0000
0000
0000
0000
0000
0000
0000
0000
0000
0000
0000
0000
0000
0000
0000
0000
0000
0000
0000
0000
0000
0000
0000
0000
0000
0000
0000
0000
0000
0000
0000
0000
0000
0000
0000
0000
0000
0000
0000
0000
0000
0000
3000
0000
0000
0000
0000
0000
0000
0000
0000
0000
0000
0000
1000
0000
0000
0000
0000
0000
0000
0000
0000
0000
0000
0000
2000
3000
0000
0000
0000
0000
0000
0000
0000
0000
0000
0000
,
0000
2000
0000
0000
0000
0000
0010
0100
,
0000
0003
0100
0100
0000
0000
0010
0000
0100
0000
0100
0001
0000
0000
3010
1000
,
0100
2002
0100
0000
0000
0010
0000
0010
0100
0000
0000
0100
0010
0000
0000
0000
,
0000
0000
0000
0000
0000
0000
0000
0000
0000
0000
0000
0000
0000
0000
0000
3003
,
0010
0010
0100
0100
0010
1000
1001
1001
,
0100
0002
2010
0010
0000
0000
0100
0000
0100
0000
0100
0000
0000
0000
0100
0000
,
0010
0100
0000
0000
0100
0010
0000
0000
0100
0010
0000
0010
0100
0010
0100
0010
,
0000
3003
0000
0000
0000
0000
0000
0000
0000
0000
0000
0000
0000
0000
0000
0000
0000
0000
0000
0000
0000
0000
0000
0000
0000
0000
0000
0000
0000
0000
0000
0000
0000
0000
0000
0000
0000
0000
0000
0000
0000
0000
0000
0000
0000
0000
0000
0000
0000
0000
0000
0000
0000
0000
0000
0000
0000
0000
0000
0000
0000
0000
0000
0000
0000
0000
0000
0000
0000
0000
0000
0000
0000
0000
0000
0000
0000
0000
0000
0000
0000
0000
0000
0000
0000
0000
0000
0000
0000
0000
0000
0000
0000
0000
0000
0000
0000
0000
0000
0000
0000
0000
0000
0000
0000
0000
0000
0000
0000
0000
0000
0000
0000
0000
0000
0000
0000
0000
0000
0000
0000
0000
0000
0000
0000
0000
0000
0000
0000
0000
0000
0000
0000
0000
0000
0000
0000
0000
0000
0000
0000
0000
0000
0000
0000
0000
0000
0000
0000
0000
0000
0000
0000
0000
0000
0000
0000
0000
0000
0000
0000
0000
0000
0000
0000
0000
0000
0000
0000
0000
0000
0000
0000
0000
0000
0000
0000
0000
0000
0000
0000
0000
0000
0000
0000
0000
0000
0000
0000
0000
0000
0000
;

//---------------dance-single - Copied from----------------
#NOTES:
     dance-single:
     Copied from:
     Easy:
     15:
     1.000,1.000,1.000,0.177,1.000,1063.000,147.000,23.000,0.000,42.000:
0000
0000
0000
0000
,
1000
0001
0001
1000
0010
0010
1000
0100
,
1000
1001
0100
1010
0100
0011
0100
1001
,
0001
1000
1010
0001
0100
0101
0010
1000
,
0100
0000
1100
0001
0000
0101
0000
0000
0010
0000
1010
0000
0001
0000
0011
0000
,
0100
1000
1100
0001
0100
0101
0001
1000
,
0010
0000
1010
0000
0001
0001
0100
0000
0001
1000
0100
0000
0001
0000
1100
0000
,
0001
0000
1000
0000
0100
0000
1101
0000
0100
0000
0100
1000
0101
0000
1000
0000
,
1100
0000
0001
0000
1100
0000
0001
0000
1100
0010
1001
0000
0010
0001
1010
0000
,
0001
0100
0101
0000
0010
1000
1100
0000
0001
0010
0101
0000
0010
1000
1001
0000
,
0010
1000
0100
0010
0001
0100
0001
1000
0010
0100
0001
1000
0100
0010
0001
0000
,
0001
0010
0001
0000
0010
0000
0100
1000
0100
0000
1000
0000
1000
0010
0100
0000
,
0001
1000
0010
1000
0001
0010
0100
0010
0001
0010
0001
0010
0001
0010
0001
0000
,
0100
1000
0100
0000
1000
0000
0010
0100
0001
0000
1000
0000
0010
0100
0001
0011
,
0010
0100
1000
1000
0010
0100
0001
0010
0001
0001
0010
0100
1000
1000
0001
0100
,
0202
0000
0000
0000
0003
0010
1000
0010
,
1000
0010
1000
0010
1000
0010
1000
0310
,
0000
0020
0001
0000
0000
0000
0100
0000
0001
0000
0100
0000
0001
0000
0100
0000
,
0000
0000
0001
0000
0100
0000
0001
0000
0100
0000
0001
0000
0100
0000
0001
0030
,
1000
0000
0001
0000
0100
0000
0010
1000
0010
0100
0001
0100
0001
0001
1000
0000
,
1000
0100
0010
0001
0100
0001
0001
1000
0010
0100
0010
1000
0001
1100
1000
0000
,
0001
0100
0001
0010
0100
1000
0001
0100
0001
1000
0010
0100
0001
0010
0011
0000
,
0001
0100
0101
0001
1000
0010
1010
0100
0001
1000
1010
0001
0100
0001
0011
0000
,
0100
1000
0001
0010
0100
1000
0001
0100
0010
1000
1010
0010
0101
1000
0011
0001
,
1000
0100
0011
1000
0001
0100
1010
0001
0100
0100
1000
0001
0010
0001
0001
0010
,
0100
1000
0001
0100
0010
1000
0001
0100
0100
1000
0100
1000
0010
1000
0010
0010
,
1000
0001
0100
0001
0010
0100
1000
0001
1000
1000
1010
0000
0101
0001
0011
0001
,
1000
0100
0010
0001
1000
0100
0010
0001
1000
1000
1010
0001
1001
1000
1100
1000
,
1010
1000
0001
0010
0100
1000
0001
0010
0011
0001
0100
0001
1001
1000
0010
0100
,
0001
1000
1001
0000
0001
0100
0010
1000
0001
0010
0100
0010
0001
1000
0100
0010
,
0001
0001
1000
1000
0010
0010
0100
0100
0001
0001
1000
1000
0001
2002
0010
0010
,
0100
0200
0000
0000
0000
0000
0000
0023
0000
0000
3000
0000
0000
0000
0300
0000
,
2031
0000
0200
0000
3020
0000
0300
0030
0001
1000
2001
0001
0000
0000
3100
0010
,
0001
1001
1000
0010
0100
0001
1000
0100
0010
0001
0010
0001
1000
0001
0001
1000
,
0010
0100
0001
1000
0100
0010
0001
1000
0001
1000
0001
1000
0002
1000
0000
1000
,
2000
0000
0000
3203
0020
0000
0000
0300
0130
0000
0001
1000
0001
1000
0001
1001
,
1000
0010
0100
0001
1000
0001
0010
0100
1000
0001
0010
0000
1001
0100
0010
0001
,
1000
0001
0100
0000
1010
0001
0100
0001
1001
0010
0100
0000
1001
0001
0010
0001
,
1000
0001
0100
0010
1000
0001
0001
1000
0010
0100
0001
1000
0001
0010
0001
0001
,
0010
0100
1000
0001
1001
1000
0001
0100
0010
1000
0001
0100
0010
1000
1010
0001
,
0100
0001
0011
0100
1000
0001
1100
0001
0010
0001
0101
0010
1000
0001
0110
1000
,
0001
1000
0010
0100
0001
1000
0100
0010
0001
0001
0010
0001
1000
0100
0010
0001
,
1001
1000
0010
0100
0110
0001
1000
0100
0011
0100
1000
0001
1001
0100
0110
0001
,
1001
1001
1001
1001
0010
1000
0001
0010
0100
1000
0001
0010
0100
1000
0001
0010
,
0100
1000
0001
0010
0100
1000
0001
0010
0100
1000
0001
0010
0100
1000
0001
1000
,
1001
0010
0100
0001
1000
0010
0100
0001
1000
0010
0100
0001
1000
0010
0100
0001
,
1000
0010
0100
0001
1000
0010
0100
0001
1000
0010
0100
0001
0010
0100
1000
0001
,
0110
0001
1000
0100
0011
0100
1000
0001
0011
0100
1000
0001
0011
0100
1000
0001
,
1010
0001
0100
0010
1001
0010
0100
0001
1010
0001
0100
0010
1100
0001
0010
0100
,
1001
0001
0100
0010
1001
0010
0100
0001
1000
0100
0010
0001
1000
0100
0010
0001
,
0010
0100
1000
0001
1000
1000
0001
0001
0100
0010
1000
0001
0100
0001
0010
0100
,
1000
1001
0000
0101
0100
0010
0010
1000
1001
0001
0100
0110
1010
1000
0001
0101
,
0100
0010
0010
1000
1000
0001
0001
0100
0110
0010
1000
1000
0001
0101
0000
0100
,
0010
1010
1000
0001
0101
0100
0010
0010
1000
1001
0001
0100
0100
0010
1000
1000
,
0001
0101
0000
0110
1010
1000
0100
0100
0010
0011
0001
0100
0110
0010
1000
1001
,
0001
0001
0010
0110
1100
1000
0001
0001
0010
1010
1100
0001
0011
0100
1000
0001
,
0010
1100
0001
0010
1100
0000
0011
1100
0001
0010
1100
1000
0001
0001
1000
0010
,
0100
0001
1001
0010
0100
1001
0001
0010
0100
0001
1001
0010
0100
1001
1000
0001
,
0010
0100
1000
0001
0010
0100
1000
0001
1000
1000
0001
0001
0100
0100
0001
0001
,
1000
0001
1000
0001
1000
0001
1000
0001
1000
0001
1000
0001
1000
0001
1000
0010
,
0100
0010
0100
0010
0100
0010
0100
0010
0100
0010
0100
0010
0100
0010
0100
0010
,
0100
0001
0100
0001
0100
0001
0100
0001
0100
0001
0100
0001
0100
0001
0100
0001
,
0100
1000
0100
1000
0100
1000
0100
1000
0100
1000
0100
1000
0100
1000
0100
1000
,
0100
0010
0100
0010
1000
0010
1000
0010
0100
0010
0100
0010
0001
0010
0001
0010
,
0100
0001
0100
0001
0100
0010
0100
0010
0100
1000
0100
0101
0100
0001
0100
0001
,
0010
0001
0010
0001
1000
0001
1000
0001
0100
0001
0100
0001
0010
0001
0010
0001
,
1000
0100
1000
0100
1000
0001
1000
0001
1000
0010
1000
0010
1000
0001
0100
0001
,
1000
0001
0010
0100
1000
0001
0010
0100
1001
0010
0100
1000
0001
0010
0100
1000
,
0010
1000
0101
0001
1000
0010
0101
0001
0000
0001
0001
0000
0010
0001
1100
0000
,
0010
1000
0101
0000
0010
1000
1100
0000
0001
0010
0011
0000
0001
1000
0010
0100
,
1001
0000
1001
0001
0100
0100
0001
0001
0010
0010
0100
1000
0001
1000
0010
0100
,
1001
0001
1000
0010
0101
0001
1000
0100
0011
0100
1000
0001
0101
1000
0100
1000
,
0001
1000
0001
0010
0100
0010
0001
1000
0010
0100
0001
1001
0000
1000
1001
0000
,
0010
1000
0101
0010
1000
0001
0110
0001
1000
0100
0011
1000
0100
0010
1001
0100
,
1000
0001
1002
2010
0110
0110
0110
0000
0000
0000
0000
0000
0110
0110
0110
0110
,
0000
0000
0000
0000
0000
0000
0000
0000
0000
0000
0000
0000
0000
0000
0000
0000
0000
0000
0000
0000
0000
0000
0000
0000
0000
0000
0000
0000
0000
0000
0000
0000
0000
0000
0000
0000
0000
0000
0000
0000
0000
0000
0000
0000
0000
0000
0000
0000
0000
0000
0000
0000
0000
0000
0000
0000
0000
0000
0000
0000
0000
0000
0000
0000
0000
0000
0000
0000
0000
0000
0000
0000
0000
0000
0000
0000
0000
0000
0000
0000
0000
0000
0000
0000
0000
0000
0000
0000
0000
0000
0000
0000
0000
0000
0000
0000
0000
0000
0000
0000
0000
0000
0000
0000
0000
0000
0000
0000
0000
0000
0000
0000
0000
0000
0000
0000
0000
0000
0000
0000
0000
0000
0000
0000
0000
0000
0000
0000
0000
0000
0000
0000
0000
0000
0000
0000
0000
0000
0000
0000
0000
0000
0000
0000
0000
0000
0000
0000
0000
0000
0000
0000
0000
0000
0000
0000
3000
0000
0000
0000
0000
0000
0000
0000
0000
0000
0000
0000
1000
0000
0000
0000
0000
0000
0000
0000
0000
0000
0000
0000
2000
3000
0000
0000
0000
0000
0000
0000
0000
0000
0000
0000
,
0000
2000
0000
0000
0000
0000
0010
0100
,
0000
0003
0100
0100
0000
0000
0010
0000
0100
0000
0100
0001
0000
0000
3010
1000
,
0100
2002
0100
0000
0000
0010
0000
0010
0100
0000
0000
0100
0010
0000
0000
0000
,
0000
0000
0000
0000
0000
0000
0000
0000
0000
0000
0000
0000
0000
0000
0000
3003
,
0010
0010
0100
0100
0010
1000
1001
1001
,
0100
0002
2010
0010
0000
0000
0100
0000
0100
0000
0100
0000
0000
0000
0100
0000
,
0010
0100
0000
0000
0100
0010
0000
0000
0100
0010
0000
0010
0100
0010
0100
0010
,
0000
3003
0000
0000
0000
0000
0000
0000
0000
0000
0000
0000
0000
0000
0000
0000
0000
0000
0000
0000
0000
0000
0000
0000
0000
0000
0000
0000
0000
0000
0000
0000
0000
0000
0000
0000
0000
0000
0000
0000
0000
0000
0000
0000
0000
0000
0000
0000
0000
0000
0000
0000
0000
0000
0000
0000
0000
0000
0000
0000
0000
0000
0000
0000
0000
0000
0000
0000
0000
0000
0000
0000
0000
0000
0000
0000
0000
0000
0000
0000
0000
0000
0000
0000
0000
0000
0000
0000
0000
0000
0000
0000
0000
0000
0000
0000
0000
0000
0000
0000
0000
0000
0000
0000
0000
0000
0000
0000
0000
0000
0000
0000
0000
0000
0000
0000
0000
0000
0000
0000
0000
0000
0000
0000
0000
0000
0000
0000
0000
0000
0000
0000
0000
0000
0000
0000
0000
0000
0000
0000
0000
0000
0000
0000
0000
0000
0000
0000
0000
0000
0000
0000
0000
0000
0000
0000
0000
0000
0000
0000
0000
0000
0000
0000
0000
0000
0000
0000
0000
0000
0000
0000
0000
0000
0000
0000
0000
0000
0000
0000
0000
0000
0000
0000
0000
0000
0000
0000
0000
0000
0000
0000
;
