#TITLE:Jag Orkar Inte Mer;
#SUBTITLE:Gson;
#ARTIST:Markoolio;
#TITLETRANSLIT:;
#SUBTITLETRANSLIT:;
#ARTISTTRANSLIT:;
#CREDIT:;
#BANNER:../thisandthat-bn.png;
#BACKGROUND:../thisnthat-bg.png;
#LYRICSPATH:;
#CDTITLE:;
#MUSIC:Markoolio - 05 - Jag Orkar Inte Mer.ogg;
#OFFSET:0.755;
#SAMPLESTART:40.640;
#SAMPLELENGTH:12.000;
#SELECTABLE:YES;
#BPMS:0.000=145.000;
#STOPS:;
#BGCHANGES:;
// cache tags:
#FIRSTBEAT:9.500;
#LASTBEAT:335.250;
#SONGFILENAME:Songs/Seph, Gson & Shpadoinkle's Pack of This 'n That/Jag Orkar Inte Mer/Jag Orkar Inte Mer.sm;
#HASMUSIC:1;
#HASBANNER:1;
#MUSICLENGTH:105.000;
// end cache tags

//---------------dance-single - Blank----------------
#NOTES:
     dance-single:
     Blank:
     Challenge:
     9:
     1.000,1.000,0.190,1.000,0.290,610.000,20.000,171.000,30.000,0.000:

0000
0000
0000
0000
,
0000
0000
0000
0000
,
0000
0000
0000
0001
1000
0001
1000
0100
,
2100
0000
0000
3100
0010
0100
1000
0001
,
0200
0000
0000
0310
1000
0100
0010
0001
,
0200
0000
0320
0000
0130
0001
0010
0100
,
2000
0000
0000
3100
0010
0100
1000
0001
,
0200
0000
0000
0310
1000
0010
0100
0001
,
0200
0000
0000
0310
0100
0010
1000
0001
,
2000
0000
3100
0010
0001
0010
0100
1000
,
02M0
00M0
00M0
0000
0000
0000
0000
0000
00M0
00M0
00M0
0000
0310
0000
0000
0000
M001
M000
M000
M000
M100
M000
M000
M000
M010
M000
M000
M000
0100
M000
M000
M000
,
M002
0013
0001
0200
0320
2030
3200
2300
,
3100
0010
0200
0000
0310
0000
0002
0000
0203
0000
2300
0000
3200
0000
0302
0000
,
0103
0001
0100
0000
0010
0000
2000
0000
3020
0000
0230
0000
0320
0000
2030
0000
,
3200
0310
0001
2000
3200
0320
0032
2003
,
3001
1000
0002
0000
0103
0000
0020
0000
2030
0000
3200
0000
0320
0000
0230
0000
,
0310
0100
0010
0000
0001
0000
0200
0000
0320
0000
0230
0000
0302
0000
0023
0000
,
0130
1000
0100
0000
0010
0000
0002
0000
0203
0000
0320
0000
2030
0000
3020
0000
,
2M30
0000
3100
0000
0010
0000
0100
0000
1000
0000
0100
0000
M010
M000
M001
M000
,
0010
0010
0001
0001
0100
0100
0010
0010
,
1000
1000
0100
0100
0010
0010
0001
0001
,
0010
0010
0001
0001
0100
0100
1000
1000
,
0100
0100
0001
0001
1000
1000
0010
0010
,
1000
0100
1100
2000
3200
0320
0230
2300
,
3100
0010
0011
0002
0203
0320
0230
0302
,
0103
0010
0110
0200
0320
2030
3002
2003
,
3004
0000
0000
1000
1003
0002
0203
0320
,
1030
0100
0010
0001
0100
0020
2030
3200
,
0310
0001
0010
0100
1000
0100
0020
0000
,
0032
0000
0203
0000
0320
0000
0230
0320
,
1030
0100
1000
0001
1000
0002
0203
0320
,
1030
0100
0010
0100
1000
0002
0203
0320
,
0130
0001
0100
0010
1000
0001
0200
0000
,
0320
0000
2030
0000
3002
0000
2003
3200
,
0000
0000
0320
0000
0000
0000
0031
0000
0001
0000
0001
0000
0010
0100
0010
0100
,
001M
0001
0100
0001
1000
0010
1000
0100
,
0010
0001
0010
0000
0001
0000
0100
0000
0010
0000
1000
0000
0100
0000
1000
0000
,
0100
0010
0100
0000
0020
0000
0000
0000
0032
0000
0023
0000
2030
0000
3020
0000
,
0031
0010
0001
0000
0100
0000
0010
0000
1000
0000
0010
0000
0100
0000
0010
0000
,
1000
0010
1000
0000
0100
0000
0010
0000
0001
0000
0010
0000
0100
0000
1000
0000
,
0001
1000
0001
0000
0010
0000
0001
0000
0100
0000
0010
0000
1000
0000
0100
0000
,
1000
0100
1000
0000
0200
0000
0320
0000
0032
0000
0203
0000
0320
0000
2030
0000
,
3002
0000
1003
0002
0203
0302
2003
3200
,
0310
0000
0010
0000
0010
0000
0010
0000
0010
0000
0000
0010
0000
0000
0001
0000
,
1000
0000
1000
0000
1000
0000
1000
0000
1000
0000
0000
0010
0000
0000
0100
0000
,
0001
0000
0001
0000
0001
0000
0001
0000
1000
0000
0000
0010
0000
0000
0100
0000
,
0010
0010
1000
1000
0001
0001
1000
1000
,
0100
0000
0100
0000
0100
0000
0100
0000
0100
0000
0000
0100
0000
0000
1000
0000
,
0010
0000
0010
0000
0010
0000
0100
0000
0010
0000
0000
1000
0000
0000
0100
0000
,
0010
0000
0010
0000
0010
0000
0010
0000
0010
0000
0000
0001
0000
0000
0100
0000
,
0102
0000
0000
0000
0203
0000
0000
0000
0310
0000
0010
0000
1000
0010
0100
0001
,
1000
1000
0100
0100
0010
0010
0001
0001
,
0020
0000
0000
0000
0000
0000
0000
0000
0000
0000
0000
0000
0000
0000
0000
0000
0000
0000
0000
0000
0000
0000
0000
0030
0010
0000
0000
0000
0000
0000
0000
0000
0000
0000
0000
0000
0000
0000
0000
0000
0000
0000
0000
0000
0000
0000
0000
0000
0100
0000
0000
0000
0000
0000
0000
0000
0000
0000
0000
0000
0000
0000
0000
0000
0000
0000
0000
0000
0000
0000
0000
0000
0100
0000
0000
0000
0000
0000
0000
0000
0000
0000
0000
0000
0000
0000
0000
0000
0000
0000
0000
0000
0000
0000
0000
0000
0010
0000
0000
0000
0000
0000
0000
0000
0000
0000
0000
0000
0000
0000
0000
0000
0000
0000
0000
0000
0000
0000
0000
0000
0010
0000
0000
0000
0000
0000
0000
0000
0000
0000
0000
0000
0000
0000
0000
0000
0000
0000
0000
0000
0000
0000
0000
0000
0001
0000
0000
0000
0000
0000
0000
0000
0000
0000
0000
0000
0000
0000
0000
0000
0000
0000
0000
0000
0000
0000
0000
0000
0001
0000
0000
0000
0000
0000
0000
0000
0000
0000
0000
0000
0000
0000
0000
0000
0000
0000
0000
0000
0000
0000
0000
0000
,
1000
0000
0000
0000
0000
0000
0000
0000
0000
0000
0000
0000
0001
0000
0000
0000
0000
0000
0000
0000
0000
0000
0000
0000
1000
0000
0000
0000
0000
0000
0000
0000
0000
0000
0000
0000
0000
0000
0000
0000
0000
0000
0000
0000
0000
0000
0000
0000
0010
0000
0000
0000
0000
0000
0000
0000
0000
0000
0000
0000
0000
0000
0000
0000
0000
0000
0000
0000
0000
0000
0000
0000
0010
0000
0000
0000
0000
0000
0000
0000
0000
0000
0000
0000
0000
0000
0000
0000
0000
0000
0000
0000
0000
0000
0000
0000
0100
0000
0000
0000
0000
0000
0000
0000
0000
0000
0000
0000
0000
0000
0000
0000
0000
0000
0000
0000
0000
0000
0000
0000
0100
0000
0000
0000
0000
0000
0000
0000
0000
0000
0000
0000
0000
0000
0000
0000
0000
0000
0000
0000
0000
0000
0000
0000
0002
0000
0000
0000
0000
0000
0000
0000
0000
0000
0000
0000
0000
0000
0000
0000
0000
0000
0000
0000
0000
0000
0000
0003
0001
0000
0000
0000
0000
0000
0000
0000
0000
0000
0000
0000
0000
0000
0000
0000
0000
0000
0000
0000
0000
0000
0000
0000
,
1000
0000
0010
1000
0010
0000
1000
0001
1000
0000
0100
0000
0020
0000
0000
0000
,
0031
0010
0011
0002
0023
2030
3020
0032
,
0013
0100
1100
2000
3200
0302
0203
2300
,
3100
0010
0110
0200
0320
0032
0023
0230
,
1300
0100
1000
0000
0000
0000
0100
1000
0400
0000
0000
0000
0000
0000
0000
0000
,
2300
3100
1000
0001
0010
0002
2003
3200
,
0310
0000
0001
0000
0100
0000
0010
1000
0010
0000
1000
0010
2000
0000
0000
0000
,
3200
0000
0320
0000
0032
0000
0203
0320
,
1030
0100
0010
0001
0100
0002
0203
0320
,
1030
0100
1000
0001
0010
0002
2003
3020
,
0130
0010
1000
0100
0010
0001
0200
0000
,
0320
0000
2030
0000
3200
0000
0320
0032
,
0000
0000
2003
0000
0000
0000
3010
0000
0010
0000
0010
0000
1000
0010
1000
0010
,
100M
0010
0110
0100
0001
0010
0011
0001
,
1000
0001
1000
0000
1010
0000
0010
0000
1000
0000
0100
0000
1100
0000
1000
0000
,
0100
0010
0001
0000
0021
0000
0000
0000
0032
0000
0023
0000
0032
0000
0203
0000
,
0301
0100
0010
0000
0110
0000
0010
0000
1000
0000
0010
0000
1010
0000
1000
0000
,
0010
0100
0001
0000
0101
0000
0100
0000
0001
0000
1000
0000
1001
0000
0001
0000
,
1000
0001
0100
0000
0101
0000
0001
0000
0100
0000
0010
0000
1000
0000
0100
0000
,
1000
0100
1000
0000
0200
0000
0320
0000
0032
0000
0203
0000
0320
0000
2030
0000
,
3002
0000
1003
0002
0203
0302
2003
3200
,
1300
0000
1000
0000
1000
0000
1000
0000
1000
0000
0000
1000
0000
0000
0010
0000
,
0100
0000
0100
0000
0100
0000
0100
0000
0100
0000
0000
0010
0000
0000
1000
0000
,
0001
0000
0001
0000
0001
0000
0001
0000
1000
0000
0000
0010
0000
0000
1000
0000
,
1000
1000
0010
0010
0100
0100
0001
0001
,
0100
0000
0100
0000
0100
0000
0100
0000
0100
0000
0000
0100
0000
0000
0010
0000
,
1000
0000
1000
0000
1000
0000
0001
0000
1000
0000
0000
0010
0000
0000
1000
0000
,
0001
0000
0001
0000
0001
0000
0001
0000
0001
0000
0000
0100
0000
0000
0010
0000
,
0200
0000
0000
0000
0000
0000
0000
0000
0302
0000
0000
0000
0000
0000
0000
0000
2003
0000
0000
0000
0000
0000
0000
0000
3020
0000
0000
0000
0000
0000
0000
0030
,
M240
0000
0000
0000
0000
0000
0000
0000
0300
0000
0000
0000
0000
0030
0000
0000
;
