#TITLE:Lucky;
#SUBTITLE:;
#ARTIST:Lucky Twice;
#TITLETRANSLIT:;
#SUBTITLETRANSLIT:;
#ARTISTTRANSLIT:;
#CREDIT:;
#BANNER:;
#BACKGROUND:;
#LYRICSPATH:;
#CDTITLE:!yokoTitle;
#MUSIC:Lucky.ogg;
#OFFSET:0.292;
#SAMPLESTART:45.852;
#SAMPLELENGTH:12.000;
#SELECTABLE:YES;
#BPMS:0.000=130.020,23.000=260.040,25.000=130.020,55.000=260.040,57.000=130.020,103.000=260.040,105.000=130.020,121.000=65.010,137.000=130.020,199.000=260.040,201.000=130.020,217.000=65.010,232.000=260.040;
#STOPS:23.000=0.115
,23.500=0.115
,24.000=0.115
,24.500=0.115
,55.000=0.115
,55.500=0.115
,56.000=0.115
,56.500=0.115
,103.000=0.115
,103.500=0.115
,104.000=0.115
,104.500=0.115
,199.000=0.115
,199.500=0.115
,200.000=0.115
,200.500=0.115
,232.000=0.120
,232.500=0.120
,233.000=0.120
,233.500=0.120
;
#BGCHANGES:;
// cache tags:
#FIRSTBEAT:5.000;
#LASTBEAT:234.000;
#SONGFILENAME:Songs/lvsb tourney pack/Lucky/Lucky.sm;
#HASMUSIC:1;
#HASBANNER:0;
#MUSICLENGTH:105.000;
// end cache tags

//---------------dance-single - Blank----------------
#NOTES:
     dance-single:
     Blank:
     Challenge:
     9:
     0.668,0.836,0.248,0.733,0.171,375.000,26.000,77.000,10.000,16.000:

0000
0000
0000
0000
,
0000
0000
1000
0100
1000
0100
2001
000M
,
3000
0001
0100
1000
0100
0001
2100
0M00
,
3000
0010
0001
0100
0010
1000
0002
0000
,
0013
0100
1000
0100
0001
0100
1000
0010
,
0102
0M00
0000
0000
0000
0003
0100
0100
,
0100
0100
0001
0010
0100
1000
0010
0000
,
0100
0001
0100
0020
0000
1030
0000
0200
,
0000
0310
0001
0100
0020
2000
0000
3130
,
0000
0100
0010
1000
0020
0200
0000
1330
,
0000
1000
0100
0001
0100
1000
0010
0100
,
0010
0100
0001
0010
0100
0010
0001
0100
,
1000
0100
0001
1000
0020
0200
0000
0331
,
0000
0100
0001
1000
0002
0200
0010
0010
,
0010
0313
1000
0100
0001
0100
2000
0000
,
3001
0100
0001
0010
0100
2000
0000
3001
,
0100
0000
0100
1000
0100
0001
2000
0000
,
0000
3002
0023
0230
0300
1002
M000
1003
,
1000
1000
0010
0100
1000
0100
0002
0000
,
0013
0100
1000
0020
0030
2100
0M00
3001
,
0000
0100
0010
1000
0100
2000
3000
0202
,
0303
0010
0100
0001
0100
2000
3000
0220
,
0330
0001
1000
0100
0010
0100
2000
0000
,
3001
0100
0010
1000
0100
0002
0000
0103
,
0000
0010
0001
0100
0020
2000
0000
3031
,
0000
0100
0001
1000
0002
2000
0010
0010
,
0010
3013
1000
0010
0100
0010
2000
0000
,
3001
0100
0010
0200
0000
0301
0000
0201
,
0310
1000
0001
0010
0100
1000
0020
0000
,
0030
1000
0001
1000
0100
0210
00M0
0000
,
0310
0000
0000
0000
0002
0000
0003
0100
0040
0000
4030
0000
3100
0010
0001
0100
,
0040
0000
0430
0000
0301
1000
0010
0100
0004
0000
4003
0000
3010
0100
1000
0100
,
0040
0000
0430
0000
0301
1000
0010
0100
0002
0000
0003
0100
0010
0100
0001
0010
,
0200
0000
1300
0001
1000
0010
0100
0001
2000
0000
3100
0001
0100
1000
0010
0100
,
2000
3100
0001
0010
0100
1000
0004
0000
,
0403
0000
0310
1000
0100
1000
0040
0000
,
4030
0000
3001
0100
0010
0100
4000
0000
,
3400
0000
0301
0010
0100
0010
0004
0000
,
4003
0000
3010
0100
0010
0100
0002
0000
,
1003
0010
0001
0010
1000
0100
2000
0000
,
3000
0001
0100
0010
0100
0001
2000
0000
,
3010
0100
0010
1000
0001
0100
0020
0000
,
2030
0000
3001
0010
0100
1000
0020
0000
,
0130
1000
0100
0102
0M00
0103
0000
1020
,
M000
1030
0100
0001
0200
2000
0000
3301
,
0000
0010
0001
0100
0020
0200
0000
0331
,
0000
0001
1000
0010
1000
0100
0020
0000
,
0130
1000
0010
0200
0000
0320
0000
2030
,
0000
0000
3001
0000
0010
0000
1000
0000
0010
0000
0001
0000
0000
0000
2002
3003
,
0000
1000
0010
0001
0010
1000
0002
2000
,
0010
3013
0100
0001
0010
0001
0201
000M
,
0300
0001
1000
0100
0000
2200
3300
0000
,
0000
0010
0001
0100
1000
0100
0002
0000
,
0003
0100
0010
0100
0001
2000
0000
0000
,
3002
0000
0000
0000
0203
0000
0300
0010
4000
0000
3004
0000
0013
0100
1000
0010
,
0400
0000
0304
0000
1003
0100
0010
0100
4000
0000
3004
0000
0103
0010
1000
0010
,
0400
0000
4300
0000
3100
0001
0010
0100
2000
0000
3000
0010
0100
0010
0100
0001
,
2000
0000
3000
0010
0100
0001
1000
0100
2000
0000
3100
0001
0100
1000
0010
0100
,
4002
0000
0000
3000
M003
0000
0000
0000
;
