#TITLE:Naruto ondo;
#SUBTITLE:Naruto movie 2;
#ARTIST:?;
#TITLETRANSLIT:;
#SUBTITLETRANSLIT:;
#ARTISTTRANSLIT:;
#CREDIT:;
#BANNER:DoomLogo.png;
#BACKGROUND:naruto ondo b-g.png;
#LYRICSPATH:;
#CDTITLE:;
#MUSIC:Uzumaki Naruto - Naruto Ondo.mp3;
#OFFSET:0.000;
#SAMPLESTART:49.456;
#SAMPLELENGTH:12.000;
#SELECTABLE:YES;
#BPMS:0.000=121.000,596.000=242.000;
#STOPS:;
#BGCHANGES:;
// cache tags:
#FIRSTBEAT:1.333;
#LASTBEAT:525.833;
#SONGFILENAME:Songs/toune 1 (2010)/Naruto ondo/syntheticdemon.sm;
#HASMUSIC:1;
#HASBANNER:0;
#MUSICLENGTH:263.836;
// end cache tags

//---------------dance-single - ----------------
#NOTES:
     dance-single:
     :
     Medium:
     1:
     0.452,0.498,0.030,0.148,1.000,788.000,8.000,39.000,0.000,0.000:
0000
0000
0000
0000
0000
0000
0000
0000
0010
0000
0000
0000
0000
0010
0000
0000
0000
0000
0000
0010
0000
0000
0000
0000
,
1000
0000
0100
0000
0001
0000
0000
0010
0000
0100
0000
0000
1000
0000
0100
0000
0000
0100
0000
0000
0000
0000
0000
0010
,
0000
0000
0000
0000
1000
0000
0000
0100
0000
0000
0001
0000
0100
0000
1000
0000
0100
0000
0000
0000
0000
0000
0000
0000
,
0100
0000
1000
0000
0100
0000
0000
0010
0000
0100
0000
1000
0000
0001
0000
0100
0000
0000
0000
0010
0000
0000
0000
0000
,
1000
0000
0000
0000
0000
0100
0000
0000
0010
0000
0100
0000
0000
0000
1000
0000
0001
0000
0100
0000
0000
0000
0000
0000
,
0000
0100
0000
0000
1000
0000
0100
0000
0010
0000
0100
0000
0000
0000
0000
0000
0000
1000
0000
0000
0100
0000
0100
0000
,
0000
0000
0000
0000
0010
0000
0000
0001
0000
1000
0000
0000
0000
0000
0000
0000
0000
0000
0000
0000
0000
0100
0000
0000
,
0000
1000
0000
0100
0000
0010
0000
0000
0001
0000
0000
0000
0000
1000
0000
0000
0001
0000
0100
0000
0000
0000
0000
0010
,
0000
0000
0000
0000
1000
0000
0000
0001
0000
0100
0000
0010
0000
0000
0000
0000
0010
0000
0000
0000
0000
1000
0000
0100
,
0000
0000
0010
0000
1000
0000
0000
0000
0001
0000
0000
0100
0000
0000
0010
0000
1000
0000
0000
0200
0000
0000
0000
0000
,
0300
0000
0000
0000
1000
0000
0001
0000
0000
0010
0000
0000
0000
0000
0100
0000
0000
0000
0000
1000
0000
0000
0000
0000
,
0100
0000
0010
0000
0001
0000
0000
1000
0000
0000
0000
0100
0000
0000
0010
0000
0000
0000
0000
1000
0000
0000
0000
0000
,
0100
0000
0001
0000
0000
1000
0000
0010
0000
0000
0100
0000
0000
0100
0000
0000
0000
1000
0000
0000
0001
0000
0010
0000
,
1000
0000
0001
0000
0000
0001
1000
0000
0000
0000
0010
0000
0000
0100
0000
1000
0000
0100
0000
0010
0000
0100
0000
0000
,
1000
0000
0000
0001
0000
0000
0000
0001
0000
0000
1000
0000
0000
0000
0000
0000
0100
0100
0000
0010
0000
0000
0000
0000
,
0000
0000
0000
0000
0000
0000
0000
0100
0010
0000
1000
0000
0000
0000
0000
0001
0000
0000
0000
0000
0001
0000
0000
0000
,
2000
0000
0000
0000
0000
3000
0000
0000
0000
0000
0100
0000
0010
0000
0000
0100
0000
0001
0000
0000
1000
0000
0000
0000
,
0000
0000
0000
0000
0000
1000
0000
0000
0010
0000
0000
0001
0000
0000
0000
0000
0100
0000
0000
0000
0010
0000
0100
0000
,
0000
0000
0000
0000
0000
0000
1000
0000
0000
0100
0000
0010
0000
0000
0001
0000
1000
0000
0000
0010
0000
0100
0000
0000
,
1000
0000
0100
0000
0000
0100
0000
0000
0100
0000
0000
0020
0000
0000
0000
0000
0000
0030
0000
0000
0000
1000
0000
0001
,
0000
0000
0000
0000
1000
0000
0000
0000
0000
0001
0000
0000
0000
0000
1000
0000
0000
0000
0000
0001
0000
0000
0000
0000
,
1000
0000
0000
0000
0001
0000
0000
0000
0000
0000
0000
0000
0010
0000
0100
0000
0000
1000
0000
0100
0000
0000
0010
0000
,
0100
0000
0000
0000
0000
0001
0000
0001
0000
0000
1000
0000
0000
0000
0000
0100
0000
0000
0000
0000
0000
0000
0000
0000
,
0000
0000
0001
0000
0000
1000
0000
0100
0000
0000
0010
0000
0100
0000
0000
1000
0000
0100
0000
0010
0000
0000
0100
0000
,
1000
0000
0100
0000
0000
0010
0000
0000
0001
0000
0000
0001
0000
0000
0000
0000
0000
1000
0000
0001
0000
0000
0100
0000
,
0000
0010
0000
0100
0000
1000
0000
0100
0000
0002
0000
0000
0000
0000
0000
0000
0000
0000
0003
2000
0000
0000
0000
0000
,
0000
0000
0000
0000
0000
3000
0000
0000
0100
0000
0000
0000
0010
0000
0000
0100
0000
0000
1000
0000
0000
0000
1000
0000
,
0100
0000
0010
0000
0000
0000
0000
0100
0000
0000
0010
0000
0000
0000
0000
1000
0000
0000
0000
0000
0001
0000
1000
0000
,
0000
0100
0000
0000
0010
0000
0100
0000
1000
0000
0100
0000
0000
0010
0000
0200
0000
0000
0000
0000
0000
0000
0000
0000
,
0000
0000
0000
0000
0000
0000
0000
0000
0000
0000
0300
0000
0000
0000
0000
0010
0000
0000
0000
0000
1000
0000
0000
0000
,
0100
0000
0000
0000
0000
0001
0000
0000
0000
0000
0000
1000
0000
0010
0000
0100
0000
0000
0000
0000
1000
0000
0000
0000
,
0000
0001
0000
0000
0000
0000
0010
0000
0000
0000
0100
0000
0000
0000
0000
0000
1000
0000
0100
0000
0000
0010
0000
0100
,
0000
1000
0000
0000
0001
0000
0000
0000
0000
1000
0000
0000
0000
0000
0100
0000
0200
0000
0000
0000
0000
0000
0000
0000
,
0000
0000
0000
0000
0000
0000
0000
0000
0300
0000
0000
0000
0000
0000
1000
0000
0001
0000
0000
0010
0000
0000
0100
0000
,
0000
0010
0000
0000
0000
1000
0000
0020
0000
0000
0000
0000
0000
0000
0000
0000
0000
0000
0000
0000
0000
0000
0000
0000
,
0000
0030
0000
0000
1000
0000
0000
0001
0000
0100
0000
0000
0010
0000
0000
1000
0000
0100
0000
0000
0010
0000
0020
0000
,
0000
0000
0000
0000
0000
0000
0000
0000
0000
0000
0000
0000
0000
0000
0000
0000
0000
0000
0030
0000
0000
0001
1000
0000
,
0000
0000
0000
0100
0000
0000
0000
0000
0010
0000
0000
0000
1000
0000
0000
0000
0000
0100
0000
0000
0000
0001
0000
0000
,
0000
0000
0100
0000
0000
0000
0000
1000
0000
0000
0000
0000
0010
0000
0000
0000
0000
0001
0000
0100
0000
0000
1000
0000
,
0100
0000
0000
0010
0000
0100
0000
0000
0000
0000
1000
0000
0000
0000
0000
1000
0000
0000
0000
1000
0000
0000
0002
0000
,
0000
0000
0000
0000
0000
0000
0000
0000
0000
0000
0003
0000
0100
0000
0000
0010
0000
2000
0000
0000
0000
0000
0000
0000
,
0000
0000
0000
0000
0000
0000
3000
0000
0100
0000
0000
0010
0000
0001
0000
0000
0200
0000
0000
0000
0000
0000
0000
0000
,
0000
0300
0000
0000
0000
0000
0000
0000
1000
0000
0001
0000
0000
0000
0000
0000
0100
0000
0010
0000
0000
0000
0000
1000
,
0000
0002
0000
0000
0000
0000
0000
0000
0000
0000
0000
0000
0000
0000
0003
0000
0000
0000
0100
0000
0000
0000
1000
0000
,
0000
0000
0000
0000
0100
0000
0000
0000
0000
0010
0000
0000
0000
0000
0100
0000
0100
0000
0000
0010
0000
2000
0000
0000
,
0000
0000
0000
0000
0000
0000
0000
0000
0000
3000
0000
0000
0000
0000
0000
0000
0000
0000
0100
0000
0000
0000
0000
0010
,
0000
0000
0000
0000
1000
0000
0000
0000
0000
0001
0000
0000
0000
0000
0100
0000
0000
0000
0000
0010
0000
2000
0000
0000
,
0000
0000
0000
0000
0000
0000
0000
3000
0000
0000
0100
0000
0010
0000
0001
0000
0000
0000
0000
1000
0000
0000
0000
0100
,
0000
0000
0010
0000
0000
0000
0000
0020
0000
0000
0000
0000
0000
0000
0000
0000
0000
0000
0000
0000
0000
0000
0000
0000
,
0000
0000
0000
0030
0000
0000
0000
1001
0000
0010
0000
0000
0000
0000
0000
0000
0000
0100
0000
0000
1000
0000
0100
0000
,
0010
0000
0001
0000
0000
1000
0000
0100
0000
0000
0010
0000
0100
0000
0000
1000
0000
0100
0000
0000
0100
0000
0010
0000
,
0010
0000
0000
0000
0000
0000
0000
0000
1000
0000
0000
0000
0000
0001
0000
0100
0000
0000
0010
0000
1000
0000
0000
0000
,
0000
0100
0000
0000
0000
0000
0010
0000
1000
0000
0000
0001
0000
0000
0000
0000
1001
0000
0000
0000
0010
0000
0000
0000
,
0000
0100
0000
1000
0000
0000
0100
0000
0010
0000
0000
1000
0000
0000
0000
0000
1001
0000
0000
0000
0000
0010
0000
0000
,
0000
0000
0100
1000
0000
0000
0100
0000
0000
0000
0000
0000
0000
0100
0000
0000
0001
0000
0100
0000
0100
0100
0000
0000
,
0010
0000
0010
0000
0000
0000
0000
1000
0000
0000
0000
0100
0000
0000
0010
0000
0100
0000
0000
0000
0000
1000
0000
0000
,
0000
0000
0001
0000
0000
0000
0000
1000
0000
0000
0001
0000
1000
0000
0000
0000
0000
0000
0000
0000
0100
0000
0100
0000
,
0000
0100
0000
0100
0000
0000
0010
0000
0010
0000
0000
0010
0000
0000
0010
0000
0010
0000
0000
1000
0000
0000
0000
0001
,
0000
0000
0010
0000
0000
0100
0000
0000
0000
1000
0000
0000
2002
0000
0000
0000
0000
0000
0000
0000
0000
0000
0000
0000
,
0000
0000
0000
3003
0000
0000
0000
0000
0010
0000
0000
1000
0000
0000
0001
0000
0100
0000
0000
0010
0000
0100
0000
0000
,
1000
0000
0000
0200
0000
0000
0000
0000
0000
0000
0000
0000
0000
0000
0000
0000
0000
0000
0000
0000
0300
0000
0000
0000
,
0000
0000
0001
0000
0000
0000
1000
0000
0000
0000
0000
0010
0000
0000
0000
0000
0001
0000
0000
0000
0000
0100
0000
0000
,
0000
0000
1000
0000
0000
0000
0000
0010
0000
0000
0000
0000
0010
0000
0100
0000
0000
0000
0000
1000
0000
0000
0001
0000
,
0000
0000
0100
0000
0000
0000
1000
0000
0100
0000
0000
0010
0000
0100
0000
0000
0000
0000
0001
0000
1000
0000
0000
0000
,
0100
0000
0000
0010
0000
0000
0000
0000
0000
0100
0000
1000
0000
0000
0000
0000
0000
0100
0000
0000
0100
0000
0000
0000
,
0000
1000
0000
0000
0100
0000
0010
0000
0001
0000
1000
0000
0000
0000
0000
0010
0000
0200
0000
0000
0000
0000
0000
0000
,
0000
0000
0000
0000
0000
0000
0000
0000
0000
0000
0300
0000
0000
0000
1000
0000
0000
0100
0000
0001
0000
0000
0010
0000
,
0000
1000
0000
0000
0100
0000
0001
0000
0000
0020
0000
0000
0000
0000
0000
0000
0000
0000
0000
0000
0000
0000
0000
0000
,
0000
0000
0000
0030
0000
0000
0000
0000
1000
0000
0000
0000
0000
0100
0000
0000
0000
0000
0001
0000
0000
0000
0000
1000
,
0000
0000
0000
0000
0100
0000
0000
0000
0000
0010
0000
0000
0000
0100
0000
0000
0000
0000
0001
0000
0001
0000
0000
0000
,
0000
0000
1000
0000
0000
0100
0000
0010
0000
0100
0000
1000
0000
0000
0001
0000
0010
0000
0000
0000
0000
1000
0000
0000
,
0000
0000
0100
0000
0000
0000
0001
0000
0000
1000
0000
0000
0000
0000
1000
0000
0000
0000
0000
1000
0000
0000
0000
0000
,
0100
0000
0010
0000
0002
0000
0000
0000
0000
0000
0000
0000
0000
0000
0000
0000
0003
0000
0000
0020
0000
0000
0000
0030
,
1000
0000
0000
0200
0000
0000
0000
0000
0000
0000
0000
0000
0000
0000
0000
0300
0000
0000
0000
0001
0000
0000
1000
0000
,
0000
0000
0000
0100
0000
0010
0000
0000
0000
0001
0000
0000
0020
0000
0000
0000
0000
0000
0000
0000
0000
0000
0000
0000
,
0000
0000
0030
0000
0000
1000
0000
0000
0000
0000
0001
0000
0200
0000
0000
0000
0000
0000
0000
0000
0000
0300
0000
0000
,
0000
1000
0000
0000
0000
0000
0001
0000
2000
0000
0000
0000
0000
0000
0000
0000
0000
0000
0000
0000
0000
0000
0000
0000
,
0000
3000
0000
0000
0000
0001
0000
0000
0000
0000
0010
0000
0000
0000
0000
1000
0000
0000
0000
0000
0100
0000
0000
0000
,
0001
0000
0000
1000
0000
0010
0000
0000
0002
0000
0000
0000
0000
0000
0000
0000
0000
0000
0003
0000
1000
0000
0000
0010
,
0000
0100
0000
0000
0000
0000
1000
0000
0000
0000
0000
0001
0000
0000
0010
0000
0000
0000
2000
0000
0000
0000
0000
0000
,
0000
0000
0000
0000
0000
0000
0000
0000
0000
0000
0000
3000
0000
0000
0100
0000
0010
0000
0001
0000
0000
0000
0000
0000
,
0000
0000
0000
0000
1000
0000
0000
0001
0000
0010
0000
0000
0100
0000
1000
0000
0000
0001
0000
0000
0000
0010
0000
0000
,
1000
0000
0000
0001
0000
0000
0100
0000
0000
0010
0000
2000
0000
0000
0000
0000
0000
3000
0001
0000
0000
0000
0000
0000
,
0010
0000
0100
0000
1000
0000
0000
0010
0000
0100
0000
0000
1000
0000
0010
0000
0000
0000
0001
0000
0000
0000
0000
0010
,
0000
0000
0000
1000
0000
0000
0000
1000
0000
0000
0000
0000
0010
0000
0100
0000
0000
0001
0000
1000
0000
0000
0010
0000
,
0100
0000
2000
0000
0000
0000
0000
0000
0000
3000
0000
0000
0000
0000
0000
0000
0001
0000
1000
0000
0000
0000
0000
0000
,
0000
0010
0000
1000
0000
0001
0000
0000
0100
0000
0000
0000
0000
0010
0000
1000
0000
1000
0000
0000
0000
0000
0001
0000
,
0000
0000
0000
0010
0000
0000
0000
0000
1000
0000
0000
0000
0000
0001
0000
0000
0000
0000
1000
0000
0001
0000
1000
0000
,
0000
0000
0000
0000
0000
0000
0000
0100
0000
0000
0000
0000
0010
0000
0000
0000
1000
0000
0100
0000
0000
0000
0000
0001
,
0000
0000
0000
0010
0010
0000
0000
0000
0100
0000
0000
1000
0000
0001
1000
0000
0000
0000
0000
0000
0000
0000
0000
1000
,
0000
0000
0000
0100
0000
0000
0010
0000
0001
0000
1000
0000
0000
0000
0000
0000
0100
0000
0010
0000
1000
0000
0000
0000
,
0000
0001
0000
0000
0000
0000
0010
0000
0000
0100
0000
1000
0000
0001
0000
0000
0000
0000
0010
0000
0000
0000
0000
1000
,
0000
0100
0000
0010
0000
0000
0001
0000
0000
1000
0000
0010
0000
0000
0100
0000
0100
0000
0100
0000
0000
1000
0000
0000
,
0000
0000
0000
0000
0000
0000
0100
0000
0000
0001
0000
1000
0000
0000
0000
0000
0010
0000
0000
0000
0000
0001
0000
0000
,
0000
0000
0100
0000
0010
0000
0000
1000
0000
0000
0000
0000
0100
0000
0010
0000
0000
0000
0000
0000
0000
1000
0000
0000
,
0000
0000
0001
0000
0100
0000
0000
0010
0000
1000
0000
0000
0000
0000
0001
0000
0000
0000
0000
0001
0000
1000
0000
0000
,
0010
0000
0100
0000
1000
0000
0000
1000
0000
0000
0000
0000
0100
0000
0000
0010
0000
0100
0000
0001
0000
0000
1000
0000
,
0010
0000
0000
0100
0000
1000
0000
0000
0000
0000
1000
0000
0100
0000
0010
0000
0000
0001
0000
1000
0000
0000
0010
0000
,
0000
0000
0000
0100
0000
0010
0000
0000
0100
0000
1000
0000
0001
0000
0000
0000
0000
0000
0011
0000
0000
0000
0000
0010
,
0000
0000
0000
0000
0010
0000
0000
0000
0000
0000
0000
0000
1000
0000
0000
0100
0000
0010
0000
0001
0000
0000
2000
0000
,
0000
0000
3000
0000
0000
0000
0000
0100
0000
0000
0010
0000
0001
0000
0000
0000
0000
0000
1000
0000
0010
0000
0100
0000
,
0000
0000
0000
0000
0000
0000
0000
0000
1000
0000
0001
0000
0000
0010
0000
0000
0100
1000
0000
0000
0001
0000
0000
0010
,
0000
0000
0000
0010
0000
0000
0000
0010
0000
0000
1000
0000
0200
0000
0000
0000
0000
0000
0300
0000
0000
0000
1000
0000
,
0000
0001
0000
0000
0010
0000
0100
0000
0000
1000
0000
1000
0000
0100
0000
0000
0000
0000
0010
0000
0100
0000
0000
1000
,
0000
0001
0000
0000
0010
0000
0200
0000
0000
0000
0000
0300
0000
0000
1000
0000
0100
0000
0000
0010
0000
0001
0000
0000
,
1000
0000
0010
0000
0100
0000
0000
1000
0000
0000
0100
0000
0100
0000
0000
0010
0001
0000
0000
0000
0000
0000
0000
0000
,
0000
0000
0000
0000
1000
0000
0000
0100
0000
0010
0000
0001
0000
0000
0000
0000
1000
0000
0000
0100
0000
0010
0000
0000
,
0000
0000
0001
0000
0000
1000
0000
0010
0000
0100
0000
0000
1000
0000
0000
0000
0000
0000
0000
1000
0000
0100
0000
0000
,
0010
0000
0001
0000
0000
1000
0000
0100
0000
0000
0100
0000
0010
0000
0100
0000
0100
1000
0000
0100
0000
0000
0010
0000
,
0000
0000
0000
0000
0000
0000
0000
0000
0000
1000
0000
0000
0100
0000
0001
0000
0000
0100
0000
1000
0000
0000
0010
0000
,
0000
0000
0000
0001
0000
0001
0000
0000
0001
0000
1000
0000
0000
0100
0000
0010
0000
0100
0000
0000
0000
0000
0000
0000
,
1000
0000
0000
0100
0000
0000
0000
0000
0010
0000
0000
0000
0001
0000
0000
0000
0000
1000
0000
0000
0000
0000
0000
0000
,
0100
0000
0020
0000
0000
0000
0000
0000
0000
0000
0000
0030
0000
0000
0000
1000
0000
0000
0001
0000
0000
0000
0000
0010
,
0000
0000
0000
0100
0000
0000
0000
0000
1000
0000
0000
0000
0000
1000
0000
0000
0000
0001
0000
0000
0100
0000
0020
0000
,
0000
0000
0000
0000
0030
0000
1000
0000
0000
0100
0000
0010
0000
0001
0000
0000
1000
0000
0100
0000
0010
0000
0100
0000
,
0000
0000
0000
1000
0000
0000
0001
0000
0100
0000
0000
0000
0000
0010
0000
0000
0000
0000
1000
0000
0000
0001
0000
0100
,
0000
0000
0010
0000
1000
0000
0001
0000
0000
0100
0000
0000
0000
0000
0010
0000
0000
0000
0000
0010
0000
1000
0000
0001
,
0000
0000
0000
0000
0010
0000
0000
0000
0000
0000
0000
0000
1100
0000
0100
0000
0000
0010
0000
0100
0100
0000
0000
0000
,
0000
0000
0000
1000
0000
0100
0000
0000
0000
0000
0001
0000
0010
0000
0100
0000
0000
0000
0000
1000
0000
0000
0000
1000
,
0000
0000
0100
0000
0010
0000
0000
0001
0000
1000
0000
0000
0100
0000
0010
0000
0001
0000
0000
1000
0000
0000
0010
0000
,
0100
0000
1000
0000
0000
0001
0000
0100
0000
0000
0010
0000
0000
0000
0000
0000
0000
1000
0000
0100
0000
0000
0010
0000
,
0001
0000
1000
0000
0000
0100
0000
0010
0000
1000
0000
0000
0000
0000
0001
0000
0000
0000
0000
0010
0000
0000
0000
0000
,
1000
0000
0000
0000
0000
0100
0000
0000
0000
0000
0010
0000
1000
0100
0000
0001
0000
0000
0000
0000
1000
0000
0000
0010
,
0000
0100
0000
0000
0000
0000
0000
0000
0000
0000
0001
1000
0000
0000
0000
0000
0000
0000
0000
0001
1000
0000
0000
0000
,
0000
0000
0000
1001
0000
0000
0000
0000
1001
0000
0000
0010
0000
0000
0000
0100
0000
1000
0000
0000
1000
0000
0000
0000
,
0000
0000
0000
0100
0000
0001
0000
0000
0000
0010
0000
0000
0000
0000
0000
0000
0000
1000
0000
0000
0100
0000
0000
0000
,
0001
0000
0001
0000
0000
0000
0010
0000
0010
0000
0000
0000
0000
0100
0000
1000
0000
0000
0000
0100
0000
0000
0000
0000
,
0000
0010
0000
0000
0001
0000
0000
1000
0000
0000
0000
0000
0000
0000
0100
0000
0000
0000
0000
0000
0010
0000
0000
0000
,
0000
0000
0001
0000
0000
0000
0000
0000
0000
0000
1000
0000
0000
0001
0000
0000
0000
0000
0010
0000
0000
0200
0000
0000
,
0000
0300
2000
0000
0000
0000
0000
0000
0000
0000
0000
0000
0000
0000
0000
0002
0000
0000
0000
0000
0000
0000
0000
0000
,
0000
0000
0000
0000
,
0000
0000
0000
0000
0000
0000
0000
0000
0000
0000
0000
3003
0000
0000
0000
0000
0000
0000
0000
0000
0000
0000
0000
0000
;
