#TITLE:The Travel To ORiON!;
#SUBTITLE:;
#ARTIST:DualTrax;
#TITLETRANSLIT:;
#SUBTITLETRANSLIT:;
#ARTISTTRANSLIT:;
#CREDIT:Owem;
#BANNER:../banner.png;
#BACKGROUND:../bg.png;
#LYRICSPATH:;
#CDTITLE:../cdtitleowem.png;
#MUSIC:DualTrax - The Travel To ORiON!.ogg;
#OFFSET:-0.052;
#SAMPLESTART:21.985;
#SAMPLELENGTH:29.999;
#SELECTABLE:YES;
#BPMS:0.000=186.024;
#STOPS:;
#BGCHANGES:;
// cache tags:
#FIRSTBEAT:4.000;
#LASTBEAT:322.208;
#SONGFILENAME:Songs/Owem's Simfiles 08 - 1.2/The Travel To ORiON! - [Owem] v1.0.0/The Travel To ORiON!.sm;
#HASMUSIC:1;
#HASBANNER:1;
#MUSICLENGTH:103.993;
// end cache tags

//---------------dance-single - 14- (Owem)----------------
#NOTES:
     dance-single:
     14- (Owem):
     Challenge:
     14:
     1.000,1.000,0.125,0.433,1.000,995.000,13.000,45.000,0.000,0.000:
0000
0000
0000
0000
,
1000
0100
1000
0001
0100
0010
1000
0001
,
0100
0001
1000
0100
0010
0001
1000
0100
,
1000
0001
0010
0001
0100
0010
1000
0001
,
0100
0001
1000
0010
0100
0001
0100
0010
,
1000
0001
0010
0001
1000
0100
0010
0001
,
1000
0100
1000
0001
0010
0001
0100
0010
,
1000
0001
0100
0001
1000
0100
0010
0001
,
1000
0000
0010
0000
0100
0000
0001
0000
2000
0000
3100
0000
2000
3001
1000
0001
,
0100
0010
1000
0001
0100
0001
1000
0100
0010
0001
1000
0100
1000
0001
0010
0001
,
0100
0010
1000
0001
0100
0001
1000
0100
0010
0001
1000
0010
1000
0001
0100
0001
,
1000
0010
0100
0001
1000
0100
1000
0001
0010
0001
0100
0010
1000
0001
0010
0001
,
0100
0010
1000
0001
0100
0001
1000
0010
0100
0001
1000
0100
1000
0001
0010
0001
,
1000
0100
1000
0001
1000
0010
0100
0001
1000
0010
1000
0001
0100
0001
0010
0100
,
1000
0001
0010
0001
0100
0010
1000
0001
0100
0010
0100
0001
1000
0100
1000
0010
,
1000
0001
0100
0001
1000
0100
0010
0001
1000
0001
0100
0010
1000
0001
0100
0001
,
1000
0000
0100
0000
0010
0000
0011
0000
0001
0000
1000
0000
0010
1000
0010
1000
,
0001
0100
0010
1000
0001
0100
0001
0010
0100
1000
0001
0010
0001
1000
0100
1000
,
0001
0100
0010
1000
0001
0100
0001
1000
0100
0010
0001
1000
0100
1000
0001
0010
,
0001
0100
0010
1000
0001
0100
0010
1000
0001
0100
0001
1000
0001
0100
0010
0100
,
0001
0100
0010
1000
0100
1000
0001
1000
0100
0010
0100
1000
0001
0100
0001
0010
,
0100
1000
0001
1000
0010
0100
0001
1000
0001
0100
0010
0100
0001
1000
0010
1000
,
0001
0100
0001
0010
0100
1000
0001
0010
0001
1000
0100
1000
0001
0100
0010
0100
,
0001
1000
0100
0010
0100
1000
0001
0010
0001
1000
0001
0100
0010
1000
0001
0100
,
0001
0000
0010
0000
0100
0000
1100
0000
1000
0000
0010
0000
0100
0001
0100
0001
,
1000
0100
0010
0001
1000
0001
0100
0010
1000
0001
0100
0001
0010
0100
1000
0001
,
0010
0001
1000
0100
1000
0001
0010
0001
0100
0010
1000
0001
0100
0010
0100
0001
,
1000
0010
1000
0100
0010
0001
1000
0100
1000
0001
0010
0001
0100
0010
1000
0001
,
0100
0001
1000
0100
0010
0001
1000
0001
0100
0010
1000
0001
0010
0001
0100
0010
,
1000
0001
0100
0010
0100
0001
1000
0100
0010
0001
1000
0100
1000
0001
0010
0001
,
0100
0010
1000
0001
0100
0001
1000
0100
0010
0001
1000
0010
1000
0001
0100
0001
,
1000
0100
1000
0001
0010
0100
0010
0001
1000
0100
1000
0001
0100
0010
1000
0001
,
1000
0000
0010
0000
1000
0000
1001
0000
0001
0000
0010
0000
0100
1000
0100
1000
,
0010
0000
0100
0010
0000
0100
0010
0100
,
0101
0000
0001
0100
0000
0001
0100
0001
,
1001
0000
1000
0001
0000
1000
0001
1000
,
1010
0000
1000
0010
1000
0001
1000
0001
,
0101
0000
0100
0001
0000
0100
0001
0100
,
0101
0000
0001
0010
0000
0001
0010
0001
,
1001
0000
1000
1001
0000
0001
1000
0001
,
1000
0000
0000
0000
0000
0000
0000
0000
0000
0000
0100
0000
0000
0000
0000
0000
0000
0000
0000
0010
0000
0000
0000
0000
0000
0000
0000
0000
0000
0001
0000
0000
0000
0000
0000
0000
0000
0000
1000
0000
0000
0000
0000
0000
0000
0000
0000
0000
0001
0000
0000
0000
0000
0000
0000
0000
0000
0000
0100
0000
0000
0000
0000
0000
0000
0000
0000
0010
0000
0000
0000
0000
0000
0000
0000
0000
0000
1000
0000
0000
0000
0000
0000
0000
0000
0000
0001
0000
0000
0000
0000
0000
0000
0000
0000
0000
0100
0000
0000
0000
0000
0000
0000
0000
0000
0000
0001
0000
0000
0000
0000
0000
0000
0000
0000
1000
0000
0000
0000
0000
0000
0000
0000
0000
0000
0100
0000
0000
0000
0000
0000
0000
0000
0000
0010
0000
0000
0000
0000
0000
0000
0000
0000
0000
0001
0000
0000
0000
0000
0000
0000
0000
0000
0000
1000
0000
0000
0000
0000
0000
0000
0000
0000
0010
0000
0000
0000
0000
0000
0000
0000
0000
0000
0100
0000
0000
0000
0000
0000
0000
0000
0000
0001
0000
0000
0000
0000
0000
0000
0000
0000
0000
,
1000
0010
1000
0001
0100
0010
1000
0001
,
0100
0001
1000
0100
0010
0001
1000
0100
,
1000
0001
0010
0001
0100
0010
1000
0001
,
0100
0001
1000
0010
0100
0001
0100
0010
,
1000
0001
0010
0001
1000
0100
0010
0001
,
1000
0100
1000
0001
0010
0001
0100
0010
,
1000
0001
0100
0001
1000
0100
0010
0001
,
1000
0000
0010
0000
0100
0000
0001
0000
1000
0000
0100
0000
1000
0001
1000
0001
,
0100
0010
1000
0001
0100
0001
1000
0100
0010
0001
1000
0100
1000
0001
0010
0001
,
0100
0010
1000
0001
0100
0001
1000
0100
0010
0001
1000
0010
1000
0001
0100
0001
,
1000
0010
0100
0001
1000
0100
1000
0001
0010
0001
0100
0010
1000
0001
0010
0001
,
0100
0010
1000
0001
0100
0001
1000
0010
0100
0001
1000
0100
1000
0001
0010
0001
,
1000
0100
1000
0001
1000
0010
0100
0001
1000
0010
1000
0001
0100
0001
0010
0100
,
1000
0001
0010
0001
0100
0010
1000
0001
0100
0010
0100
0001
1000
0100
1000
0010
,
1000
0001
0100
0001
1000
0100
0010
0001
1000
0001
0100
0010
1000
0001
0100
0001
,
1000
0000
0100
0000
0010
0000
0011
0000
0001
0000
1000
0000
0010
1000
0010
1000
,
0001
0100
0010
1000
0001
0100
0001
0010
0100
1000
0001
0010
0001
1000
0100
1000
,
0001
0100
0010
1000
0001
0100
0001
1000
0100
0010
0001
1000
0100
1000
0001
0010
,
0001
0100
0010
1000
0001
0100
0010
1000
0001
0100
0001
1000
0001
0100
0010
0100
,
0001
0100
0010
1000
0100
1000
0001
1000
0100
0010
0100
1000
0001
0100
0001
0010
,
0100
1000
0001
1000
0010
0100
0001
1000
0001
0100
0010
0100
0001
1000
0010
1000
,
0001
0100
0001
0010
0100
1000
0001
0010
0001
1000
0100
1000
0001
0100
0010
0100
,
0001
1000
0100
0010
0100
1000
0001
0010
0001
1000
0001
0100
0010
1000
0001
0100
,
0001
0000
0010
0000
0100
0000
1100
0000
1000
0000
0010
0000
0100
0001
0100
0001
,
1000
0100
0010
0001
1000
0001
0100
0010
1000
0001
0100
0001
0010
0100
1000
0001
,
0010
0001
1000
0100
1000
0001
0010
0001
0100
0010
1000
0001
0100
0010
0100
0001
,
1000
0010
1000
0100
0010
0001
1000
0100
1000
0001
0010
0001
0100
0010
1000
0001
,
0100
0001
1000
0100
0010
0001
1000
0001
0100
0010
1000
0001
0010
0001
0100
0010
,
1000
0001
0100
0010
0100
0001
1000
0100
0010
0001
1000
0100
1000
0001
0010
0001
,
0100
0010
1000
0001
0100
0001
1000
0100
0010
0001
1000
0010
1000
0001
0100
0001
,
1000
0100
1000
0001
0010
0100
0010
0001
1000
0100
1000
0001
0100
0010
1000
0001
,
1000
0000
0010
0000
1000
0000
1001
0000
0001
0000
0010
0000
0100
1000
0001
1000
,
0020
0030
0000
0000
0100
0000
0000
0000
0002
0003
0000
0000
2000
3000
0000
0000
0010
0000
0000
0000
2000
3000
0000
0000
0002
0003
0000
0000
0200
0300
0000
0000
,
0020
0030
1000
0000
0002
0003
0020
0030
0001
0000
2000
3000
0200
0300
0020
0030
,
0002
0000
0003
1000
0000
0000
0002
0000
0003
0200
0000
0300
0010
0000
0000
2000
0000
3000
0002
0000
0003
0020
0000
0030
,
0200
0000
0000
0000
0300
0000
1000
0000
0000
0000
0000
0000
0002
0000
0000
0000
0000
0000
0023
0000
0000
0000
0000
0000
0032
0000
0000
0000
0000
0000
2003
0000
0000
3000
0000
0000
0020
0000
0000
0030
0000
0000
0200
0000
0000
0300
0000
0000
,
0002
0003
1000
0000
0200
0300
2000
3000
0001
0000
0200
0300
0020
0030
0200
0300
,
0002
0003
0000
0000
1000
0000
0000
0000
0200
0300
0000
0000
0020
0030
0000
0000
0100
0000
0000
0000
2000
3000
0000
0000
0002
0003
0000
0000
2000
3000
0000
0000
,
0020
0030
0000
0100
0000
0000
0002
0003
0000
2000
3000
0000
0010
0000
0000
2000
3000
0000
0002
0003
0000
0200
0300
0000
,
0001
0000
0000
0000
0000
0000
0000
0000
0000
0000
0100
0000
0000
0000
0000
0000
0000
0000
0000
0010
0000
0000
0000
0000
0000
0000
0000
0000
0000
1000
0000
0000
0000
0000
0000
0000
0000
0000
0001
0000
0000
0000
0000
0000
0000
0000
0000
0000
1000
0000
0000
0000
0000
0000
0000
0000
0000
0000
0100
0000
0000
0000
0000
0000
0000
0000
0000
0010
0000
0000
0000
0000
0000
0000
0000
0000
0000
0001
0000
0000
0000
0000
0000
0000
0000
0000
1000
0000
0000
0000
0000
0000
0000
0000
0000
0000
0001
0000
0000
0000
0000
0000
0000
0000
0000
0000
0100
0000
0000
0000
0000
0000
0000
0000
0000
0000
0000
0000
0000
0000
0000
0000
0000
0000
0000
0000
0000
0000
0000
0000
0000
0000
0000
0000
0000
0000
0000
0000
0000
0000
0000
0000
0000
0000
0000
0000
0000
0000
0000
0000
0000
0000
0000
0000
0000
0000
0000
0000
0000
0000
0000
0000
0000
0000
0000
0000
0000
0000
0000
0000
0000
0000
0000
0000
0000
0000
0000
0000
0000
0000
0000
0000
0000
0000
0000
0000
0000
0000
0000
0000
0000
0000
;
