#TITLE:To Make the End of Battle;
#SUBTITLE:Ys II (1988);
#ARTIST:Shirogane;
#TITLETRANSLIT:;
#SUBTITLETRANSLIT:;
#ARTISTTRANSLIT:;
#CREDIT:;
#BANNER:To Make the End of Battle.png;
#BACKGROUND:To Make the End of Battle-bg.png;
#LYRICSPATH:;
#CDTITLE:Almsty.png;
#MUSIC:To Make the End of Battle.mp3;
#OFFSET:-1.400;
#SAMPLESTART:13.910;
#SAMPLELENGTH:8.500;
#SELECTABLE:YES;
#BPMS:0.000=117.590,144.500=58.790,151.500=117.590;
#STOPS:;
#BGCHANGES:;
// cache tags:
#FIRSTBEAT:0.000;
#LASTBEAT:203.500;
#SONGFILENAME:Songs/VGMP 3/To Make the End of Battle (Almsty)/To Make the End of Battle.sm;
#HASMUSIC:1;
#HASBANNER:1;
#MUSICLENGTH:112.410;
// end cache tags

//---------------dance-single - ----------------
#NOTES:
     dance-single:
     :
     Hard:
     10:
     1.000,1.000,0.703,0.658,1.000,662.000,79.000,74.000,0.000,7.000:

1001
0000
0100
0001
1000
0020
0000
2030
0000
0000
3100
0000
0001
0000
0100
0000
,
1000
0000
0000
0000
0001
1000
0001
1000
0001
1000
0001
1000
0010
0100
0010
0100
0010
0100
0010
0100
1001
0000
0100
0000
0010
0000
1000
0000
0100
0000
0001
0000
,
1000
0010
0101
0010
0100
0001
0100
0010
0001
0100
1000
0010
1000
0100
1000
0001
,
1000
0010
0001
0100
0001
0010
0100
1000
0001
0100
1000
0100
0001
1000
0010
0001
,
1000
0000
0010
0100
1002
0000
0000
0000
0000
0000
1000
0000
0000
0000
0000
0000
1003
0000
0100
0000
0020
0000
0000
0000
0000
0000
0000
0000
0000
0000
0000
0000
,
1030
0100
1000
0001
0100
0001
0010
0100
1000
0100
0012
0000
0000
0000
0203
0000
,
0320
0000
1031
0100
0010
0100
0000
0010
0000
0100
1010
0000
0001
0110
1000
0100
,
1000
0010
1100
0001
0010
0100
0000
0100
0000
1000
0011
0000
1000
0110
0001
1000
,
0010
0100
0002
0000
0000
0103
0000
0000
0020
0000
2030
0000
0000
3100
0000
0000
,
0002
0000
0203
0000
0000
0310
0000
0000
2000
0000
3200
0000
0000
0320
0000
0000
,
0230
0000
1301
0010
1100
0000
0001
0110
0000
1000
0010
0100
0001
0100
0010
1000
,
0100
0001
2000
0000
0000
3200
0000
0000
0320
0000
0032
0000
0000
0023
0000
0000
,
0230
0000
1310
0001
1000
0010
1000
0100
0010
0100
1010
0001
1000
0100
1000
0100
,
0010
0100
1001
0010
1000
0100
0010
0001
0100
0010
2000
0000
0000
0001
0000
0000
,
0000
0000
3011
0100
0010
1000
0000
0100
0000
0001
0110
0000
1000
0110
0001
1000
,
0100
0001
0110
1000
0100
0010
0000
0001
0000
1000
1001
0000
0010
0101
0010
1000
,
0010
0100
0002
0000
0000
0103
0000
0000
0020
0000
0230
0000
0000
1300
0000
0000
,
0002
0000
0000
0000
0203
0000
0000
0000
0000
0000
0310
0000
0000
0000
0000
0000
2000
0000
0000
0000
3200
0000
0000
0000
0000
0300
0100
0000
0000
0000
0000
0000
,
0120
0000
1031
0100
1010
0000
0001
1001
0000
0100
0010
1000
0100
0010
1000
0010
,
0001
0100
1002
0000
0000
0023
0000
0000
0230
0000
0302
0000
0000
0023
0000
0000
,
1030
0000
1001
0100
0010
0001
0100
0001
0010
0001
1010
0100
0010
0001
0100
0001
,
0010
0000
0001
0000
0210
0000
0000
0000
0000
0000
1300
0010
0200
0000
0000
0000
0000
0000
0301
0010
1200
0000
0000
0000
0000
0000
1300
0100
0020
0000
0000
0000
,
1000
0000
0032
0000
1000
0003
0001
0100
0001
0010
0000
0000
0100
0000
1000
0100
,
0000
0001
0000
0000
0100
0000
0010
0100
0000
1000
0000
0000
0010
0010
0000
0100
,
0000
2002
0000
0000
0000
3003
0200
0302
0023
0032
0003
0000
0200
0300
0020
0230
,
0300
2000
0000
0000
3200
0000
0320
0000
0230
0000
0301
0001
0000
0001
0000
0100
,
0010
1000
1001
0100
0010
1001
0010
0100
1001
0100
0010
1001
0010
0100
1001
0100
,
0010
1000
1001
0001
0100
1001
1000
0100
1001
0001
1000
1001
0100
0010
1001
0100
,
0001
0010
1100
0100
0010
1100
0001
0010
1100
0010
0100
1100
0001
0010
1100
0010
,
0001
0100
0011
1000
0100
0011
0100
1000
0011
1000
0100
0011
0100
1000
0011
0000
,
0100
0000
1001
0100
0001
0020
0000
0230
0000
0000
0301
0000
1000
0000
0001
0000
,
0100
0000
0000
0000
0010
1000
0010
1000
0010
1000
0010
1000
0010
0100
0010
0100
0010
0100
0010
0100
0001
0100
0001
0100
0001
0100
0001
0100
0001
1000
0001
1000
,
0001
1000
0001
1000
0001
0000
0100
0000
0010
0000
1100
0000
0001
0000
1000
0000
0100
0000
0010
0000
0001
0000
0100
0000
0010
0000
0100
0000
0001
0000
1000
0000
,
0100
0010
0001
0100
0010
1000
0100
0010
0001
0100
0010
0001
1000
0010
0001
0100
,
0001
0010
0200
1000
1000
0010
0000
0000
0310
0001
2000
0000
0000
0000
0000
0000
,
3100
0010
0001
0100
0001
0010
1000
0100
0010
0100
0002
0000
0000
0000
0213
0000
,
1320
0000
0000
0000
1030
0100
0010
0001
0000
0000
0000
0000
0000
0000
0000
0000
0000
0010
0001
0010
1000
0100
0010
0001
0000
0000
0000
0000
0000
0000
0000
0000
,
0010
0100
1000
0010
0100
0000
0000
0010
0000
0000
0100
0000
0001
0000
0000
0010
0000
0000
0100
0000
1000
0000
0000
0001
0000
0000
0100
0000
0010
1000
0010
0000
,
1000
0010
1000
0010
0100
0001
1020
0000
0000
0000
0000
0000
0030
0000
0010
0001
,
0100
0001
0010
0001
0100
1000
0201
0000
0000
0320
0000
0000
0032
0000
0203
0000
,
0000
0320
0000
0000
0230
0300
0011
1000
0010
0100
0001
0100
0010
1000
0011
0100
,
0010
1000
0001
0100
0010
0001
1100
0010
0100
0010
1000
0100
0010
0001
0200
0000
,
0000
0000
0000
0000
0001
0300
0101
0010
1000
0002
0000
0000
0000
0000
0003
0010
,
0100
0001
0010
0100
0010
1000
0101
0010
1000
0001
0000
0001
0100
0010
1000
0001
,
0010
0100
0001
0010
0100
1000
0011
0100
0001
0010
0001
1000
0001
0100
1001
0010
,
0001
0100
0001
1000
0001
0100
1001
0010
0100
1000
0000
0000
0100
0000
1001
0000
,
0001
0000
0010
0000
0101
0000
1000
0000
0001
0000
1000
0000
0001
0010
0100
1000
0001
0100
0010
1000
0001
0010
0100
1000
0001
0100
0010
1000
0001
0010
0100
1000
,
0001
0100
0010
1000
0001
0100
0010
1000
0100
1000
0010
0100
0001
1000
0100
0010
1000
0100
1000
0001
0100
0010
1000
0100
0010
0001
0100
0010
1000
0001
0100
0010
,
1000
0001
0100
0010
0100
0001
0010
0100
1000
0010
0100
0000
0000
0000
0010
0000
1010
0000
0000
0000
0001
0000
0101
0000
0000
0000
0010
0000
0110
0000
0000
0000
,
0001
0000
1001
0000
0000
0000
0010
0000
0101
0000
0000
0000
0002
0000
0000
0000
0000
0000
1003
0010
0200
0000
0000
0000
0000
0000
0301
0100
0020
0000
0000
0000
,
0000
0000
0130
0010
2000
0000
0000
0000
0000
0000
3000
0000
1001
0000
0000
0000
0010
0000
0110
0000
0000
0000
0010
0000
0101
0000
1100
0000
0011
0000
0000
0000
;
