#TITLE:Children's Sketchbook;
#SUBTITLE:;
#ARTIST:Hirofumi Sasaki;
#TITLETRANSLIT:;
#SUBTITLETRANSLIT:;
#ARTISTTRANSLIT:;
#CREDIT:;
#BANNER:Children's Sketchbook.jpg;
#BACKGROUND:Children's Sketchbook-BG.jpg;
#LYRICSPATH:;
#CDTITLE:super_sonic.png;
#MUSIC:Children's Sketchbook.mp3;
#OFFSET:-0.442;
#SAMPLESTART:45.230;
#SAMPLELENGTH:12.000;
#SELECTABLE:YES;
#BPMS:0.000=280.000,126.000=279.980,371.000=280.420,372.000=90.000,373.000=85.000,377.667=200.000,380.667=85.000,383.000=69.999;
#STOPS:;
#BGCHANGES:;
// cache tags:
#FIRSTBEAT:0.000;
#LASTBEAT:387.667;
#SONGFILENAME:Songs/Definitive Keyboard Megapack/Children's Schetchbook(SonicX)/Children's Sketchbook.sm;
#HASMUSIC:1;
#HASBANNER:1;
#MUSICLENGTH:96.026;
// end cache tags

//---------------dance-single - SonicX simfiles----------------
#NOTES:
     dance-single:
     SonicX simfiles:
     Hard:
     13:
     1.000,1.000,1.000,0.656,0.219,668.000,176.000,63.000,0.000,70.000:

1001
0110
1001
0110
,
0101
1001
0110
1010
,
1010
0101
1010
0101
,
0110
1001
1001
0101
,
1010
0110
1001
0110
,
1001
0110
1100
1010
,
0101
1001
0110
1001
,
0101
1010
0101
0010
,
1100
0101
1010
0110
,
0101
0110
1001
0110
,
1001
0110
1101
1100
,
1010
0000
0000
0101
0000
0000
1010
0100
0000
1111
0000
0000
,
0010
1100
0100
1100
,
0111
0010
1101
0111
,
1110
1010
1101
0010
,
1100
0001
1010
1001
,
1001
1001
1001
1001
,
0001
0010
0001
0100
0001
0010
1000
0001
,
1000
0010
1000
0010
1100
0001
1100
0001
,
1000
0100
1010
0100
1010
0001
1000
0001
,
1100
0010
1100
0001
0010
0100
1010
0001
,
0110
0001
0100
0010
1001
0100
1010
0001
,
0100
0010
1001
0100
0110
0001
0010
0001
,
1010
0100
1001
0100
1000
0001
0110
0001
,
1010
0001
1000
0100
1010
0001
1010
0001
,
1000
0100
1010
0001
0110
0100
0010
0001
,
1010
0100
1010
0001
0100
0010
1100
0100
,
1010
0001
0100
0001
1010
0001
0110
0100
,
1000
0100
0011
0001
1100
0100
1000
0001
,
0110
0001
1010
0100
1000
0001
1000
0100
,
1000
0001
0010
0001
1000
0001
0010
0001
,
0100
0010
1000
0001
0100
0010
1000
0100
,
1000
0100
0010
0001
1000
0100
0010
0001
,
1000
0000
0100
0000
0010
0000
0001
0000
1000
0000
0100
0000
0010
0000
0001
0000
0000
0000
1000
0000
0000
0100
0000
0000
,
0010
0001
0010
0010
1000
0100
0010
0000
,
0100
0010
1000
0100
1000
0010
0100
0010
,
1000
0001
1000
0001
1000
0001
0100
0010
,
0100
0010
1010
0001
1010
0100
0010
0100
,
1100
0001
1100
0100
0010
0100
1100
0001
,
1010
0100
1000
0001
1010
0100
1010
0001
,
1000
0100
1001
0001
0110
0001
0100
0010
,
1000
0100
1010
0001
1100
0100
1000
0001
,
1000
0010
0100
0001
1000
0010
1000
0100
,
1000
0100
1000
0100
1000
0010
0001
0010
,
2202
3303
0000
0000
0000
0000
0000
0000
0000
0000
0000
0000
0000
0000
0000
0000
1011
0000
0000
0000
0000
0000
0000
0000
0000
0000
0000
0000
0000
0000
0000
0000
1101
0000
0000
0000
0000
0000
0000
0000
0000
0000
0000
0000
0000
0000
0000
0000
2202
3303
0000
0000
0000
0000
0000
0000
0000
0000
0000
0000
0000
0000
0000
0000
,
0111
0000
0000
0000
0000
0000
0000
0000
0000
0000
0000
0000
0000
0000
0000
0000
1110
0000
0000
0000
0000
0000
0000
0000
0000
0000
0000
0000
0000
0000
0000
0000
2220
3330
0000
0000
0000
0000
0000
0000
0000
0000
0000
0000
0000
0000
0000
0000
1011
0000
0000
0000
0000
0000
0000
0000
0000
0000
0000
0000
0000
0000
0000
0000
,
1110
0000
0000
0000
0000
0000
0000
0000
0000
0000
0000
0000
0000
0000
0000
0000
2202
3303
0000
0000
0000
0000
0000
0000
0000
0000
0000
0000
0000
0000
0000
0000
1110
0000
0000
0000
0000
0000
0000
0000
0000
0000
0000
0000
0000
0000
0000
0000
1101
0000
0000
0000
0000
0000
0000
0000
0000
0000
0000
0000
0000
0000
0000
0000
,
0222
0333
0000
0000
0000
0000
0000
0000
0000
0000
0000
0000
0000
0000
0000
0000
0000
0000
0000
0000
0000
0000
0000
0000
0000
0000
0000
0000
0000
0000
0000
0000
0000
0000
0000
0000
0000
0000
0000
0000
0000
0000
0000
0000
0000
0000
0000
0000
1011
0000
0000
0000
0000
0000
0000
0000
0000
0000
0000
0000
0000
0000
0000
0000
0000
0000
0000
0000
0000
0000
0000
0000
0000
0000
0000
0000
0000
0000
0000
0000
0000
0000
0000
0000
0000
0000
0000
0000
0000
0000
0000
0000
0000
0000
0000
0000
1101
0000
0000
0000
0000
0000
0000
0000
0000
0000
0000
0000
0000
0000
0000
0000
0000
0000
0000
0000
0000
0000
0000
0000
0000
0000
0000
0000
0000
0000
0000
0000
0000
0000
0000
0000
0000
0000
0000
0000
0000
0000
0000
0000
0000
0000
0000
0000
2220
3330
0000
0000
0000
0000
0000
0000
0000
0000
0000
0000
0000
0000
0000
0000
0000
0000
0000
0000
0000
0000
0000
0000
0000
0000
0000
0000
0000
0000
0000
0000
0000
0000
0000
0000
0000
0000
0000
0000
0000
0000
0000
0000
0000
0000
0000
0000
,
1101
0000
0000
0000
0000
0000
0000
0000
0000
0000
0000
0000
0000
0000
0000
0000
1011
0000
0000
0000
0000
0000
0000
0000
0000
0000
0000
0000
0000
0000
0000
0000
0222
0333
0000
0000
0000
0000
0000
0000
0000
0000
0000
0000
0000
0000
0000
0000
1101
0000
0000
0000
0000
0000
0000
0000
0000
0000
0000
0000
0000
0000
0000
0000
,
0111
0000
0000
0000
0000
0000
0000
0000
0000
0000
0000
0000
0000
0000
0000
0000
2202
3303
0000
0000
0000
0000
0000
0000
0000
0000
0000
0000
0000
0000
0000
0000
1101
0000
0000
0000
0000
0000
0000
0000
0000
0000
0000
0000
0000
0000
0000
0000
1011
0000
0000
0000
0000
0000
0000
0000
0000
0000
0000
0000
0000
0000
0000
0000
,
2220
3330
0000
0000
0000
0000
0000
0000
0000
0000
0000
0000
0000
0000
0000
0000
1110
0000
0000
0000
0000
0000
0000
0000
0000
0000
0000
0000
0000
0000
0000
0000
1011
0000
0000
0000
0000
0000
0000
0000
0000
0000
0000
0000
0000
0000
0000
0000
2022
3033
0000
0000
0000
0000
0000
0000
0000
0000
0000
0000
0000
0000
0000
0000
,
0111
0000
0000
0000
0000
0000
0000
0000
0000
0000
0000
0000
0000
0000
0000
0000
1011
0000
0000
0000
0000
0000
0000
0000
0000
0000
0000
0000
0000
0000
0000
0000
2202
3303
0000
0000
0000
0000
0000
0000
0000
0000
0000
0000
0000
0000
0000
0000
1101
0000
0000
0000
0000
0000
0000
0000
0000
0000
0000
0000
0000
0000
0000
0000
,
1110
0000
0000
0000
0000
0000
0000
0000
0000
0000
0000
0000
0000
0000
0000
0000
0222
0333
0000
0000
0000
0000
0000
0000
0000
0000
0000
0000
0000
0000
0000
0000
1101
0000
0000
0000
0000
0000
0000
0000
0000
0000
0000
0000
0000
0000
0000
0000
1011
0000
0000
0000
0000
0000
0000
0000
0000
0000
0000
0000
0000
0000
0000
0000
,
2202
3303
0000
0000
0000
0000
0000
0000
0000
0000
0000
0000
0000
0000
0000
0000
1110
0000
0000
0000
0000
0000
0000
0000
0000
0000
0000
0000
0000
0000
0000
0000
1101
0000
0000
0000
0000
0000
0000
0000
0000
0000
0000
0000
0000
0000
0000
0000
0222
0333
0000
0000
0000
0000
0000
0000
0000
0000
0000
0000
0000
0000
0000
0000
,
1011
0000
0000
0000
0000
0000
0000
0000
0000
0000
0000
0000
0000
0000
0000
0000
1101
0000
0000
0000
0000
0000
0000
0000
0000
0000
0000
0000
0000
0000
0000
0000
2202
3303
0000
0000
0000
0000
0000
0000
0000
0000
0000
0000
0000
0000
0000
0000
0111
0000
0000
0000
0000
0000
0000
0000
0000
0000
0000
0000
0000
0000
0000
0000
,
1101
0000
0000
0000
0000
0000
0000
0000
0000
0000
0000
0000
0000
0000
0000
0000
2202
3303
0000
0000
0000
0000
0000
0000
0000
0000
0000
0000
0000
0000
0000
0000
1011
0000
0000
0000
0000
0000
0000
0000
0000
0000
0000
0000
0000
0000
0000
0000
0111
0000
0000
0000
0000
0000
0000
0000
0000
0000
0000
0000
0000
0000
0000
0000
,
2202
3303
0000
0000
0000
0000
0000
0000
0000
0000
0000
0000
0000
0000
0000
0000
0111
0000
0000
0000
0000
0000
0000
0000
0000
0000
0000
0000
0000
0000
0000
0000
1101
0000
0000
0000
0000
0000
0000
0000
0000
0000
0000
0000
0000
0000
0000
0000
2220
3330
0000
0000
0000
0000
0000
0000
0000
0000
0000
0000
0000
0000
0000
0000
,
0111
0000
0000
0000
0000
0000
0000
0000
0000
0000
0000
0000
0000
0000
0000
0000
1101
0000
0000
0000
0000
0000
0000
0000
0000
0000
0000
0000
0000
0000
0000
0000
0222
0333
0000
0000
0000
0000
0000
0000
0000
0000
0000
0000
0000
0000
0000
0000
0111
0000
0000
0000
0000
0000
0000
0000
0000
0000
0000
0000
0000
0000
0000
0000
,
1101
0000
0000
0000
0000
0000
0000
0000
0000
0000
0000
0000
0000
0000
0000
0000
2220
3330
0000
0000
0000
0000
0000
0000
0000
0000
0000
0000
0000
0000
0000
0000
0111
0000
0000
0000
0000
0000
0000
0000
0000
0000
0000
0000
0000
0000
0000
0000
0001
0000
0000
0000
0000
0000
0000
0000
0000
0000
0000
0000
0000
0000
0000
0000
,
1000
0100
1000
0100
1000
0001
0010
0001
,
0010
0001
1000
0100
0010
0001
1000
0100
,
1000
0001
0100
0001
1000
0010
0100
0001
,
1000
0010
0100
0001
1000
0010
0100
0001
,
0100
0010
0001
1000
0100
1000
0100
1000
,
0001
0010
0001
1000
0100
0010
0001
0100
,
0010
1000
0001
0100
0001
0100
0010
1000
,
0100
0010
0001
0010
0100
1000
0100
1000
,
0010
0100
0010
1000
0100
1000
0010
0100
,
0010
1000
0001
1000
0010
0100
0010
1000
,
0001
1000
0100
1000
0010
0100
0010
1000
,
0001
1000
0001
1000
0001
0100
0010
1000
,
0100
0010
0001
0100
0010
1000
0001
0100
,
0010
1000
0001
0100
0010
1000
0100
1000
,
0001
0010
0001
1000
0100
1000
0010
0100
,
0010
1000
0100
1000
0001
0010
0001
1000
,
0100
0001
1000
0100
0010
0001
1000
0010
,
0100
0001
1000
0010
0100
0001
1000
0100
,
1000
0100
1000
0001
1000
0001
1000
0010
,
1000
0010
1000
0100
1000
0010
0100
0010
,
1000
0001
1000
0010
0100
0010
1000
0001
,
1000
0100
0010
0001
0010
0001
0100
0010
,
0100
0001
0010
0001
0100
0010
0100
0001
,
1000
0001
0100
0010
0100
0001
1000
0001
,
1000
0001
1000
0100
1000
0010
1000
0001
,
0100
0010
1000
0001
1000
0100
0010
0001
,
1000
0100
0010
0001
1000
0010
0100
0001
,
1000
0010
0100
0001
1000
0100
0010
0001
,
1000
0100
1000
0010
0100
0010
1000
0001
,
1000
0010
0100
0010
1000
0001
1000
0010
,
1000
0001
1000
0001
1000
0001
1000
0001
,
0100
0010
0100
0010
0100
0001
0100
0001
,
1000
0100
0010
0001
1000
0100
0010
0001
1000
0100
0010
0001
1000
0100
0010
0001
,
1000
0100
0010
0001
1000
0100
0010
0001
1000
0100
0010
0001
1000
0100
0010
0001
,
2002
0000
0000
0000
0000
0000
0000
0000
0000
0000
0000
0000
0000
0000
0000
0000
0000
0000
0000
0000
0000
0000
0000
0000
0000
0000
0000
0000
0000
0000
0000
0000
0000
0000
0000
0000
0000
0000
0000
0000
0000
0000
3003
0000
0000
0000
0000
0000
1000
0000
0000
0000
0000
0000
0000
0000
0000
0000
0000
0000
0000
0000
0000
0000
1000
0000
0000
0000
0000
0000
0000
0000
0000
0000
0000
0000
0000
0000
0000
0000
1110
0000
0000
0000
0000
0000
0000
0000
0000
0000
0000
0000
0000
0000
0000
0000
0001
0000
0000
0000
0000
0000
0000
0000
0000
0000
0000
0000
0000
0000
0000
0000
0001
0000
0000
0000
0000
0000
0000
0000
0000
0000
0000
0000
0000
0000
0000
0000
0111
0000
0000
0000
0000
0000
0000
0000
0000
0000
0000
0000
0000
0000
0000
0000
0001
0000
0000
0000
0000
0000
0000
0000
0000
0000
0000
0000
0000
0000
0000
0000
0010
0000
0000
0000
0000
0000
0000
0000
0000
0000
0000
0000
0000
0000
0000
0000
1110
0000
0000
0000
0000
0000
0000
0000
0000
0000
0000
0000
0000
0000
0000
0000
,
0010
0001
0111
0010
0100
1010
1010
1010
1010
1010
1010
1010
,
1010
0000
0000
0000
0010
0000
0010
0000
1000
0000
0100
0000
0010
0000
0001
0000
0100
0000
1000
0000
0000
0100
0000
0000
,
0010
0000
0002
0000
0000
0000
0000
0000
0000
0000
0000
0003
;

//---------------dance-single - Hard----------------
#NOTES:
     dance-single:
     Hard:
     Challenge:
     16:
     1.000,1.000,1.000,0.656,0.219,668.000,299.000,63.000,0.000,71.000:

1001
0110
1001
0110
,
0101
1001
0110
1010
,
1010
0101
1010
0101
,
0110
1001
1001
0101
,
1010
0110
1001
0110
,
1001
0110
1100
1010
,
0101
1001
0110
1001
,
0101
1010
0101
0010
,
1100
0101
1010
0110
,
0101
0110
1001
0110
,
1001
0110
1101
1100
,
1010
0000
0000
0101
0000
0000
1010
0100
0000
1111
0000
0000
,
0010
1100
0100
1100
,
0111
0010
1101
0111
,
1110
1010
1101
0010
,
1100
0001
1010
1001
,
1001
1001
1001
1001
,
0001
0010
0001
0100
0001
0010
1000
0001
,
1000
0010
1000
0010
1100
0001
1100
0001
,
1000
0100
1010
0100
1010
0001
1000
0001
,
1100
0010
1100
0001
0010
0100
1010
0001
,
0110
0001
0100
0010
1001
0100
1010
0001
,
0100
0010
1001
0100
0110
0001
0010
0001
,
1010
0100
1001
0100
1000
0001
0110
0001
,
1010
0001
1000
0100
1010
0001
1010
0001
,
1000
0100
1010
0001
0110
0100
0010
0001
,
1010
0100
1010
0001
0100
0010
1100
0100
,
1010
0001
0100
0001
1010
0001
0110
0100
,
1000
0100
0011
0001
1100
0100
1000
0001
,
0110
0001
1010
0100
1000
0001
1000
0100
,
1000
0001
0010
0001
1000
0001
0010
0001
,
0100
0010
1000
0001
0100
0010
1000
0100
,
1000
0100
0010
0001
1000
0100
0010
0001
,
1000
0000
0100
0000
0010
0000
0001
0000
1000
0000
0100
0000
0010
0000
0001
0000
0000
0000
1000
0000
0000
0100
0000
0000
,
0010
0001
0010
0010
1000
0100
0010
0000
,
0100
0010
1000
0100
1000
0010
0100
0010
,
1000
0001
1000
0001
1000
0001
0100
0010
,
0100
0010
1010
0001
1010
0100
0010
0100
,
1100
0001
1100
0100
0010
0100
1100
0001
,
1010
0100
1000
0001
1010
0100
1010
0001
,
1000
0100
1001
0001
0110
0001
0100
0010
,
1000
0100
1010
0001
1100
0100
1000
0001
,
1000
0010
0100
0001
1000
0010
1000
0100
,
1000
0100
1000
0100
1000
0010
0001
0010
,
2202
3303
0000
0000
0000
0000
0000
0000
0000
0000
0000
0000
0000
0000
0000
0000
1011
0000
0000
0000
0000
0000
0000
0000
0000
0000
0000
0000
0000
0000
0000
0000
1101
0000
0000
0000
0000
0000
0000
0000
0000
0000
0000
0000
0000
0000
0000
0000
2202
3303
0000
0000
0000
0000
0000
0000
0000
0000
0000
0000
0000
0000
0000
0000
,
0111
0000
0000
0000
0000
0000
0000
0000
0000
0000
0000
0000
0000
0000
0000
0000
1110
0000
0000
0000
0000
0000
0000
0000
0000
0000
0000
0000
0000
0000
0000
0000
2220
3330
0000
0000
0000
0000
0000
0000
0000
0000
0000
0000
0000
0000
0000
0000
1011
0000
0000
0000
0000
0000
0000
0000
0000
0000
0000
0000
0000
0000
0000
0000
,
1110
0000
0000
0000
0000
0000
0000
0000
0000
0000
0000
0000
0000
0000
0000
0000
2202
3303
0000
0000
0000
0000
0000
0000
0000
0000
0000
0000
0000
0000
0000
0000
1110
0000
0000
0000
0000
0000
0000
0000
0000
0000
0000
0000
0000
0000
0000
0000
1101
0000
0000
0000
0000
0000
0000
0000
0000
0000
0000
0000
0000
0000
0000
0000
,
0222
0333
0000
0000
0000
0000
0000
0000
0000
0000
0000
0000
0000
0000
0000
0000
0000
0000
0000
0000
0000
0000
0000
0000
0000
0000
0000
0000
0000
0000
0000
0000
0000
0000
0000
0000
0000
0000
0000
0000
0000
0000
0000
0000
0000
0000
0000
0000
1011
0000
0000
0000
0000
0000
0000
0000
0000
0000
0000
0000
0000
0000
0000
0000
0000
0000
0000
0000
0000
0000
0000
0000
0000
0000
0000
0000
0000
0000
0000
0000
0000
0000
0000
0000
0000
0000
0000
0000
0000
0000
0000
0000
0000
0000
0000
0000
1101
0000
0000
0000
0000
0000
0000
0000
0000
0000
0000
0000
0000
0000
0000
0000
0000
0000
0000
0000
0000
0000
0000
0000
0000
0000
0000
0000
0000
0000
0000
0000
0000
0000
0000
0000
0000
0000
0000
0000
0000
0000
0000
0000
0000
0000
0000
0000
2220
3330
0000
0000
0000
0000
0000
0000
0000
0000
0000
0000
0000
0000
0000
0000
0000
0000
0000
0000
0000
0000
0000
0000
0000
0000
0000
0000
0000
0000
0000
0000
0000
0000
0000
0000
0000
0000
0000
0000
0000
0000
0000
0000
0000
0000
0000
0000
,
1101
0000
0000
0000
0000
0000
0000
0000
0000
0000
0000
0000
0000
0000
0000
0000
1011
0000
0000
0000
0000
0000
0000
0000
0000
0000
0000
0000
0000
0000
0000
0000
0222
0333
0000
0000
0000
0000
0000
0000
0000
0000
0000
0000
0000
0000
0000
0000
1101
0000
0000
0000
0000
0000
0000
0000
0000
0000
0000
0000
0000
0000
0000
0000
,
0111
0000
0000
0000
0000
0000
0000
0000
0000
0000
0000
0000
0000
0000
0000
0000
2202
3303
0000
0000
0000
0000
0000
0000
0000
0000
0000
0000
0000
0000
0000
0000
1101
0000
0000
0000
0000
0000
0000
0000
0000
0000
0000
0000
0000
0000
0000
0000
1011
0000
0000
0000
0000
0000
0000
0000
0000
0000
0000
0000
0000
0000
0000
0000
,
2220
3330
0000
0000
0000
0000
0000
0000
0000
0000
0000
0000
0000
0000
0000
0000
1110
0000
0000
0000
0000
0000
0000
0000
0000
0000
0000
0000
0000
0000
0000
0000
1011
0000
0000
0000
0000
0000
0000
0000
0000
0000
0000
0000
0000
0000
0000
0000
2022
3033
0000
0000
0000
0000
0000
0000
0000
0000
0000
0000
0000
0000
0000
0000
,
0111
0000
0000
0000
0000
0000
0000
0000
0000
0000
0000
0000
0000
0000
0000
0000
1011
0000
0000
0000
0000
0000
0000
0000
0000
0000
0000
0000
0000
0000
0000
0000
2202
3303
0000
0000
0000
0000
0000
0000
0000
0000
0000
0000
0000
0000
0000
0000
1101
0000
0000
0000
0000
0000
0000
0000
0000
0000
0000
0000
0000
0000
0000
0000
,
1110
0000
0000
0000
0000
0000
0000
0000
0000
0000
0000
0000
0000
0000
0000
0000
0222
0333
0000
0000
0000
0000
0000
0000
0000
0000
0000
0000
0000
0000
0000
0000
1101
0000
0000
0000
0000
0000
0000
0000
0000
0000
0000
0000
0000
0000
0000
0000
1011
0000
0000
0000
0000
0000
0000
0000
0000
0000
0000
0000
0000
0000
0000
0000
,
2202
3303
0000
0000
0000
0000
0000
0000
0000
0000
0000
0000
0000
0000
0000
0000
1110
0000
0000
0000
0000
0000
0000
0000
0000
0000
0000
0000
0000
0000
0000
0000
1101
0000
0000
0000
0000
0000
0000
0000
0000
0000
0000
0000
0000
0000
0000
0000
0222
0333
0000
0000
0000
0000
0000
0000
0000
0000
0000
0000
0000
0000
0000
0000
,
1011
0000
0000
0000
0000
0000
0000
0000
0000
0000
0000
0000
0000
0000
0000
0000
1101
0000
0000
0000
0000
0000
0000
0000
0000
0000
0000
0000
0000
0000
0000
0000
2202
3303
0000
0000
0000
0000
0000
0000
0000
0000
0000
0000
0000
0000
0000
0000
0111
0000
0000
0000
0000
0000
0000
0000
0000
0000
0000
0000
0000
0000
0000
0000
,
1101
0000
0000
0000
0000
0000
0000
0000
0000
0000
0000
0000
0000
0000
0000
0000
2202
3303
0000
0000
0000
0000
0000
0000
0000
0000
0000
0000
0000
0000
0000
0000
1011
0000
0000
0000
0000
0000
0000
0000
0000
0000
0000
0000
0000
0000
0000
0000
0111
0000
0000
0000
0000
0000
0000
0000
0000
0000
0000
0000
0000
0000
0000
0000
,
2202
3303
0000
0000
0000
0000
0000
0000
0000
0000
0000
0000
0000
0000
0000
0000
0111
0000
0000
0000
0000
0000
0000
0000
0000
0000
0000
0000
0000
0000
0000
0000
1101
0000
0000
0000
0000
0000
0000
0000
0000
0000
0000
0000
0000
0000
0000
0000
2220
3330
0000
0000
0000
0000
0000
0000
0000
0000
0000
0000
0000
0000
0000
0000
,
0111
0000
0000
0000
0000
0000
0000
0000
0000
0000
0000
0000
0000
0000
0000
0000
1101
0000
0000
0000
0000
0000
0000
0000
0000
0000
0000
0000
0000
0000
0000
0000
0222
0333
0000
0000
0000
0000
0000
0000
0000
0000
0000
0000
0000
0000
0000
0000
0111
0000
0000
0000
0000
0000
0000
0000
0000
0000
0000
0000
0000
0000
0000
0000
,
1101
0000
0000
0000
0000
0000
0000
0000
0000
0000
0000
0000
0000
0000
0000
0000
2220
3330
0000
0000
0000
0000
0000
0000
0000
0000
0000
0000
0000
0000
0000
0000
0111
0000
0000
0000
0000
0000
0000
0000
0000
0000
0000
0000
0000
0000
0000
0000
0001
0000
0000
0000
0000
0000
0000
0000
0000
0000
0000
0000
0000
0000
0000
0000
,
1100
0100
1010
0100
1000
0001
0110
0001
,
0110
0001
1001
0100
0010
0001
1100
0100
,
1010
0001
1100
0001
1010
0010
0110
0001
,
1001
0010
0110
0001
1001
0010
0110
0001
,
1100
0010
0011
1000
0110
1000
0101
1000
,
0101
0010
1001
1000
0101
0010
1001
0100
,
0011
1000
0011
0100
1001
0100
0011
1000
,
0101
0010
1001
0010
0110
1000
0101
1000
,
0110
0100
1010
1000
0110
1000
0011
0100
,
0110
1000
0011
1000
0110
0100
1010
1000
,
0101
1000
0110
1000
0011
0100
1010
1000
,
0101
1000
0011
1000
1001
0100
0011
1000
,
0110
0010
1001
0100
0011
1000
0011
0100
,
0110
1000
1001
0100
0011
1000
0110
1000
,
1001
0010
0101
1000
0110
1000
0011
0100
,
0110
1000
0110
1000
1001
0010
0101
1000
,
0110
0001
1001
0100
0110
0001
1001
0010
,
1100
0001
1100
0010
0110
0001
1001
0100
,
1010
0100
1100
0001
1010
0001
1001
0010
,
1010
0010
1100
0100
1010
0010
0101
0010
,
1010
0001
1100
0010
0101
0010
1010
0001
,
1100
0100
1011
0001
0110
0001
1100
0010
,
0110
0001
0110
0001
1100
0010
0110
0001
,
1100
0001
0101
0010
1100
0001
1010
0001
,
1100
0001
1010
0100
1001
0010
1100
0001
,
1100
0010
1100
0001
1001
0100
0110
0001
,
1010
0100
1010
0001
1100
0010
0110
0001
,
1100
0010
1100
0001
1010
0100
1010
0001
,
1010
0100
1001
0010
1100
0010
1100
0001
,
1000
0010
1100
0010
1000
0001
1100
0010
,
1000
0001
1100
0001
1010
0001
1010
0001
,
1100
0010
1100
0010
0110
0001
0110
0001
,
1000
0100
0010
0001
1000
0100
0010
0001
1000
0100
0010
0001
1000
0100
0010
0001
,
1000
0100
0010
0001
1000
0100
0010
0001
1000
0100
0010
0001
1000
0100
0010
0001
,
2002
0000
0000
0000
0000
0000
0000
0000
0000
0000
0000
0000
0000
0000
0000
0000
0000
0000
0000
0000
0000
0000
0000
0000
0000
0000
0000
0000
0000
0000
0000
0000
0000
0000
0000
0000
0000
0000
0000
0000
0000
0000
3003
0000
0000
0000
0000
0000
1000
0000
0000
0000
0000
0000
0000
0000
0000
0000
0000
0000
0000
0000
0000
0000
1000
0000
0000
0000
0000
0000
0000
0000
0000
0000
0000
0000
0000
0000
0000
0000
1110
0000
0000
0000
0000
0000
0000
0000
0000
0000
0000
0000
0000
0000
0000
0000
0001
0000
0000
0000
0000
0000
0000
0000
0000
0000
0000
0000
0000
0000
0000
0000
0001
0000
0000
0000
0000
0000
0000
0000
0000
0000
0000
0000
0000
0000
0000
0000
0111
0000
0000
0000
0000
0000
0000
0000
0000
0000
0000
0000
0000
0000
0000
0000
0001
0000
0000
0000
0000
0000
0000
0000
0000
0000
0000
0000
0000
0000
0000
0000
0010
0000
0000
0000
0000
0000
0000
0000
0000
0000
0000
0000
0000
0000
0000
0000
1110
0000
0000
0000
0000
0000
0000
0000
0000
0000
0000
0000
0000
0000
0000
0000
,
0010
0001
0111
0010
0100
1010
1010
1010
1010
1010
1010
1010
,
1010
0000
0000
0000
0010
0000
0010
0000
1000
0000
0100
0000
0010
0000
0001
0000
0100
0000
1000
0000
0000
0100
0000
0000
,
0010
0000
0002
0000
0000
0000
0000
0000
0000
0000
0000
0003
;
