#TITLE:Re：Routes：Remix;
#SUBTITLE:;
#ARTIST:YamaDAjet / Spelunker;
#TITLETRANSLIT:Re Routes Remix;
#SUBTITLETRANSLIT:;
#ARTISTTRANSLIT:;
#CREDIT:;
#BANNER:rrr.png;
#BACKGROUND:rrr-bg.png;
#LYRICSPATH:;
#CDTITLE:cdtitle.png;
#MUSIC:rrr.mp3;
#OFFSET:-0.041;
#SAMPLESTART:19.200;
#SAMPLELENGTH:12.000;
#SELECTABLE:YES;
#BPMS:0.000=300.000,72.000=150.000,76.000=300.000,331.000=150.000,333.000=75.000,335.000=300.000;
#STOPS:202.000=0.200
,334.938=0.600
;
#BGCHANGES:;
// cache tags:
#FIRSTBEAT:15.000;
#LASTBEAT:483.000;
#SONGFILENAME:Songs/Japanese Collaboration Mix/rrr/rrr.sm;
#HASMUSIC:1;
#HASBANNER:1;
#MUSICLENGTH:104.751;
// end cache tags

//---------------dance-single - Copied from SMANIAC----------------
#NOTES:
     dance-single:
     Copied from SMANIAC:
     Edit:
     12:
     1.000,1.000,0.936,0.439,0.019,687.000,98.000,46.000,0.000,0.000:
0000
0000
0000
0000
,
0000
0000
0000
0000
,
0000
0000
0000
0000
,
0000
0000
0000
1001
,
0100
0000
0100
0000
0100
0001
0000
0001
,
1000
0000
1000
0000
1000
0010
0000
0010
,
0100
0000
0001
0000
0100
0010
0000
1000
,
0001
0000
0001
0000
0001
0100
0020
0000
,
1030
0000
0001
0000
1000
0010
0000
0010
,
0100
0000
0010
0000
1000
0001
0000
0001
,
0010
0000
0100
0000
0010
0001
0000
0001
,
1000
0000
1100
0000
0001
0010
0000
0010
,
0100
1000
0100
0010
0100
0001
0100
0010
,
0100
1000
0100
0010
0100
0001
0100
1000
,
0010
0100
0010
0001
0010
0100
0010
1000
,
0001
0100
1000
0001
1000
0100
0001
0010
,
0100
0010
0100
0000
0110
0000
0100
0010
,
0000
0010
0100
0000
0110
0000
0110
0000
,
0220
0000
0000
0000
0000
0000
0000
0330
,
0001
0000
1000
0010
0000
0000
1100
0000
,
0011
0000
0100
0010
0000
0000
1001
0000
,
1100
0000
0010
0100
0000
0000
0011
0000
,
1100
0000
0000
1001
0000
0000
0011
0000
,
1100
0000
0010
0001
0000
1000
0100
0000
,
0011
0000
1000
0010
0000
0100
0001
0000
,
1100
0000
0010
0100
0000
0100
0010
0000
,
1100
0000
0010
0100
0001
0100
0010
0100
,
1000
0100
0010
0000
1000
0001
0100
0000
,
0001
1000
0001
0000
1100
0000
0010
1000
,
0100
0000
1100
0000
0001
1000
0010
0001
,
1000
0100
0001
1000
0010
0100
0010
0000
,
1000
0001
1000
0100
0001
0100
0010
0001
,
1000
0100
1000
0001
0010
0001
1000
0100
,
1000
0100
0010
0001
0100
0010
0100
0010
,
0001
0010
1000
0100
0010
0000
1001
0000
,
0010
0100
0010
0000
0110
0000
0110
0000
,
0100
0010
0100
0000
0110
0000
0110
0000
,
0010
0100
0010
0000
0110
0000
0100
0010
,
0100
0000
0110
0000
0010
0100
0010
0000
,
0110
0000
0100
0010
0100
0000
0110
0000
,
0100
0010
0100
0010
0100
0000
0110
0000
,
0010
0100
0010
0100
0010
0000
0110
0000
,
0110
0110
0220
0330
,
0010
0001
1000
0001
0010
0100
0010
0001
,
1000
0010
0100
0010
1000
0000
1001
0000
,
1000
0010
1000
0100
0001
0100
0001
0100
,
1000
0100
1000
0100
0010
0001
0000
0001
,
0100
0010
1000
0100
0010
0001
0100
0010
,
1000
0100
0010
0100
0001
1000
0001
0100
,
1000
0010
0001
0010
1000
0100
0001
1000
,
0001
0100
1000
0000
1001
0000
0110
0000
,
0110
0110
1001
1001
,
1001
0110
0110
0110
,
1001
1001
1001
0011
,
0011
1100
1100
0110
,
0110
0110
1001
1001
,
1001
0110
0110
0110
,
1001
1001
1001
1100
,
1100
0000
0011
0000
0011
0000
1000
0100
,
0010
0001
1000
0000
1000
0100
0010
0001
,
1000
0000
1000
0100
0010
0001
1000
0000
,
1000
0100
0010
0001
1000
0000
1000
0100
,
1000
0100
0010
0001
0010
0001
0100
0001
,
0010
0001
0100
0000
0010
1000
0100
1000
,
0010
0000
1000
0001
0100
0001
1000
0000
,
0001
1000
0010
1000
0001
0000
1000
0010
,
0100
0001
1000
0100
0010
0001
1000
0010
,
0100
0010
2000
0000
3010
0100
0001
0100
,
0020
0000
1030
0001
0100
0010
2000
0000
,
3001
0100
0010
0100
0002
0000
1003
0100
,
0010
0001
1000
0100
0010
0001
1000
0010
,
1000
0010
2000
0000
3001
0100
0001
0100
,
0002
0000
1003
0100
0010
0100
2000
0000
,
3001
0010
0100
0010
0002
0000
1003
0010
,
0100
0001
1000
0001
0100
0010
2000
3001
,
0200
0301
0020
0031
0200
0301
2000
3010
,
0200
0310
0002
0013
0200
0310
2000
3100
,
0020
0130
0002
0103
0020
0130
2000
3010
,
0200
0310
0002
0013
0200
0310
2000
3001
,
0200
0301
0020
0031
0200
0301
2000
3010
,
0200
0310
0002
0013
0200
0310
0002
1003
,
0200
1300
0002
0013
1000
0001
0100
0000
,
0000
0110
0000
0000
0110
0000
2002
0000
,
0000
0000
0000
3003
,
0110
0000
1000
0010
0001
0000
0110
0000
,
1001
0000
0110
0000
0010
1000
0001
0000
,
0110
0000
0001
0100
1000
0000
0110
0000
,
1001
0000
0110
0000
0100
0001
1000
0000
,
0001
0100
0001
0100
0001
0000
0101
0000
,
0010
1000
0010
1000
0010
0000
1010
0000
,
0010
0100
0010
0100
0010
0000
0110
0000
,
0001
1000
0001
1000
0001
0000
1001
0000
,
0010
0100
0010
0100
0010
0000
1100
0000
,
0010
0001
0010
0001
0010
0000
1100
0000
,
0010
0001
0010
0100
1000
0000
0110
0000
,
0001
1000
0010
1000
0100
0000
0011
0000
,
1100
0000
0010
0001
1000
0000
0110
0000
,
1001
0000
0010
0100
0001
0000
1100
0000
,
0011
0011
0011
0011
,
1100
0000
0001
0010
0001
1000
0000
1000
,
0001
0100
0010
0100
1000
0100
0010
0100
,
0001
0010
0100
0001
1000
0010
0100
0010
,
0001
0100
0010
0100
1000
0100
0010
0100
,
0001
0100
0010
0100
1000
0001
0010
1000
,
0100
0010
1000
0010
0100
0010
0001
0010
,
0100
1000
0010
0100
0001
0100
0010
0001
,
1000
0100
0001
0010
0100
0010
1000
0001
,
0100
0001
0100
0010
0001
0100
0010
0000
,
1000
0001
0010
0001
1000
0001
1000
0100
,
0010
0100
0001
0100
1000
0100
0010
0100
,
1000
0010
0100
0010
0001
0010
0100
0010
,
1000
0010
0001
0010
1000
0100
0010
0001
,
0010
0100
1000
0010
0001
0010
1000
0100
,
0001
0100
0010
1000
0010
0001
0100
0001
,
1000
0000
1000
0000
1000
0000
0001
0000
0001
0000
0001
0000
,
0100
0010
2002
3003
,
0220
0000
0000
0000
,
0000
0000
0000
0000
,
0000
0000
0000
0000
,
0000
0000
0000
0000
,
0000
0000
0000
0330
;
