#TITLE:Fields of Dispair;
#SUBTITLE:;
#ARTIST:Dragonforce;
#TITLETRANSLIT:;
#SUBTITLETRANSLIT:;
#ARTISTTRANSLIT:;
#CREDIT:;
#BANNER:(cerdo_claro)Fields of Dispair-bn.PNG;
#BACKGROUND:(cerdo_claro)Fields of Dispair-bg.png;
#LYRICSPATH:;
#CDTITLE:cdtitle.png;
#MUSIC:(cerdo_claro)Fields of Dispair.mp3;
#OFFSET:-0.295;
#SAMPLESTART:56.029;
#SAMPLELENGTH:12.000;
#SELECTABLE:YES;
#BPMS:0.000=200.000,320.000=100.000,344.000=200.000;
#STOPS:;
#BGCHANGES:;
// cache tags:
#FIRSTBEAT:0.000;
#LASTBEAT:819.500;
#SONGFILENAME:Songs/toune 3/(cerdo_claro)Fields of Dispair/(cerdo_claro)Fields of Dispair.sm;
#HASMUSIC:1;
#HASBANNER:1;
#MUSICLENGTH:257.208;
// end cache tags

//---------------dance-single - Copied from----------------
#NOTES:
     dance-single:
     Copied from:
     Hard:
     13:
     1.000,1.000,1.000,0.280,1.000,2108.000,506.000,72.000,0.000,24.000:
1100
1100
0110
0001
1010
0100
0011
1000
,
0110
0110
1001
0010
0110
1000
0011
0100
,
1001
0011
0110
1000
1010
0100
0011
0100
,
1001
0000
0101
0001
0000
0001
0101
0000
,
1000
0010
0001
0001
0100
0010
1000
1000
,
0010
0100
0001
1000
0210
0000
0301
0001
,
0011
0000
1001
1000
0000
1000
1001
0010
,
1000
0100
0010
0001
1000
0001
1000
0010
0100
0001
0010
0001
1000
0010
0100
0001
,
2000
3110
0011
1100
0110
0011
1100
0011
,
2000
3011
0110
0011
1100
0110
0011
1100
,
0020
1130
0011
0110
0110
1100
0011
1100
,
0002
1103
0110
0011
0011
1100
0110
0011
,
0011
1010
0101
2010
0000
3001
0011
0000
,
0011
1100
0011
0210
0000
0301
1010
0000
,
0001
0000
1000
0000
0010
0000
0100
0000
0000
0001
0000
0000
1000
0000
0000
0010
0000
0000
0100
0000
0000
0001
0000
0000
1000
0000
0000
0001
0000
0000
1000
0000
0000
0010
0000
0000
0100
0000
0000
0010
0000
0000
1000
0000
0000
0001
0000
0000
,
2100
0000
0000
0001
0010
0000
0000
0001
0010
0000
0000
0001
0010
0000
0000
0000
,
3011
0100
0010
0100
0011
1000
0110
1000
0011
0100
0010
0100
1010
0001
0100
0001
,
1100
0010
0100
0010
0101
1000
0110
0001
1000
0001
1000
0001
1100
0010
0100
0010
,
2001
0000
0001
0000
0001
0000
0001
0001
,
3011
1000
0001
0000
0100
0010
0100
0000
0001
1000
0010
0100
0001
1000
0110
0000
,
0011
1000
0100
1000
0011
0100
1001
0010
0101
1000
0010
1000
0011
0100
0010
0100
,
1010
0001
0100
0001
1010
0100
0011
1000
0010
1000
0010
1000
0110
0001
1000
0001
,
1100
0010
0100
0010
0101
1000
0110
0001
1000
0001
0110
1000
0010
0100
0001
1000
,
0012
0000
1000
1000
0000
1000
1000
0000
,
1003
0100
0010
0001
0010
0100
1000
0001
1000
0001
1000
0010
0001
0100
1000
0010
,
0100
0001
0010
0001
1000
0010
0100
0001
1000
0010
0100
0001
2100
0000
0000
0000
,
3010
0101
0000
0210
0000
0000
0311
0000
,
1010
0100
0001
1000
0011
0100
0011
0100
1000
0100
0010
0001
0010
0100
1000
0010
,
0101
0010
0100
0010
1100
0010
0101
0010
1100
0001
0010
0001
1100
0010
0101
0010
,
0100
0010
0100
0010
0101
1000
0010
1000
0110
0001
1000
0001
1100
0010
0100
0010
,
0101
1000
0010
1000
0110
0000
1001
0000
0000
0000
1100
0000
0002
0000
0000
0000
,
1003
0100
1000
0100
1000
0100
1000
0100
0011
0000
0000
0000
1000
0000
0010
0000
,
2100
3010
0101
0101
1000
0110
0110
0001
,
1100
0010
0101
0101
1000
0110
0001
1100
,
1000
0001
1000
0001
1000
0001
1000
0001
1000
0001
1000
0001
1000
0001
1000
0001
,
0100
0010
0100
0010
0100
0010
0100
0010
0100
0010
0100
0010
0100
0010
0100
0010
,
1100
0010
0101
0101
1000
0110
1000
0011
,
0011
1000
0110
0110
1000
0101
1000
0110
,
0011
1000
0110
0110
1000
0110
0001
1100
,
1100
0000
0001
0000
1000
0100
0010
0001
1000
0100
0010
0001
2010
0000
3000
0000
,
0011
1000
0100
1000
0010
0100
0010
1000
0001
1000
0001
1000
0011
0100
0010
0100
,
0011
1000
0010
0100
0011
1000
0110
0001
1000
0001
1000
0010
0101
0010
0100
0001
,
1100
0010
1000
0010
0101
0010
1100
0001
0010
0001
0010
0001
1010
0100
0010
0100
,
0011
1000
0010
1000
0010
1000
0010
0100
0011
1000
0001
0100
0011
1000
0001
1000
,
0110
0001
1000
0001
1000
0001
1100
0010
0100
0010
1000
0001
1100
0010
0100
0010
,
0101
1000
0001
0100
0010
1000
0011
1000
0010
0100
0001
1000
0110
0001
1000
0010
,
1002
1000
1000
1000
1000
1000
1000
1000
,
1003
0100
0010
0001
0010
0100
1000
0001
1000
0001
1000
0010
0100
0001
1000
0010
,
0101
1000
0010
0101
0010
0001
1010
0010
,
0101
0010
1000
0010
0100
0001
1010
0010
,
0101
0010
0001
0110
1000
0010
0101
0010
,
1100
0000
0010
0000
0001
1000
0001
0000
1100
0000
0011
0000
0010
0100
0001
0000
,
1010
0001
0100
1010
0100
1000
0101
0100
,
1010
0100
0001
0100
0010
1000
0101
0100
,
1010
0100
1000
0110
0001
0100
1010
0100
,
0011
0000
0100
0000
1000
0001
1000
0000
0001
0010
0100
1000
0100
0010
0001
1000
,
0011
0100
1000
0011
1000
0010
1100
1000
,
0011
1000
0100
1000
0001
0010
1100
1000
,
0011
1000
0010
1001
0100
1000
0011
1000
,
0101
0000
1000
0000
0010
0100
0010
0000
0101
0000
1010
0000
1000
0001
0010
0000
,
0101
1000
0010
0101
0010
0001
1010
0010
,
0101
0010
1000
0010
0100
0001
1010
0010
,
0101
0010
0001
0110
1000
0010
0101
0010
,
1100
0000
0010
0000
0001
1000
0001
0000
1000
0100
0010
0001
0010
0100
1000
0001
,
1100
0001
0001
1100
0110
0001
0001
1100
,
0110
0001
0001
1100
0010
0100
0001
1000
,
1100
0001
0001
1100
0110
0001
0001
1100
,
0110
0001
0001
1100
0010
0100
0001
1000
,
0011
1000
1000
0011
0110
1000
1000
0011
,
0110
1000
1000
0011
0100
0010
1000
0001
,
0110
0000
1001
1001
0000
0011
0001
0001
,
0101
0000
0110
1001
0000
0110
0001
1010
,
1100
0001
0001
1100
0110
0001
0001
1100
,
0110
0001
0001
1100
0010
0100
0001
1000
,
1100
0001
0001
1100
0110
0001
0001
1100
,
0110
0001
0001
1100
0010
0100
0001
1000
,
0011
1000
1000
0011
0110
1000
1000
0011
,
0110
1000
1000
0011
0100
0010
1000
0001
,
0110
0000
1001
1001
0000
0011
0001
0001
,
0101
0000
0110
1001
0000
0110
0001
1010
,
2100
0000
0000
0000
,
0000
3001
0020
0000
0032
0000
0000
1003
,
0200
0000
0000
0000
0000
2300
3020
0000
,
0032
0000
0000
0000
0003
0000
0010
1000
0002
0000
0000
0000
0000
0000
0000
0000
0023
0000
0000
0000
0000
0000
0000
0000
2030
0000
0000
0000
0000
0000
0000
0000
,
3012
0000
0000
0000
0000
1003
0200
0000
,
0320
0000
0032
0000
0113
0011
0110
1100
,
0101
0000
0000
1000
0000
0000
0010
0000
0000
1000
0000
0000
0001
0000
0000
0100
0000
0000
0001
0000
0000
1000
0000
0000
0010
0000
0000
0100
0000
0000
0001
0000
0000
1000
0000
0000
0001
0000
0010
0000
0100
0000
1000
0000
0100
0000
0010
0000
,
0001
0000
0000
1000
0000
0000
0010
0000
0000
0100
0000
0000
0001
0000
0000
1000
0000
0000
0001
0000
0000
0100
0000
0000
0010
0000
0000
0100
0000
0000
0001
0000
0000
1000
0000
0000
0001
0000
0010
0000
0100
0000
1000
0000
0100
0000
0010
0000
,
0001
0010
0100
1000
0100
0010
0001
0010
0100
1000
0100
0010
0001
0010
0100
1000
,
0100
0001
0100
0010
1000
0010
0100
0001
0100
0010
1000
0010
0100
0001
0100
0001
,
1010
0001
0100
0010
1000
0010
0001
1000
0100
0001
0010
1000
,
0011
1000
0010
0100
0001
1000
0001
1000
0001
0100
0010
0100
,
1010
0001
0100
0001
1000
0001
0100
0010
1000
0001
1000
0010
,
1100
0001
0100
0011
1000
0100
1001
0000
0000
0000
0000
0000
,
1000
0000
0100
0000
0010
0000
0001
0000
0000
1000
0000
0000
0010
0000
0000
0001
0000
0000
0100
0000
0000
1000
0000
0000
0010
0000
0000
0001
0000
0000
1000
0000
0000
0010
0000
0000
0100
0000
0000
0001
0000
0000
1000
0000
0000
0010
0000
0000
,
0001
0000
0010
0000
0100
0000
1000
0000
0000
0010
0000
0000
0100
0000
0000
0001
0000
0000
1000
0000
0000
0010
0000
0000
0100
0000
0000
0001
0000
0000
1000
0000
0000
0001
0000
0000
0100
0000
0000
1000
0000
0000
0010
0000
0000
0100
0000
0000
,
0001
0000
1000
0000
0010
0000
0100
0000
0000
0001
0000
0000
1000
0000
0000
0010
0000
0000
0100
0000
0000
0001
0000
0000
1000
0000
0000
0001
0000
0000
0100
0000
0000
0010
0000
0000
1000
0000
0000
0001
0000
0000
0100
0000
0000
0010
0000
0000
,
1001
0110
1001
0000
,
1100
0010
0100
0010
0100
0010
0101
1000
0010
1000
0010
1000
0110
0001
0100
0001
,
0110
0110
0000
1001
0000
0011
0001
0110
,
2001
0000
0000
3110
0000
1100
0000
0011
0000
0110
0000
0000
,
0011
1000
0001
0010
0100
1000
0010
0100
0001
1000
0001
1000
0201
0000
0300
0000
,
0011
1000
0010
0100
0001
1000
0010
1000
0001
0100
0001
1000
0010
0100
0001
1000
,
0011
1000
0010
0100
0010
1000
0001
1000
0010
0100
0001
1000
0010
0100
0001
1000
,
0110
1100
0011
0110
0000
0110
0000
0011
,
1100
0011
1100
0012
0000
0000
0000
0003
,
0001
1000
0001
0100
0010
0000
2100
0000
3001
0100
0001
1000
0010
0000
0012
0000
,
1003
0010
0100
0001
1100
0000
0002
0000
1003
0010
0100
0001
1100
0000
0012
0000
,
1003
0000
0010
0000
0100
0000
0001
0000
0000
1000
0000
0000
0010
0000
0000
0100
0001
0000
0010
0000
0000
1000
0000
0000
0010
0000
0000
0100
0000
0000
0001
0000
0000
1000
0000
0000
0001
0000
0000
1000
0000
0000
0001
0000
0000
1000
0000
0000
,
0001
0000
0010
0000
0001
0000
0010
0000
0001
0000
0010
0000
0001
0000
0000
1000
0000
0000
0100
0000
0000
0010
0000
0000
0001
0000
0000
1000
0000
0000
0001
0000
0000
1000
0000
0000
0010
0000
0000
0100
0000
0000
0001
0000
0000
1000
0000
0000
,
0011
1000
0010
0100
0001
1000
0001
1000
0010
0100
0001
0010
0100
1000
0001
0010
,
1100
0001
0100
0010
1000
0001
1000
0001
0010
0100
0001
1000
0010
0100
0001
1000
,
0110
0000
0000
0000
0000
0000
0110
0000
0000
0000
0000
0000
0000
0000
0000
0000
0000
0000
1100
0000
0000
0000
0000
0000
0001
0000
0010
0000
0100
0000
1000
0000
0000
0100
0000
0000
0001
0000
0000
0100
0000
0000
0001
0000
0000
1000
0000
0000
,
0001
0010
0100
1000
0010
0100
0011
0000
0000
1100
0000
0000
0012
0000
0000
0000
0000
0000
0003
0000
0000
0000
0000
0000
,
1000
0100
0010
0001
0010
0100
1000
0100
0010
0001
0010
0100
1000
0100
0010
0001
,
1100
0011
0011
1100
0110
0011
1100
1100
,
0011
1000
0010
0001
0100
0001
1100
0001
0100
0010
1000
0001
,
2100
0000
0000
0000
0000
0000
3011
0100
1000
0012
0000
0000
,
1003
0010
0100
0001
1000
0001
1000
0010
0001
0100
1000
0010
0100
0001
1000
0001
,
1000
0010
0100
0001
1000
0001
1000
0010
0100
0001
1000
0010
,
0102
0000
0000
0000
0000
0000
0000
0000
0000
0000
0000
0000
1103
0000
0000
1000
0000
0000
0011
0000
1000
0000
0010
0000
,
0102
0000
0000
0000
0000
0000
0000
0000
2013
0000
0000
0000
0000
0100
0010
0100
,
3011
1000
0010
0101
1000
0010
1100
0001
0100
1010
0100
1000
,
0011
0100
1000
0100
0010
0001
1000
0001
1000
0010
0100
0001
1000
0010
0100
0001
,
1100
0010
0100
0001
0100
0000
0000
0000
0011
1000
0010
0100
0001
0000
0000
0000
,
1010
0001
0100
0010
0100
0000
0001
0000
1000
0000
0010
0000
0100
0000
0001
0000
,
2100
0000
0001
3000
0102
0000
1103
0000
,
2010
0000
3011
0110
,
1000
0010
0001
1000
0010
0100
0001
1000
0010
0100
0001
1000
,
0011
1100
0110
0011
0110
0110
0110
0110
,
0011
0000
1000
0001
0100
0010
1000
0000
1100
0000
0001
0100
0010
1000
0010
0000
,
0101
0000
0010
1000
0001
1000
0010
0000
1010
0000
0100
0010
1000
0001
1000
0000
,
0011
0000
1000
0010
0100
0001
1000
0000
0110
0000
0001
1000
0010
0100
0010
0000
,
1100
0000
0001
1000
0001
0100
0010
0000
0101
0000
0010
1000
0001
1000
0010
0000
,
0011
0000
1000
0001
0100
0010
1000
0000
1100
0000
0001
0100
0010
1000
0010
0000
,
0101
0000
0010
1000
0001
1000
0010
0000
1010
0000
0100
0010
1000
0001
1000
0000
,
0011
0000
1000
0010
0100
0001
1000
0000
0110
0000
0001
1000
0010
0100
0010
0000
,
1100
0000
0001
1000
0001
0100
0010
0000
0101
0000
0010
1000
0001
1000
0010
0000
,
0011
0000
1000
0001
0100
0010
1000
0000
1100
0000
0001
0100
0010
1000
0010
0000
,
0101
0000
0010
1000
0001
1000
0010
0000
1010
0000
0100
0010
1000
0001
1000
0000
,
0011
1000
0010
0100
0001
0100
0001
1000
,
0012
1100
1100
1100
,
1103
0010
0100
0010
0100
0010
0100
0010
0101
1000
0100
1000
0100
1000
0100
1000
,
0110
0001
1000
0001
1000
0001
1000
0001
0110
1000
0010
1000
0010
1000
0010
1000
,
0011
1000
0001
1000
0001
1000
0001
1000
0110
0001
0100
0001
0100
0001
0100
0001
,
1100
0001
0110
1000
0110
0001
1010
0100
0011
1000
0110
0001
,
1100
0010
0100
0010
0100
0010
0100
0010
0101
1000
0100
1000
0100
1000
0100
1000
,
0110
0001
1000
0001
1000
0001
1000
0001
0110
1000
0010
1000
0010
1000
0010
1000
,
0011
1000
0001
1000
0001
1000
0001
1000
0110
0001
0100
0001
0100
0001
0100
0001
,
1100
0010
0100
0010
0100
0010
0100
0010
0101
1000
0001
1000
0001
1000
0001
0010
,
1100
0001
0010
0100
1000
0010
0100
0001
1100
0010
0001
1000
0010
0100
0001
1000
,
0110
0001
1000
0010
0100
0010
1000
0010
0101
0010
1000
0001
0100
0010
1000
0010
,
1100
0001
1000
0001
1000
0001
1000
0001
1000
0001
1000
0001
1000
0001
1000
0010
,
0002
0023
0230
2300
,
3011
0010
0010
1100
0010
0010
1100
0001
,
2100
0000
0000
0000
,
3101
0000
0001
0011
0000
0110
0000
1000
,
1010
0000
1010
2002
0000
0000
0000
3003
,
0001
0010
0100
1000
0100
0010
0001
0010
0100
1000
0100
0010
,
0001
0010
0100
1000
0100
0010
0001
0010
0100
1000
0100
0010
0001
0010
0100
1000
,
0001
0010
0100
1000
0100
0010
0001
0010
0100
1000
0100
0010
0001
0010
0100
1000
0100
0010
0001
0010
0100
1000
0100
0010
,
0001
0010
0100
1000
0001
1000
0001
1000
0012
0000
0000
0000
0000
0000
0000
0000
,
1103
0010
0100
0001
0100
0001
1100
0001
0100
0010
1000
0001
,
1100
0010
0001
1000
0010
0100
0011
1000
0010
1100
0001
1000
,
1100
0010
0100
0001
0100
0001
1100
0001
0100
0010
1000
0001
,
1100
0010
0001
1000
0010
0100
0011
0000
0000
1100
0000
0000
,
0011
0000
0110
0100
1100
1100
0110
0011
,
1100
0000
0011
0012
0000
0000
0000
0000
,
1003
0000
0100
0000
0010
0000
0001
0000
0010
0000
0100
0000
1000
0000
0000
0010
0000
0000
0100
0000
0000
0001
0000
0000
1000
0000
0000
0001
0000
0000
1000
0000
0000
0010
0000
0000
0100
0000
0000
0001
0000
0000
1000
0000
0000
0001
0000
0000
,
0020
0000
0000
0030
1010
0000
0011
0000
,
0101
1000
0010
0101
0010
0001
1010
0010
,
0101
0010
1000
0010
0100
0001
1010
0010
,
0101
0010
0001
0110
1000
0010
0101
0010
,
1100
0000
0010
0000
0001
1000
0001
0000
1100
0000
0011
0000
0010
0100
0001
0000
,
1010
0001
0100
1010
0100
1000
0101
0100
,
1010
0100
0001
0100
0010
1000
0101
0100
,
1010
0100
1000
0110
0001
0100
1010
0100
,
0011
0000
0100
0000
1000
0001
1000
0000
0001
0010
0100
1000
0100
0010
0001
1000
,
0011
0100
1000
0011
1000
0010
1100
1000
,
0011
1000
0100
1000
0001
0010
1100
1000
,
0011
1000
0010
1001
0100
1000
0011
1000
,
0101
0000
1000
0000
0010
0100
0010
0000
0101
0000
1010
0000
1000
0001
0010
0000
,
0101
1000
0010
0101
0010
0001
1010
0010
,
0101
0010
1000
0010
0100
0001
1010
0010
,
0101
0010
0001
0110
1000
0010
0101
0010
,
1100
0000
0010
0000
0001
1000
0001
0000
1000
0100
0010
0001
0010
0100
1000
0001
,
2100
0000
0000
0010
0000
0000
3002
0000
,
0213
0000
0000
0300
,
2010
0000
0000
3020
0000
0000
0032
0000
,
0203
0000
0000
0300
,
0102
0000
0000
0203
0000
0000
0320
0000
,
2030
0000
0000
3020
0000
0000
0230
0000
,
0302
0000
0000
0000
,
0000
0000
0000
0000
0000
0000
0000
0000
1003
0001
1000
0001
1000
0001
1000
0001
,
1100
0010
0100
0010
0100
0010
1100
0001
0100
0001
0100
0001
1100
0010
0100
0010
,
1100
0001
0100
0001
0100
0001
0100
0001
0100
0001
0100
0001
0100
0001
0100
0001
,
1100
0010
0100
0010
0100
0010
0101
1000
0010
1000
0010
1000
0011
0100
0010
0100
,
1010
0001
0100
0001
0100
0001
0100
0001
0100
0001
0100
0001
0100
0001
0100
0001
,
0110
1000
0010
1000
0010
1000
0110
0001
0100
0001
0100
0001
1100
0010
0100
0010
,
0101
1000
0010
1000
0010
1000
0110
0001
0010
0001
0010
0001
0110
1000
0010
0100
,
0011
1000
0010
1000
0010
1000
0010
1000
0010
1000
0010
1000
0010
0000
0000
0000
,
0011
0100
0010
0100
0010
0100
0011
1000
0001
1000
0001
1000
0011
0100
0010
0100
,
0011
1100
1100
0110
0011
1100
1100
0110
,
0011
1100
1100
0110
0011
1100
0110
0110
,
0102
0000
0000
0000
0000
0000
0000
0003
;
