#TITLE:Delta Beat;
#SUBTITLE:;
#ARTIST:ASK;
#TITLETRANSLIT:;
#SUBTITLETRANSLIT:;
#ARTISTTRANSLIT:;
#CREDIT:;
#BANNER:Delta beat-bn.jpg;
#BACKGROUND:Delta beat-bg.jpg;
#LYRICSPATH:;
#CDTITLE:KOMBO.png;
#MUSIC:ask-delta_beat_0-.mp3;
#OFFSET:-0.020;
#SAMPLESTART:96.960;
#SAMPLELENGTH:13.040;
#SELECTABLE:YES;
#BPMS:0.000=146.000;
#STOPS:;
#BGCHANGES:;
// cache tags:
#FIRSTBEAT:4.000;
#LASTBEAT:402.500;
#SONGFILENAME:Songs/Definitive Keyboard Megapack/Delta - ASK [KOMBO]/ask-delta_beat_0-.sm;
#HASMUSIC:1;
#HASBANNER:1;
#MUSICLENGTH:170.065;
// end cache tags

//---------------dance-single - KOMBO----------------
#NOTES:
     dance-single:
     KOMBO:
     Hard:
     13:
     1.000,1.000,1.000,1.000,0.744,949.000,484.000,350.000,0.000,112.000:

0000
0000
0000
0000
,
1001
0100
0010
0100
0001
0100
0010
0100
,
0001
0100
0010
0100
0001
1100
0011
0110
,
1001
0010
0100
0010
1000
0010
0100
0010
,
1000
0010
0100
0010
1000
0011
1100
0110
,
1001
0010
0100
0010
1000
0010
0100
0010
,
1000
0010
0100
0010
1000
0010
1100
0110
,
1001
0100
0010
0100
0001
0100
0010
0100
,
2000
0100
0010
0100
0001
0100
0010
0100
,
3011
0000
1010
0000
0101
0000
0110
0000
1100
0000
0101
0010
0000
1000
0101
0010
,
1100
0010
0101
0010
1100
0010
0101
0110
,
1100
0000
1010
0000
0101
0000
0110
0000
1100
0000
0101
0010
0000
1000
0101
0010
,
1100
0001
2110
0001
0011
0100
0110
0010
,
3101
0000
1010
0000
1100
0000
0110
0000
0011
0000
1010
0100
0000
0100
2011
0100
,
3011
0000
0011
0000
1100
0000
1100
0000
1001
0000
0011
1110
0000
0000
1100
0001
,
1110
0000
1010
0000
0110
0000
0110
0000
0111
0000
1010
0100
0000
0010
1100
0001
,
1110
0001
1100
0010
1101
0010
0101
1000
0111
1000
0011
0100
1011
0100
1010
0001
,
1110
0000
1000
0100
0000
1000
0010
0000
1001
0000
0100
0000
1001
0000
0100
0000
,
0110
0000
1001
0110
0000
0110
1001
0000
1111
0000
0000
0000
2002
0000
3003
0000
,
0101
0000
1010
0000
1100
0000
0110
0000
0011
0000
1010
0100
0000
0100
1001
0100
,
0011
0000
0000
0000
0011
0000
0000
0000
1100
0000
0000
0000
1100
0000
0000
0000
1001
0000
0000
0000
0011
0000
2220
0030
0300
3000
0000
0000
0000
0000
0010
0000
,
0101
0000
1010
0000
1100
0000
0110
0000
0011
0000
1010
0100
0000
0100
1001
0100
,
1011
0000
0011
0000
1100
0000
1100
0000
1110
0000
0000
0001
1110
0000
0010
0000
,
0101
0000
1010
0000
1100
0000
0110
0000
0011
0000
1010
0100
0000
0001
1010
0100
,
0011
0000
0000
0000
0011
0000
0000
0000
1100
0000
0000
0000
1100
0000
0000
0000
1001
0000
0000
0000
0011
0000
2220
0030
0300
3000
0000
0000
0000
0000
1000
0000
,
0111
0000
1010
0000
1100
0000
0110
0000
0111
0000
1010
0001
0000
0100
1010
0100
,
1011
0010
1101
0100
1011
0110
1101
0110
,
1111
0000
0101
0000
0011
0000
0110
0000
1100
0000
0101
0010
0000
0010
1001
0010
,
1100
0000
0000
0000
1100
0000
0000
0000
0011
0000
0000
0000
0011
0000
0000
0000
1001
0000
0000
0000
1100
0000
0222
0300
0030
0003
0000
0000
0000
0000
0100
0000
,
1010
0000
0101
0000
0011
0000
0110
0000
1100
0000
0101
0010
0000
0010
1001
0010
,
1101
0000
1100
0000
0011
0000
0011
0000
0111
0000
0000
1000
0111
0000
0100
0000
,
1010
0000
0101
0000
0011
0000
0110
0000
1100
0000
0101
0010
0000
1000
0101
0010
,
1100
0000
0000
0000
1100
0000
0000
0000
0011
0000
0000
0000
0011
0000
0000
0000
1001
0000
0000
0000
1100
0000
0222
0300
0030
0003
0000
0000
0000
0000
0001
0000
,
1110
0000
0101
0000
0011
0000
0110
0000
1110
0000
0101
1000
0000
0010
0101
0010
,
1100
0000
0100
0000
0011
0000
1100
0010
0000
0001
0110
0000
1001
0000
1001
0000
,
2001
0010
0101
0001
0110
0010
0101
0001
,
3110
0000
0000
0000
2000
3000
0000
0000
0002
0003
0200
0300
0000
0000
0200
0300
0000
0000
0000
0000
0220
0330
0000
0000
2002
3003
0000
0000
0220
0330
0000
0000
,
0202
0303
0000
0000
0002
0003
0000
0000
2020
3030
0200
0300
0000
0000
0200
0300
0000
0000
0000
0000
0020
0030
0000
0000
0202
0303
0000
0000
2000
3000
0000
0000
,
0220
0330
0000
0000
0002
0003
0000
0000
2020
3030
0002
0003
0000
0000
0002
0003
0000
0000
0000
0000
0000
0000
0000
0000
0020
0000
0000
0000
0000
0000
0000
0000
,
1031
0000
0000
0000
2000
3000
0000
0000
0002
0003
0200
0300
0000
0000
0200
0300
0000
0000
0000
0000
0020
0030
0000
0000
2002
3003
0000
0000
0020
0030
0000
0000
,
0202
0303
0000
0000
0002
0003
0000
0000
2020
3030
0200
0300
0000
0000
0200
0300
0000
0000
0000
0000
2020
3030
0000
0000
0202
0303
0000
0000
2020
3030
0000
0000
,
0220
0330
0000
0000
0002
0003
0000
0000
2020
3030
0002
0003
0000
0000
0002
0003
0000
0000
0000
0000
0020
0030
0000
0000
2002
3003
0000
0000
0020
0030
0000
0000
,
2001
0200
0000
0000
,
3311
0000
1000
0000
0200
0300
0010
0000
2002
3003
0020
0030
1000
0000
0020
0030
0000
0000
0000
0000
0020
0030
0000
0000
2002
3003
0000
0000
0200
0300
0000
0000
,
2000
3000
0100
0000
0002
0003
0010
0000
2000
3000
0200
0300
0001
0000
0200
0300
0000
0000
0000
0000
0020
0030
0000
0000
0002
0003
0000
0000
2000
3000
0000
0000
,
0110
0000
0001
0000
2000
3000
0010
0000
0002
0003
0200
0300
1000
0000
0200
0300
0000
0000
0000
0000
0220
0330
0000
0000
2002
3003
0000
0000
0220
0330
0000
0000
,
0202
0303
1000
0000
0002
0003
0100
0000
2020
3030
0200
0300
0001
0000
0200
0300
0000
0000
0000
0000
0020
0030
0000
0000
0202
0303
0000
0000
2000
3000
0000
0000
,
0220
0330
1000
0000
0002
0003
0100
0000
2020
3030
0002
0003
0100
0000
0002
0003
0000
0000
0000
0000
0002
0003
0000
0000
2020
3030
0000
0000
0200
0300
0000
0000
,
0002
0003
0100
0000
2000
3000
0010
0000
0002
0003
0200
0300
0010
0000
0200
0300
0000
0000
0000
0000
0200
0300
0000
0000
2002
3003
0000
0000
0020
0030
0000
0000
,
0202
0303
0010
0000
0002
0003
0100
0000
2020
3030
0200
0300
0001
0000
0200
0300
0000
0000
0000
0000
0020
0030
0000
0000
0202
0303
0000
0000
2000
3000
0000
0000
,
0220
0000
0000
0000
0000
0000
0330
0000
0000
0000
0000
0000
1000
0000
0000
0000
0000
0000
0000
0000
0000
0000
0000
0000
0002
0000
0000
0000
0000
0000
0003
0000
0000
0000
0000
0000
0100
0000
0000
0000
0000
0000
0000
0000
0000
0000
0000
0000
2020
0000
0000
0000
0000
0000
3030
0000
0000
0000
0000
0000
0002
0000
0000
0000
0000
0000
0003
0000
0000
0000
0000
0000
0000
0000
0000
0000
0000
0000
0000
0000
0000
0000
0000
0000
0020
0000
0000
0000
0000
0000
0030
0000
0000
0000
0000
0000
2002
0000
0000
0000
0000
0000
0000
0000
0000
0000
0000
0000
0000
0000
0000
0000
0000
0000
0000
0000
0000
0000
0000
0000
0000
0000
0000
0000
0000
0000
0000
0000
0000
0000
0000
0000
0000
0000
0000
0000
0000
0000
0000
0000
0000
0000
0000
3003
2002
0000
0000
0000
0000
0000
0000
0000
0000
0000
0000
0000
0000
0000
0000
0000
0000
0000
0000
0000
0000
0000
0000
0000
0000
0000
0000
0000
0000
0000
0000
0000
0000
0000
0000
0000
0000
0000
0000
0000
0000
0000
0000
0000
0000
0000
0000
0000
,
3013
0010
0010
0010
0020
0030
1000
0001
0000
0001
1000
0000
0010
0000
0110
0000
,
1000
1000
1000
1000
2000
3000
0100
0010
0000
0010
0100
0000
1000
0000
1001
0000
,
0001
0001
0001
0001
0002
0003
0010
0100
0000
0100
0010
0000
0001
0000
1001
0000
,
0100
0100
0100
0100
0200
0300
0001
1000
0220
0330
0000
0220
0330
0000
0220
0330
,
0110
0100
0100
0100
0200
0300
0001
1000
0000
1000
0001
0000
0100
0000
0110
0000
,
0011
0001
0001
0001
0002
0003
0010
0100
0000
0100
0010
0000
0001
0000
1001
0000
,
1001
1000
1000
1000
2000
3000
0100
0010
1001
0010
0100
0000
1000
0000
1001
0000
,
0110
0010
0010
0010
0120
0030
1000
0001
0110
0000
0001
1000
0110
0000
0010
0000
,
0210
0300
0011
0000
0210
0300
0011
0000
0210
0300
0000
0000
2100
3000
0020
0030
0000
0000
0020
0030
0102
0003
0000
0000
0110
0000
0000
0000
2002
3003
0000
0000
,
1002
0003
1010
0000
1002
0003
1010
0000
1002
0003
0000
0000
0201
0300
2000
3000
0000
0000
2000
3000
0021
0030
0000
0000
1001
0000
0000
0000
0220
0330
0000
0000
,
2001
3000
0101
0000
2001
3000
0101
0000
2001
3000
0000
0000
1020
0030
0002
0003
0000
0000
0002
0003
1200
0300
0000
0000
1001
0000
0000
0000
0220
0330
0000
0000
,
0120
0030
1100
0000
0120
0030
1100
0000
0120
0030
0000
0000
0012
0003
0200
0300
2222
0000
3333
0000
0000
0000
2222
0000
3333
0000
0000
0000
2222
0000
3333
0000
,
0121
0030
1100
0000
0120
0030
1100
0000
0120
0030
0000
0000
0012
0003
0200
0300
0000
0000
0200
0300
2010
3000
0000
0000
0110
0000
0000
0000
2002
3003
0000
0000
,
2001
3000
0101
0000
2001
3000
0101
0000
2001
3000
0000
0000
1020
0030
0002
0003
0000
0000
0002
0003
1200
0300
0000
0000
1001
0000
0000
0000
0220
0330
0000
0000
,
1102
0003
1010
0000
1002
0003
1010
0000
1002
0003
0000
0000
0201
0300
2000
3000
0111
0000
2000
3000
0021
0030
0000
0000
1001
0000
0000
0000
0220
0330
0000
0000
,
1210
0300
0011
0000
0210
0300
0011
0000
1210
0300
0000
0000
2100
3000
0020
0030
1101
0000
0000
0000
1010
0000
0100
0000
1001
0000
0010
0000
0101
0000
0010
0000
,
1001
0010
2000
3002
0203
0001
0320
0100
,
2030
0001
3020
1000
0032
0023
0130
0010
,
0000
0000
2000
3001
0200
0010
1300
0000
,
0020
0230
0302
2003
0001
3020
0230
0301
,
1000
0010
0002
0023
2030
0001
3010
1000
,
0100
0002
0203
1000
0320
2000
3130
0010
,
0000
0001
0200
0320
0032
0100
0023
0100
,
2031
0001
3200
0001
0320
0100
1031
0000
,
0101
0000
1010
0000
1100
0000
0110
0000
0011
0000
1010
0100
0000
0001
1010
0100
,
0101
0000
1010
0000
1100
0000
0110
0000
0011
0000
1010
0100
0000
0001
1010
0100
,
0101
0000
1010
0000
1100
0000
0110
0000
0011
0000
1010
0100
0000
0001
1010
0100
,
0101
0000
1010
0000
1100
0000
0110
0000
0011
0000
1010
0100
0000
0001
1010
0100
,
1001
0001
2001
3001
2001
3001
2001
3001
,
2001
3001
2001
3001
2001
3001
2001
3001
,
1101
0010
1001
0010
1101
0010
1001
0010
1101
0010
1001
0010
1101
0010
1001
0010
,
1001
0100
1000
0010
0001
0010
1000
0100
1000
0010
0001
0010
1000
0100
0010
0001
1000
0001
0010
0100
1000
0100
0010
0100
1000
0001
0010
0100
1000
0100
0000
0010
,
1101
0000
1010
0000
2100
0000
3210
0000
0312
0000
1013
0100
0000
0100
1001
0100
,
0021
0000
0000
0000
0131
0000
0000
0000
2100
0000
0000
0000
3110
0000
0000
0000
1001
0000
0000
0000
0011
0000
2220
0030
0300
3000
0000
0000
0000
0000
0010
0000
,
0101
0000
1010
0000
2100
0000
3110
0000
0012
0000
1013
0100
0000
0100
1001
0100
,
2011
3000
0011
0000
1100
0000
1100
0000
2110
0000
3000
0001
1110
0000
0010
0000
,
0101
0000
1010
0000
2100
0000
3210
0000
0312
0000
1013
0100
0000
0001
1010
0100
,
0011
0000
0000
0000
0021
0000
0000
0000
2130
0000
0000
0000
3110
0000
0000
0000
1001
0000
0000
0000
0011
0000
2220
0030
0300
3000
0000
0000
0000
0000
1000
0000
,
0111
0000
1010
0000
0102
0000
2103
0000
3211
0000
1310
0001
0000
0100
1010
0100
,
1012
0000
0013
0000
2101
0000
3100
0000
2012
3003
0110
0000
2102
3003
0110
0000
,
1111
0000
0101
0000
0012
0000
0123
0000
2130
0000
3101
0010
0000
0010
1001
0010
,
1200
0000
0000
0000
1310
0000
0000
0000
0012
0000
0000
0000
0113
0000
0000
0000
1001
0000
0000
0000
1100
0000
0222
0300
0030
0003
0000
0000
0000
0000
0100
0000
,
1010
0000
0101
0000
0012
0000
0113
0000
2100
0000
3101
0010
0000
0010
1001
0010
,
1102
0003
1100
0000
0011
0000
0011
0000
0112
0000
0003
1000
0111
0000
0100
0000
,
1010
0000
0101
0000
0012
0000
0123
0000
2130
0000
3101
0010
0000
1000
0101
0010
,
1100
0000
0000
0000
1200
0000
0000
0000
0312
0000
0000
0000
0113
0000
0000
0000
1001
0000
0000
0000
1100
0000
0222
0300
0030
0003
0000
0000
0000
0000
0001
0000
,
1110
0000
0101
0000
2010
0000
3012
0000
1123
0000
0131
1000
0000
0010
0101
0010
,
2101
0000
3100
0000
1012
0000
0013
0000
2102
3003
0110
0000
2012
3003
0110
0000
,
1001
0000
0001
0000
0001
0000
0001
1000
0000
1000
0001
0000
0110
0000
1001
0000
,
1111
0000
1001
0110
0000
0110
1001
0000
2222
0000
3333
0000
0000
0000
0000
0000
;
