#TITLE:Revontulet;
#SUBTITLE:;
#ARTIST:Sonata Arctica;
#TITLETRANSLIT:;
#SUBTITLETRANSLIT:;
#ARTISTTRANSLIT:;
#CREDIT:;
#BANNER:banner.bmp;
#BACKGROUND:background.bmp;
#LYRICSPATH:;
#CDTITLE:title.bmp;
#MUSIC:Sonata Arctica - Revontulet.mp3;
#OFFSET:-0.100;
#SAMPLESTART:40.000;
#SAMPLELENGTH:12.000;
#SELECTABLE:YES;
#BPMS:0.000=243.000,88.000=242.000,95.500=249.000,152.000=265.000,214.000=248.000,250.500=255.000,292.500=245.000,336.500=170.000,342.500=265.000,345.500=200.000;
#STOPS:;
#BGCHANGES:;
// cache tags:
#FIRSTBEAT:0.000;
#LASTBEAT:358.000;
#SONGFILENAME:Songs/toune 4/Sonata Arctica - Revontulet/Sonata Arctica - Revontulet.sm;
#HASMUSIC:1;
#HASBANNER:1;
#MUSICLENGTH:92.324;
// end cache tags

//---------------dance-single - Blank----------------
#NOTES:
     dance-single:
     Blank:
     Challenge:
     11:
     1.000,1.000,0.845,0.032,1.000,687.000,78.000,3.000,0.000,0.000:

0001
0010
0100
1000
0000
0000
1000
0100
0010
0001
0000
0000
0001
0010
0100
1000
,
0000
0000
0000
0000
0000
0000
0001
0010
0100
1000
0000
0000
1000
0100
0010
0001
,
0000
0000
0001
0010
0100
1000
0000
0000
1001
0000
0000
0000
1000
0010
0100
0001
,
0000
0000
0001
0100
0010
1000
0000
0000
1000
0010
0100
0001
0000
0000
0000
0000
,
0000
0000
1000
0100
0010
0001
0000
0000
0001
0100
0010
1000
0000
0000
1000
0100
,
0010
0001
0000
0000
0110
0000
0000
0000
0001
1000
0010
0100
0000
0000
0100
0010
,
1000
0001
0000
0000
0001
1000
0010
0100
0000
0000
0000
0000
0000
0000
1000
0100
,
0010
0001
0000
0000
0001
0010
0100
1000
0000
0000
1000
0100
0010
0001
0000
0000
,
0110
0000
0000
0000
0001
0100
0010
1000
0000
0000
1000
0010
0100
0001
0000
0000
,
0001
0100
0010
1000
0000
0000
0000
0000
0000
0000
0001
0100
0010
1000
0000
0000
,
1000
0010
0100
0001
0000
0000
0001
0100
0010
1000
0000
0000
1001
0000
0000
0000
,
0001
0010
0100
1000
0000
0000
1000
0100
0010
0001
0000
0000
0001
0010
0100
1000
,
0000
0000
0000
0000
0000
0000
1000
0010
0100
0001
0000
0000
0001
0100
0010
1000
,
0000
0000
1000
0010
0100
0001
0000
0000
1010
0000
0000
0000
1000
0010
0100
0001
,
0000
0000
0001
0100
0010
1000
0000
0000
1000
0010
0100
0001
0000
0000
0000
0000
,
0000
0000
0001
0010
0100
1000
0000
0000
1000
0100
0010
0001
0000
0000
0001
0010
,
0100
1000
0000
0000
1001
0000
0000
0000
1000
0001
0100
0010
0000
0000
0010
0100
,
0001
1000
0000
0000
1000
0001
0100
0010
0000
0000
0000
0000
0000
0000
0001
0100
,
0010
1000
0000
0000
1000
0010
0100
0001
0000
0000
0001
0100
0010
1000
0000
0000
,
0101
0000
0000
0000
0010
0100
0001
1000
0000
0000
1000
0001
0100
0010
0000
0000
,
0010
0100
0001
1000
0000
0000
0000
0000
0000
0000
0001
0010
1000
0100
0000
0000
,
0100
1000
0010
0001
0000
0000
0001
0010
1000
0100
0000
0000
1001
0000
0000
0000
,
0001
0010
0001
0100
0010
1000
0100
1000
0010
0100
0001
0010
,
0100
0000
1000
0000
0010
0000
0100
0000
1000
0000
0110
0000
0000
0000
0000
0000
0000
0000
0000
0000
0000
0001
0000
0000
,
0010
0001
0100
0010
1000
0100
0010
0001
,
0100
0010
1000
0100
0010
1001
0000
0110
,
0000
0000
0101
0000
0000
0000
0110
0000
0000
0000
0001
0010
0100
1000
0100
0010
,
1001
0000
0110
0000
0001
0100
0010
1000
,
0010
0100
0001
0010
0100
1000
0100
0010
,
0001
1000
0100
1010
0000
0101
0000
0101
,
0000
0000
1010
0000
0000
0000
1001
0010
0100
0001
0010
0100
1000
0011
0000
0000
,
0001
0010
0100
1000
0010
0100
0010
0001
,
1000
0001
0010
0100
1000
0010
0100
0011
,
0000
0000
1100
0000
0000
0000
1100
0000
0000
0000
0011
0000
0000
0000
0001
0100
,
0010
1000
0010
0100
0001
0000
0000
0000
0101
0000
0000
0000
0001
0000
0010
0000
,
0001
0100
1000
0100
0010
0001
0010
0100
,
0001
0010
0100
1000
0100
0011
0000
1010
,
0000
0000
1010
0000
0000
0000
0011
0000
0000
0001
0010
0100
1000
0010
0100
0001
,
1000
0000
0110
0000
0000
1010
0000
0000
,
0011
0000
0000
0110
0000
0000
1001
0000
,
0000
0000
0110
0000
0000
0011
0000
0000
,
1100
1010
0101
0000
,
0011
0000
0000
0110
0000
0000
1100
0000
,
0000
1001
0000
0000
0110
0000
0000
0000
,
0101
0000
0000
0011
0000
0000
1100
0000
,
0000
0110
0000
0000
0011
0000
0000
0000
,
1000
0100
1000
0100
0010
0001
0010
0001
,
0100
0010
1000
0001
0100
0010
0100
1000
,
0010
0100
0001
0010
0100
1000
0100
0011
,
0100
0000
0000
0000
0011
0000
0000
0000
0000
0100
0000
0000
1000
0000
0000
0100
0000
0000
0000
0000
0010
0000
0000
0000
0001
0000
0000
0000
0100
0000
0000
0000
,
0010
1000
0100
0010
0001
0010
0100
1000
,
0010
0100
0010
0100
0001
0100
0010
1000
,
0001
0010
0100
1000
0100
0010
0001
1000
,
0110
0000
0110
0000
0000
0010
0001
0100
,
0010
1000
0100
1000
0010
0100
0001
0010
,
0100
1000
0010
1100
0000
0011
0000
0110
,
0000
0000
1001
0000
0000
0000
0001
0100
0010
1000
0010
0100
0001
0010
0000
0000
,
0110
0000
0001
0010
0100
0010
0100
1000
,
0100
0010
0100
0010
0001
1000
0100
0100
,
0010
0101
0000
1010
0000
1100
0000
0101
,
0000
0000
0001
0010
0100
1000
0010
0100
0001
1000
0000
0000
0001
0000
0010
0000
,
0001
0100
0010
1000
0100
0010
0001
0100
,
0010
1000
0100
0010
0001
0110
0000
1100
,
0000
0000
0110
0000
0000
0000
0011
0000
0000
1000
0100
0010
0100
1000
0001
0010
,
0100
1000
0000
0000
0110
0000
0000
0000
0001
0000
0010
0000
0001
0000
0100
0000
,
0010
0100
1000
0100
1000
0010
0100
1000
,
0001
0010
0100
1001
0000
0011
0000
0101
,
0000
0000
1100
0000
0000
0000
0010
0001
0100
0010
1000
0100
0010
0001
0000
0000
,
0000
0100
1000
0100
0010
0001
0100
0010
1000
0000
0000
0000
0100
0010
1000
0001
,
0100
0010
1000
0100
0012
0000
0000
0000
0000
0000
0000
0000
0000
0000
0000
0000
,
0000
0000
0000
0003
,
0000
0000
0000
0000
,
0000
0000
0000
0001
0000
0010
0000
0100
,
0000
0000
1000
0100
0010
0001
0000
0000
0001
0010
0100
1000
0000
0000
1000
0100
,
0010
0001
0000
0000
0000
0000
0000
0000
1000
0100
0010
0001
0000
0000
0001
0100
,
0010
1000
0000
0000
1000
0100
0010
0001
0000
0000
1001
0000
0000
0000
0000
0000
,
0001
0100
0010
1000
0000
0000
1000
0010
0100
0001
0000
0000
0001
0100
0010
1000
,
0000
0000
0000
0000
0010
0001
1000
0100
0000
0000
0100
1000
0001
0010
0000
0000
,
0010
0001
1000
0100
0000
0000
0011
0000
0000
0000
0001
0010
0100
1000
0000
0000
,
1000
0100
0010
0001
0000
0000
0001
0010
0100
1000
0000
0000
0000
0000
0000
0000
,
0010
0100
0001
1000
0000
0000
1000
0001
0100
0010
0000
0000
0010
0100
0001
1000
,
0000
0000
0110
0000
0000
0000
0001
0010
1000
0100
0000
0000
0100
1000
0010
0001
,
0000
0000
0001
0010
1000
0100
0000
0000
0000
0000
0000
0000
1000
0010
0001
0100
,
0000
0000
0100
0001
0010
1000
0000
0000
1000
0010
0001
0100
0000
0000
1010
0000
,
0000
0001
0010
0100
1000
0010
0100
0001
,
0010
0000
0100
0000
1000
0000
0100
0000
0010
0000
0001
0010
0100
0000
0000
0000
,
1000
0100
0010
0000
0000
0000
0001
0010
0100
1000
0010
0100
0001
0010
0100
1000
,
0100
0010
0100
1000
0100
0010
0001
1000
0100
0010
0100
1000
0001
0010
0100
0010
,
0001
1000
0100
0010
0001
0010
0001
0010
0100
2002
0000
0000
0000
0000
0000
0000
,
0000
0000
3003
0000
;
