#TITLE:All I Ever Wanted;
#SUBTITLE:;
#ARTIST:Basshunter;
#TITLETRANSLIT:;
#SUBTITLETRANSLIT:;
#ARTISTTRANSLIT:;
#CREDIT:;
#BANNER:;
#BACKGROUND:;
#LYRICSPATH:;
#CDTITLE:;
#MUSIC:All I Ever Wanted- BH.ogg;
#OFFSET:0.400;
#SAMPLESTART:41.813;
#SAMPLELENGTH:12.000;
#SELECTABLE:YES;
#BPMS:0.000=144.980,40.000=72.490,42.000=144.980,190.000=72.490,228.000=144.980,308.000=72.490,310.000=144.980;
#STOPS:;
#BGCHANGES:;
// cache tags:
#FIRSTBEAT:0.000;
#LASTBEAT:377.250;
#SONGFILENAME:Songs/new cedric/Basshunter - All I Ever Wanted/Basshunter - All I Ever Wanted.sm;
#HASMUSIC:1;
#HASBANNER:0;
#MUSICLENGTH:105.000;
// end cache tags

//---------------dance-single - ----------------
#NOTES:
     dance-single:
     :
     Hard:
     10:
     1.000,1.000,1.000,1.000,1.000,840.000,185.000,216.000,243.000,6.000:

MMM0
M00M
MMM0
M00M
M00M
0000
0MM0
M00M
MMMM
M00M
M00M
0000
M00M
M00M
MMMM
000M
,
MMMM
0000
0MM0
0MM0
0MM0
0000
0MM1
0000
0010
0000
0100
0000
0010
0000
0100
0000
,
2100
0000
0000
0100
0000
3000
1000
0000
0100
0000
0010
0000
0001
0000
0100
0000
,
0110
0000
0000
2002
0000
0MM0
0MM0
30M3
M1MM
M0MM
MMMM
2MM2
0000
0MM0
0MM0
3M03
,
MM1M
MM0M
MMMM
2MM2
0000
0MM0
0MM0
30M3
M1MM
M0MM
MMMM
2MM2
0000
0000
0000
0000
,
0000
0000
0000
0000
0000
0000
0000
0000
0000
3003
0000
0000
0000
0000
0000
0000
0000
0000
1000
0000
0000
0000
0000
0000
0100
0000
0000
0000
M000
0000
0010
0000
0000
0000
0000
0000
00M1
0000
0000
0000
0000
0000
0100
0000
M000
0000
0000
0000
,
0001
0000
0000
0000
0000
0000
0000
0000
0000
1001
0000
0000
0M00
0000
0000
0000
0000
0000
0001
0000
0000
0000
0000
0000
M010
0000
0000
0000
0000
0000
0100
0000
0000
0000
0000
0000
1000
0000
0000
0000
000M
0000
0100
0000
0000
0000
0000
0000
,
0110
0000
0000
0000
0000
0000
0000
0000
0000
1100
0000
0000
0000
0000
0000
0000
0M00
0000
0000
0000
0000
0000
0000
0000
0010
0000
0000
0000
0000
0000
0000
0000
M000
0002
0000
0000
0000
0000
0000
0000
00M0
0000
0100
0000
0000
0000
0000
0000
,
0103
0001
0100
0001
1000
0010
1000
0010
1000
0100
1000
0100
1000
0001
1000
0001
,
1000
0000
0000
1000
0100
0010
0001
0000
0000
0001
0010
0100
1000
0000
0000
1000
0010
0100
0001
0000
0000
0001
0100
0010
,
1M00
MMM0
0M00
00M0
0MMM
00M0
0M00
MMM0
2M00
0000
3200
0000
2300
0000
3200
0000
,
0320
0000
0032
0000
0203
0000
0320
0000
0130
0001
0010
0001
0010
0000
0010
0100
,
2000
0000
3020
0000
0230
0000
0302
0000
0023
0000
0230
0000
0320
0000
0031
0010
,
0001
0000
0010
0100
0010
0000
0100
1000
0200
0000
0300
0000
0M00
0000
0100
0010
,
0200
0000
0320
0000
0230
0000
0310
0000
0210
0000
0300
0110
0000
0000
0001
1000
,
0010
0000
0020
0000
2030
0000
3020
0000
0231
0000
0300
0012
0000
0000
0013
0001
,
0010
0000
0002
0000
0203
0000
0310
0000
2010
0000
3000
0110
0000
0000
0100
0010
,
0200
0000
0302
0000
0023
0000
0031
0000
2001
0000
3000
0000
0000
0000
0100
1000
,
0200
0000
0320
0000
0032
0000
0013
0000
0011
0000
0000
0012
0000
0000
0013
0100
,
1000
0000
2000
0000
3200
0000
0310
0000
0012
0000
0003
1001
0000
0000
0001
0010
,
0001
0000
0002
0000
0203
0000
0310
0000
2000
0000
3000
1001
0000
0000
1000
0001
,
1000
0000
2000
0000
3002
0000
0203
0000
0320
0000
0030
0000
0000
0000
1000
0100
,
2000
0000
3200
0000
2310
0000
3100
0000
2100
0000
3000
0100
0000
0000
0020
0000
,
0032
0000
0203
0000
0320
0000
0130
0000
0120
0000
0030
0110
0000
0000
0002
0000
,
2003
0000
3020
0000
2030
0000
3200
0000
1301
0000
0000
1001
0000
0000
1000
0100
,
1000
0000
0001
0000
0010
0000
0100
0000
1000
0100
1000
0100
0010
0100
0010
0001
,
0010
0001
0100
0001
0100
0001
0010
0100
1000
0000
1000
0000
M000
0000
2000
0000
,
3200
0000
0000
2300
0000
0000
3200
0000
0000
1300
0100
0010
0001
0000
0000
0002
0000
0000
0023
0000
0000
0230
0000
0000
,
2300
0000
0000
3200
0000
0000
0320
0000
0000
0031
0010
0100
1000
0000
0000
M200
0000
0000
1300
0000
0000
1000
0100
0010
,
0002
0000
0000
0000
0000
0000
0023
0000
0000
0000
0000
0000
0031
0000
0000
0000
0000
0000
0001
0000
0010
0000
0100
0000
1000
0000
0000
0100
0000
0000
0010
0000
0000
0001
0000
0000
0100
0000
0000
0010
0000
0000
0100
0000
0000
1000
0000
0000
,
0100
0001
0010
0001
0100
0001
0010
0100
2MMM
0000
0MMM
0000
32MM
0000
M0MM
0000
,
M3M2
0000
MMM0
0000
M2M3
0000
M0MM
0000
1300
0000
0000
1100
0000
1000
0100
0000
,
0110
0000
0000
0000
0001
0000
0000
0000
0110
0000
0000
0000
0010
0000
0000
0000
1010
0000
0000
M0M0
0000
0000
1010
0000
0000
0000
1000
0000
0100
0000
0000
0000
,
0120
0000
0000
0000
0001
0000
0030
0000
0110
0000
0000
0000
0100
0000
0000
0000
1100
0000
0000
MM00
0000
0000
1100
0000
0000
0000
0010
0000
0001
0000
0000
0000
,
0011
0000
0000
0000
01M0
0000
0000
0000
0011
0000
0000
0000
0001
0000
0000
0000
1010
0000
0000
M0M0
0000
0000
1010
0000
0000
0000
1000
0000
0010
0000
0000
0000
,
1010
0000
0000
0000
0010
0000
0000
0000
0210
0000
0000
0000
0301
0000
0000
0000
0011
0000
0000
00MM
0000
0000
0011
0000
0000
0000
0001
0000
0010
0000
0000
0000
,
0011
0000
0000
0000
0010
0000
0000
0000
0110
0000
0000
0000
1000
0000
0000
0000
1100
0000
0000
M0M0
0000
0000
1010
0000
0000
0000
1000
0000
0010
0000
0000
0000
,
1100
0000
0000
0000
0001
0000
0000
0000
1010
0000
0000
0000
0100
0000
0000
0000
1001
0000
0000
M00M
0000
0000
1001
0000
0000
0000
1000
0000
0100
0000
0000
0000
,
0011
0000
0000
0000
0001
0000
0000
0000
0110
0000
0000
0000
0010
0000
0000
0000
1010
0000
0000
M0M0
0000
0000
1010
0000
0000
0000
0010
0000
0100
0000
0000
0000
,
0011
0000
0000
0000
0010
0000
0000
0000
0110
0000
0000
0000
1000
0000
0000
0000
0101
0000
0000
0M00
0000
0000
0011
0000
0000
0000
0001
0000
0010
0000
0000
0000
,
0110
0000
0000
0000
1000
0000
0000
0000
0110
0000
0000
0000
0100
0000
0000
0000
0101
0000
0000
0M0M
0000
0000
0101
0000
0000
0000
0001
0000
0010
0000
0000
0000
,
0210
0000
0000
0000
1000
0000
0300
0000
0110
0000
0000
0000
0010
0000
0000
0000
0011
0000
0000
00MM
0000
0000
0011
0000
0000
0000
0100
0000
1000
0000
0000
0000
,
1100
0000
0000
0000
0010
0000
0000
0000
1100
0000
0000
0000
1000
0000
0000
0000
0101
0000
0000
0M0M
0000
0000
0101
0000
0000
0000
0001
0000
0100
0000
0000
0000
,
0101
0000
0000
0000
0100
0000
0000
0000
0120
0000
0000
0000
1030
0000
0000
0000
1100
0000
0000
MM00
0000
0000
1100
0000
0000
0000
1000
0000
0100
0000
0000
0000
,
1100
0000
0000
0000
0100
0000
0000
0000
0110
0000
0000
0000
0001
0000
0000
0000
0011
0000
0000
00M0
0000
0000
0101
0000
0000
0000
0001
0000
0100
0000
0000
0000
,
0011
0000
1000
0000
0101
0000
0010
0000
1001
0100
0010
0001
0010
0001
0010
0100
,
1000
0100
0010
0001
0100
0010
0100
0001
0010
0001
0010
0100
0010
0100
1000
0010
,
1000
0000
0000
0100
0000
0000
0010
0000
0000
0001
0000
0000
0100
0000
0000
0001
0000
0000
0010
0000
0000
0100
0000
0000
20M0
0000
0000
0200
0000
0000
3020
0000
0000
0302
0000
0000
0M30
0000
0000
0023
M000
0000
0200
0000
000M
2030
0000
0000
,
0300
0000
0000
3000
000M
0000
0200
0000
M000
0000
0000
0000
2300
0000
0000
3000
000M
0000
2000
0000
0000
3200
0000
0000
0340
0000
0000
0034
0M00
0000
0043
0000
0000
0430
0000
0000
2300
0000
0000
3002
00M0
0000
2003
0000
0000
3020
0000
0000
,
0430
0000
0000
0000
0000
0000
0000
0000
0000
0000
0000
0000
0304
0000
0000
0000
M000
0000
0000
0000
0000
0000
0000
0000
0043
0000
0000
0000
0000
0000
0000
0000
0M00
0000
0000
0000
0034
0000
0000
0000
0000
0000
0000
0000
0000
0000
0000
0000
0203
0000
0000
0000
0000
0000
0000
0000
0000
0000
0000
0000
0320
0000
0000
0000
000M
0000
0000
0000
0000
0000
0000
0000
0230
0000
0000
0000
0000
0000
0000
0000
M000
0000
0000
0000
0302
0000
0000
0000
0000
0000
0000
0000
0000
0000
0000
0000
0043
0000
0000
0000
0000
0000
0000
0000
0000
0000
0000
0000
0430
0000
0000
0000
000M
0000
0000
0000
0000
0000
0000
0000
4300
0000
0000
0000
0000
0000
0000
0000
0000
0000
0000
0000
3400
0000
0000
0000
0000
0000
0000
0000
0000
0000
0000
0000
032M
0000
0000
0000
0000
0000
M000
0000
0000
0000
0000
0000
0430
0000
0000
0000
0000
0000
0000
0000
0000
0000
0000
0000
2300
0000
0000
0000
0000
0000
0000
0000
00M0
0000
0000
0000
3200
0000
0000
0000
0000
0000
0000
0000
0000
0000
0000
0000
,
0304
0000
0000
0403
0000
0000
4300
0000
000M
3040
0000
0000
M230
0000
0000
0304
00M0
0000
0403
0000
M000
0340
0000
0000
043M
0000
0000
4300
0000
0000
3400
0000
000M
0340
0000
0000
0230
0000
0000
0302
M000
0000
0023
0000
0M00
0032
0000
0000
,
0043
0000
0000
0430
M000
0000
0340
0000
0000
0034
0000
0000
M203
0000
0000
0320
000M
0000
0230
0000
M000
0320
0000
0000
403M
0000
0000
3040
0M00
0000
4030
0000
000M
3400
0000
0000
2300
0000
0000
3040
000M
0000
0230
0000
0000
0302
0000
0000
,
M043
0000
0000
0430
000M
0000
0340
0000
0000
0034
0000
0000
M203
0000
0000
0340
000M
0000
4030
0000
0000
3040
0000
0000
4M30
0000
0000
3040
000M
0000
0430
0000
M000
0340
0000
0000
0230
0000
0000
0302
00M0
0000
0203
0000
M000
0320
0000
0000
,
043M
0000
0000
0304
0000
0000
0043
0000
0M00
0034
0000
0000
0203
0000
0000
0302
0000
0000
0023
0000
M000
0230
0000
0000
0340
0000
0000
0430
000M
0000
4300
0000
0000
3400
0000
0000
032M
0000
0000
0430
0000
0000
2300
0000
000M
3020
0000
0000
,
0430
0000
0000
0000
0000
0000
0000
0000
0000
0000
0000
0000
0304
0000
0000
0000
M000
0000
0000
0000
0000
0000
0000
0000
0403
0000
0000
0000
0000
0000
0000
0000
0000
0000
0000
0000
4300
0000
0000
0000
0000
0000
0000
0000
0000
0000
0000
0000
3002
0000
0000
0000
0000
0000
0000
0000
0000
0000
0000
0000
0043
0000
0000
0000
0000
0000
0000
0000
0000
0000
0000
0000
4030
0000
0000
0000
0000
0000
0000
0000
0000
0000
0000
0000
3400
0000
0000
0000
0000
0000
0000
0000
0000
0000
0000
0000
130M
0000
0000
0000
0000
0000
0010
0000
0000
0000
0000
0000
1000
0000
0000
0000
0000
0000
0010
0000
0000
0000
0000
0000
1000
0000
0000
0000
0000
0000
0100
0000
0000
0000
0000
0000
1000
0000
0000
0000
0000
0000
0100
0000
0000
0000
0000
0000
0010
0000
0000
0000
0000
0000
0001
0000
0000
0000
0000
0000
0010
0000
0000
0000
0000
0000
0001
0000
0000
0000
0000
0000
0100
0000
0000
0000
0000
0000
0001
0000
0000
0000
0000
0000
0100
0000
0000
0000
0000
0000
0010
0000
0000
0000
0000
0000
,
0100
0010
0100
0001
0010
0001
0010
0100
0010
0100
0010
0100
1000
0100
1000
0100
0010
0100
0010
0001
0010
0001
0100
0010
0100
0010
0100
0001
0100
0010
1000
0010
,
0100
0001
0100
0010
0100
0010
0100
0001
0010
0100
1000
0100
1000
0100
0010
0001
0020
000M
0000
0000
000M
0000
0031
0010
0002
0000
0023
0000
0230
0000
1000
0300
,
0210
0320
0032
0023
0230
2300
3020
0230
,
0310
1000
0100
1000
0100
0M00
0100
0010
0002
0003
0200
0300
0020
0030
2000
3000
,
0200
0300
0020
0030
0200
0300
1000
0100
1000
0000
0100
0010
0100
0000
0010
0001
,
0040
0000
0000
0000
0030
0000
0010
0100
0020
0030
0200
0300
0020
0030
0200
0300
,
0110
0000
0000
0110
0000
0000
1000
0001
0200
0300
0200
0300
0002
0003
0200
0300
,
0020
0030
0000
1000
0000
0000
0100
1000
0200
0300
2000
3000
0020
0030
0200
0300
,
0101
0000
0000
0101
0000
0000
0010
0100
0020
0030
2000
3000
0200
0300
2000
3000
,
0002
0003
0000
0000
0000
0000
0010
0001
0020
0030
0200
0300
2000
3000
0200
0300
,
1100
0000
0000
2100
0000
0000
3100
0010
0002
0003
0002
0003
0020
0030
0200
0300
,
1001
0000
0000
1001
0000
0000
1000
0100
2000
3000
2000
3000
0020
0030
0200
0300
,
0102
0000
0003
0000
0000
0000
2001
0000
3000
000M
0000
0000
0001
0000
1000
0000
0002
0000
0003
0000
0002
0000
0003
0000
2000
0000
3000
0000
0020
0000
0030
0000
,
0200
0300
0000
0000
0000
0000
0001
0010
0002
0000
0010
0003
0102
0000
0010
0003
,
0012
0000
0000
0013
0000
0000
0200
0300
2000
3000
0020
0030
0200
0300
0020
0030
,
0110
0000
0000
0110
0000
0000
2000
3000
0002
0003
0200
0300
0002
0003
0020
0030
,
0011
0000
00MM
1100
0000
0000
0001
0010
0002
0003
2000
3000
0200
0300
2000
3000
,
0100
0010
0001
0010
0001
0100
0010
0100
0010
0100
0001
0010
0100
0010
0001
0010
,
0011
0000
0000
0000
0000
0000
0101
0000
0000
0000
0000
0000
0110
0000
0000
0000
0000
0000
0101
0000
0000
0100
0001
0100
,
0001
0000
0000
0000
0000
0000
0101
0000
0000
0000
0000
0000
0011
0000
0000
0000
0000
0000
0110
0000
0000
0010
0100
1000
,
0010
1010
0110
0110
0011
0011
0101
0101
,
1000
0010
0100
0010
0100
0001
0010
0001
0010
0100
0010
0100
1000
0010
1000
0100
,
40M0
30MM
040M
03MM
40M0
340M
03MM
0000
1000
0000
0000
0100
0000
1000
0100
0000
,
0110
0000
0001
0000
0110
0000
0010
0000
1010
0000
0000
1010
0000
1000
0100
0000
,
0110
0000
0001
0000
0110
0000
0100
0000
1100
0000
0000
1100
0000
0010
0001
0000
,
0011
0000
0100
0000
0011
0000
0001
0000
1010
0000
0000
1010
0000
1000
0010
0000
,
1010
0000
0010
0000
0210
0000
0301
0000
0011
0000
0000
0011
0000
0001
0010
0000
,
0011
0000
0010
0000
0110
0000
1000
0000
1100
0000
0000
1010
0000
1000
0010
0000
,
1100
0000
0001
0000
1010
0000
0100
0000
1001
0000
0000
1001
0000
1000
0100
0000
,
0011
0000
0001
0000
0110
0000
0010
0000
1010
0000
0000
1010
0000
0010
0100
0000
,
0011
0000
0010
0000
0110
0000
1000
0000
0101
0000
0000
0010
0000
0001
0010
0000
,
0110
0000
1000
0000
0110
0000
0100
0000
0101
0000
0000
0101
0000
0001
0010
0000
,
0110
0000
1000
0000
0110
0000
0010
0000
0011
0000
0000
0011
0000
0100
1000
0000
,
1100
0000
0010
0000
1100
0000
1000
0000
0101
0000
0000
0101
0000
0001
0100
0000
,
0101
0000
0100
0000
0120
0000
1030
0000
1100
0000
0000
1100
0000
1000
0100
0000
,
1100
0000
0100
0000
0110
0000
0001
0000
0011
0000
0000
0101
0000
0001
0100
0000
,
0011
0000
1000
0000
0101
0000
0010
0000
0010
0100
0010
0100
0001
0100
0001
0010
,
0001
0010
0100
0010
0100
1000
0100
0010
0001
0100
0010
0100
0010
1000
0010
1000
,
0100
1000
0100
0010
0001
0010
0001
0100
0110
0000
0000
2MM2
0000
0000
0000
0000
,
3003
0000
0MM0
0000
M00M
0MM0
0000
0000
0000
0000
0000
0000
0000
0000
0000
0000
;
