#TITLE:quasar;
#SUBTITLE:;
#ARTIST:Outphase;
#TITLETRANSLIT:;
#SUBTITLETRANSLIT:;
#ARTISTTRANSLIT:;
#CREDIT:;
#BANNER:quasar.png;
#BACKGROUND:quasar-bg.png;
#LYRICSPATH:;
#CDTITLE:;
#MUSIC:quasar.mp3;
#OFFSET:-1.460;
#SAMPLESTART:38.709;
#SAMPLELENGTH:12.000;
#SELECTABLE:YES;
#BPMS:0.000=155.000;
#STOPS:;
#BGCHANGES:;
// cache tags:
#FIRSTBEAT:0.000;
#LASTBEAT:305.000;
#SONGFILENAME:Songs/IzzySM Keyboard Mega Pack/Quasar 2/Quasar.sm;
#HASMUSIC:1;
#HASBANNER:1;
#MUSICLENGTH:126.281;
// end cache tags

//---------------dance-single - ----------------
#NOTES:
     dance-single:
     :
     Hard:
     9:
     0.548,0.725,0.317,0.261,0.040,411.000,40.000,33.000,0.000,0.000:  // measure 1
1000
1000
0000
1000
0000
0100
0000
0100
,  // measure 2
0000
0010
0000
0010
0000
0001
0000
0001
,  // measure 3
0000
0010
0000
0010
0000
0100
0000
0100
,  // measure 4
0000
1000
0000
1000
0000
0100
0100
0000
,  // measure 5
0000
1001
0000
0000
0000
0110
0000
0000
,  // measure 6
0000
0101
0000
0000
0000
1100
0000
0000
,  // measure 7
0000
0100
0000
0100
0000
0010
0000
0010
,  // measure 8
0000
1000
0000
1000
0000
0001
0000
0001
,  // measure 9
0000
1001
0000
0000
0000
0011
0000
0000
,  // measure 10
0000
1010
0000
0000
0000
0110
0000
0000
,  // measure 11
0000
0100
0000
0100
0000
0010
0000
0010
,  // measure 12
0000
0001
0000
0001
0000
1000
0000
1000
,  // measure 13
0001
1100
0001
1000
0001
1000
0010
1000
,  // measure 14
0010
1000
0100
0010
0100
0010
0001
0100
,  // measure 15
0001
0100
1000
0010
1000
0010
0002
1003
,  // measure 16
1000
0020
0130
0100
2000
3001
0001
0000
,  // measure 17
1001
0100
0010
0100
0001
0100
0010
0100
,  // measure 18
0001
0010
0100
1000
0100
0010
0001
0010
,  // measure 19
0100
0010
0001
0010
1000
0100
0002
0103
,  // measure 20
0100
0020
1030
1000
0200
0310
0010
1001
,  // measure 21
0000
0110
1000
0001
1000
0001
2000
3010
,  // measure 22
0010
0200
0310
0010
0020
0130
0100
2000
,  // measure 23
3001
0001
0000
0000
0000
0000
0002
1003
,  // measure 24
1000
0200
0310
0010
0002
0103
0100
0020
,  // measure 25
1030
1000
0000
0000
0000
0000
0020
0130
,  // measure 26
0100
0002
0013
0010
0200
1300
1000
0001
,  // measure 27
0000
1001
0000
0000
0000
0110
0000
0000
,  // measure 28
0000
0101
0000
0000
0000
0000
0000
0000
,  // measure 29
1000
0000
0000
0000
0000
0000
0000
0000
0000
0010
0000
0000
0000
0000
0000
0000
,  // measure 30
0000
0001
0000
0000
0000
0010
0000
0000
,  // measure 31
0000
1000
0000
0000
0000
0100
0000
0000
,  // measure 32
0000
0001
0000
0000
0000
0010
0000
0000
,  // measure 33
0000
1001
0000
0000
0000
0100
0000
0000
,  // measure 34
0000
0011
0000
0000
0000
0100
0000
0000
,  // measure 35
0000
1010
0000
0000
0000
0010
0000
0000
,  // measure 36
0000
0001
0000
0000
0000
0100
0000
0000
,  // measure 37
0000
1000
0100
0001
0100
1000
0010
0001
,  // measure 38
0010
1000
0100
0010
0100
1000
0100
0010
,  // measure 39
0001
0010
0100
0010
0001
0010
1000
0010
,  // measure 40
0001
0100
1000
0100
0001
0100
1000
0100
,  // measure 41
1000
0100
0010
0100
0010
0100
1000
0001
,  // measure 42
1000
0001
0010
0001
0010
0001
0100
0001
,  // measure 43
0100
0001
1000
0001
1000
0010
1000
0010
,  // measure 44
1000
0001
1000
0001
1000
0001
2000
0000
,  // measure 45
3001
1001
0000
0100
0000
0011
0000
0100
,  // measure 46
0000
1001
0000
0010
0000
1100
0000
0010
,  // measure 47
0000
0101
0000
0010
0000
1001
0000
0100
,  // measure 48
0000
0110
0000
1001
0000
0110
0000
0011
,  // measure 49
0000
1100
0010
0001
0010
1000
0100
1000
,  // measure 50
0010
0100
0010
0001
0010
1000
0010
0001
,  // measure 51
0100
1000
0100
0001
0010
0001
1000
0100
,  // measure 52
1000
0010
0100
1000
0100
0010
0001
0010
,  // measure 53
0100
0011
0100
2000
3001
0001
0002
1003
,  // measure 54
1000
0002
1003
1000
0002
1003
1000
0001
,  // measure 55
1000
0001
0001
0002
1003
1000
0002
1003
,  // measure 56
1000
0002
1003
1000
0001
1000
0010
0100
,  // measure 57
0010
0101
0000
2000
3100
0100
0020
0031
,  // measure 58
0001
0020
0130
0100
2000
3100
0100
1001
,  // measure 59
0110
1001
0000
2000
3001
0001
0002
1003
,  // measure 60
1000
2000
3001
0001
0002
1003
1000
0110
,  // measure 61
1001
0110
0001
0010
0100
1000
0100
0010
,  // measure 62
0001
0010
0001
0100
0001
1000
0001
1000
,  // measure 63
0100
1000
0010
1000
0001
1000
0100
0010
,  // measure 64
0001
0010
0100
0010
0001
0010
0100
1000
,  // measure 65
0100
1000
0010
0100
0001
1000
0010
0100
,  // measure 66
0010
1000
0001
1000
0010
1000
0010
0001
,  // measure 67
0100
0001
0100
0010
1000
0100
1000
0010
,  // measure 68
1000
0010
0010
0100
0100
0001
0001
0100
,  // measure 69
0100
1001
0000
0000
0000
0000
0000
0000
,  // measure 70
0000
0000
0000
0000
,  // measure 71
0000
0000
0000
1000
0000
0000
0000
0000
0000
0000
0000
0010
0000
0000
0000
0000
,  // measure 72
0000
0000
0000
0001
0000
0000
0000
0000
0000
0000
0000
0100
0000
0000
0000
0000
,  // measure 73
0000
0000
0000
1000
0000
0000
0000
0000
0000
0000
0000
0001
0000
0000
0000
0000
,  // measure 74
0000
0000
0000
0010
0000
0000
0000
0000
0000
0000
0000
0100
0000
0000
0000
0000
,  // measure 75
0000
0000
0000
0010
0000
0000
0000
0000
0000
0000
0000
0000
0000
0000
0000
0000
,  // measure 76
0000
1001
0000
0000
,  // measure 77
0000
0110
0000
0000
;

//---------------dance-single - ----------------
#NOTES:
     dance-single:
     :
     Challenge:
     13:
     1.000,1.000,0.776,0.008,1.000,837.000,98.000,1.000,0.000,17.000:  // measure 1
1000
1000
0000
1000
0000
1000
0000
1000
,  // measure 2
0000
1000
0000
1000
0000
1000
0000
1000
,  // measure 3
0000
1000
0000
1000
0000
1000
0000
1000
,  // measure 4
0011
0000
1000
0000
0000
0000
1000
0000
0001
0010
0100
0000
1001
0000
0100
0000
,  // measure 5
1011
1101
1000
0001
1000
0101
1000
0001
,  // measure 6
1000
0110
1000
0001
1000
0011
1000
0001
,  // measure 7
1000
0001
1000
0001
1000
0001
1000
0001
,  // measure 8
1000
0001
1000
0001
1000
1001
1000
0001
,  // measure 9
1000
0011
1000
0001
1000
0110
1000
0001
,  // measure 10
1000
0101
1000
0001
1000
0011
1000
0001
,  // measure 11
1000
0001
1000
0001
1000
0010
1001
0100
,  // measure 12
0010
1001
0010
0100
1001
0100
0010
1001
,  // measure 13
1110
0000
0111
0000
1000
0100
1000
0001
0010
0001
0100
0010
0100
0001
0010
0100
,  // measure 14
0001
1000
0100
0010
1000
0100
0001
0010
1000
0100
0001
0010
0001
0100
1000
0010
,  // measure 15
0001
0100
1000
0010
0001
0100
1000
0100
0010
0001
0010
0001
1010
0100
0010
0100
,  // measure 16
1000
0100
1001
0010
0100
0010
0001
1000
0110
0001
1000
0100
0010
0100
0011
1000
,  // measure 17
0100
1000
0011
0100
1000
0100
0001
0010
0001
1000
0100
1000
0010
1000
0100
0010
,  // measure 18
1000
0001
0010
0001
0100
0001
0010
0100
0001
1000
0100
0010
0001
0010
0100
1000
,  // measure 19
0100
0010
0001
0010
0001
0100
1000
0001
1000
0100
0010
0100
0011
1000
0100
0001
,  // measure 20
0010
0100
0011
1000
0100
1000
0100
0010
1001
0010
0100
1000
0100
0010
1001
0100
,  // measure 21
0010
0100
1001
0100
1000
0100
1000
0100
1000
0100
1000
0100
0011
0100
0010
0100
,  // measure 22
0010
0100
0011
1000
0001
1000
0001
1000
0011
0100
0001
0100
0001
0100
1010
0000
,  // measure 23
1001
0000
0110
1000
0001
1000
0001
1000
0001
1000
0001
1000
0110
0001
1000
0001
,  // measure 24
1000
0010
1001
0100
0010
0100
0010
0100
1001
0010
0100
0010
1001
0000
0110
0000
,  // measure 25
1001
0000
0110
0001
0010
0001
0010
0001
0010
0001
0010
0100
1010
0100
1000
0100
,  // measure 26
1000
0100
1001
0010
0100
0010
0100
0010
1001
0010
0100
1000
0001
0010
0100
1000
,  // measure 27
0011
0100
1000
0001
0010
0100
0010
0001
1000
0100
0010
0100
0011
0000
1001
0000
,  // measure 28
0010
0100
0000
0000
0000
0000
0000
0000
,  // measure 29
0010
0000
0000
0000
0000
0000
0000
0000
0000
1000
0000
0000
0000
0000
0000
0000
,  // measure 30
0000
0001
0000
0000
0000
0100
0000
0000
,  // measure 31
0000
0010
0000
0000
0000
1000
0000
0000
,  // measure 32
0000
0100
0000
0000
0000
0001
0000
0000
,  // measure 33
0000
0010
0000
0000
0000
1000
0000
0000
,  // measure 34
0000
0001
0000
0000
0000
0100
0000
0000
,  // measure 35
0000
1000
0000
0000
0000
0100
0000
0000
,  // measure 36
0000
0001
0000
0000
0000
0100
0000
0000
,  // measure 37
0000
0000
0000
0000
1000
0100
0010
0000
0000
0000
0001
0010
0100
0000
0000
0000
0010
0100
1000
0000
0100
0000
0010
0000
0001
0000
0010
0000
0100
0000
1000
0000
,  // measure 38
0100
0000
0000
0000
0001
0010
0100
0000
0000
0000
1000
0100
0010
0000
0000
0000
0100
0010
0001
0000
0010
0000
0100
0000
1000
0000
0100
0000
0010
0000
0100
0000
,  // measure 39
1000
0000
0000
0000
0001
0010
0100
0000
0000
0000
1000
0100
0010
0000
0000
0000
0010
0100
1000
0000
0100
0000
0010
0000
0100
0000
1000
0000
0100
0000
0010
0000
,  // measure 40
0001
0000
0000
0000
0001
0010
0100
0000
0000
0000
0010
0100
1000
0000
0000
0000
1000
0100
0010
0000
0001
0000
0010
0000
0100
0000
1000
0000
0010
0000
0001
0000
,  // measure 41
1000
0000
0000
0000
1000
0100
0010
0000
0000
0000
0100
0010
0001
0000
0000
0000
0001
0010
0100
0000
1000
0000
0100
0000
0010
0000
0100
0000
1000
0000
0100
0000
,  // measure 42
0001
0000
0000
0000
0001
0010
0100
0000
0000
0000
1000
0100
0010
0000
0000
0000
0100
0010
0001
0000
1000
0000
0100
0000
0010
0000
0001
0000
1000
0000
0100
0000
,  // measure 43
0010
0000
0000
0000
0001
0010
0100
0000
0000
0000
1000
0100
0010
0000
0000
0000
0001
0010
0100
0000
1000
0000
0001
0000
1000
0000
0001
0000
1000
0000
0001
0000
,  // measure 44
1000
0001
0010
0100
1000
0000
0001
0000
1000
0000
0001
0000
1000
0000
0001
0000
1000
0000
0001
0000
1000
0000
0001
0000
1000
0000
0001
0000
1000
0000
0001
0000
,  // measure 45
1100
0000
1011
0000
0001
1000
0001
1000
0001
0010
1100
0001
0010
0001
1100
0001
,  // measure 46
0010
0001
0110
0001
0010
0001
1010
0001
0010
0001
1100
0001
0010
0001
0110
1000
,  // measure 47
0100
1000
0011
1000
0100
1000
0110
1000
0100
1000
0011
1000
0100
1000
0101
1000
,  // measure 48
0100
1000
0011
0100
1000
0100
0011
1000
0100
1000
0011
0100
1000
0100
0011
1000
,  // measure 49
0100
1000
0011
0100
0010
0001
1100
0010
0001
0010
1100
0001
0010
0001
1100
0010
,  // measure 50
0001
0010
1100
0010
0001
0010
1100
0001
0010
0100
1001
0010
0100
0010
1001
0100
,  // measure 51
0010
0100
1001
0010
0100
0010
1001
0100
0010
0100
1001
0000
0100
0000
1011
0000
,  // measure 52
0100
1101
0010
0111
0100
1110
0000
1011
,  // measure 53
0000
0000
1111
0000
0001
0010
0100
1000
0100
0010
0001
0010
0100
0010
0001
0010
,  // measure 54
0100
1000
0100
0010
0100
1000
0100
0001
1000
0100
0001
0010
1000
0001
0010
1000
,  // measure 55
0100
0001
0010
1000
0010
0001
0100
1000
0100
0001
0010
0001
0100
0001
1000
0001
,  // measure 56
1000
0100
1000
0010
1000
0001
1000
0100
0010
0001
0010
0100
0010
0100
1000
0100
,  // measure 57
0010
0100
0010
0001
0010
0100
1000
0001
1000
0100
0010
0001
1000
0001
0010
0100
,  // measure 58
1000
0001
1000
0100
0010
0001
0010
0001
0100
0001
0010
0001
0100
0001
0010
0100
,  // measure 59
0010
1000
0010
0100
0010
0001
0010
0100
0010
1000
0100
1000
0001
0010
0001
0100
,  // measure 60
0010
0100
1000
0001
0010
0100
1000
0001
1000
0010
0100
0001
1000
0010
0100
0000
,  // measure 61
1101
0000
1011
0000
1000
0100
0011
0100
1000
0100
0010
0001
0010
0100
1001
0010
,  // measure 62
0001
0010
0100
1000
0100
0010
1001
0010
0100
1000
0100
1000
0010
0100
0011
0100
,  // measure 63
1000
0100
0010
0001
0010
0100
0011
0100
1000
0100
0010
0001
0010
0100
1001
0010
,  // measure 64
0100
0010
0001
0010
0100
0010
1100
0010
0001
0010
0100
1000
0100
0010
1100
0001
,  // measure 65
0010
0100
1000
0100
0010
0001
1100
0010
0001
0010
0100
1000
0100
0010
0001
1000
,  // measure 66
0001
1000
0100
0010
0001
1000
0001
1000
0001
0010
0100
1000
0001
1000
0001
1000
,  // measure 67
0100
0010
0001
1000
0001
1000
0001
0010
0100
1000
0001
1000
0001
1000
0100
0010
,  // measure 68
1001
0010
0010
0010
0010
0010
1001
0100
0100
0100
0100
0100
0100
0000
0111
0000
,  // measure 69
1120
0000
0030
0000
,  // measure 70
0000
0000
0000
0000
,  // measure 71
0000
0000
0000
1000
0000
0000
0000
0000
0000
0000
0000
0100
0000
0000
0000
0000
,  // measure 72
0000
0000
0000
0010
0000
0000
0000
0000
0000
0000
0000
0001
0000
0000
0000
0000
,  // measure 73
0000
0000
0000
0100
0000
0000
0000
0000
0000
0000
0000
1000
0000
0000
0000
0000
,  // measure 74
0000
0000
0000
0001
0000
0000
0000
0000
0000
0000
0000
1000
0000
0000
0000
0000
,  // measure 75
0000
0000
0000
1001
0000
0000
0000
0000
0000
0000
0000
0000
0000
0000
0000
0000
,  // measure 76
0000
1101
0000
0000
,  // measure 77
0000
1111
0000
0000
;
