#TITLE:Lake Side;
#SUBTITLE:Stunt Race FX;
#ARTIST:Shinobu Amayake;
#TITLETRANSLIT:;
#SUBTITLETRANSLIT:;
#ARTISTTRANSLIT:;
#CREDIT:;
#BANNER:Lake Side.png;
#BACKGROUND:Lake Side-bg.png;
#LYRICSPATH:;
#CDTITLE:kn33growzw9.png;
#MUSIC:Lake Side.mp3;
#OFFSET:-0.060;
#SAMPLESTART:37.614;
#SAMPLELENGTH:12.000;
#SELECTABLE:YES;
#BPMS:0.000=159.770;
#STOPS:;
#BGCHANGES:;
// cache tags:
#FIRSTBEAT:0.000;
#LASTBEAT:207.750;
#SONGFILENAME:Songs/VGMP 2/Lake Side (Kn33gr0W)/Lake Side.sm;
#HASMUSIC:1;
#HASBANNER:1;
#MUSICLENGTH:102.501;
// end cache tags

//---------------dance-single - Blank----------------
#NOTES:
     dance-single:
     Blank:
     Hard:
     11:
     1.000,1.000,1.000,0.790,1.000,550.000,263.000,81.000,0.000,0.000:

1001
0100
0010
0001
0000
0100
0000
1010
0000
1001
0000
1100
0010
0000
0001
0000
,
0110
0000
0001
1000
0000
0100
0000
0110
0000
1010
0000
0011
0100
0000
1000
0000
,
1001
0010
0100
1000
0000
0010
0000
0101
0000
0011
0000
1001
0100
0000
0010
0000
,
0101
0000
0100
0001
0000
0010
0000
1100
0000
0101
0000
1100
0010
0000
1000
0000
,
0011
0000
0100
0000
1001
0000
0010
0000
0101
0000
0001
0000
0000
0000
1100
0000
0000
0000
0011
0000
0100
0000
1001
0000
0100
0000
0012
0000
0100
0000
1000
0003
,
0101
0000
0110
1001
0000
1010
0000
0101
0000
0011
0000
1100
0101
0000
1001
0000
,
0110
0000
1000
0000
0011
0000
0100
0000
1010
0000
0010
0000
0000
0000
1001
0000
0000
0000
0110
0000
1000
0000
0011
0000
1000
0000
0120
0000
1000
0000
0001
0030
,
1010
0000
1100
0011
0000
0101
0000
1010
0000
0110
0000
1001
1010
0000
0011
0000
,
1100
0010
0001
1000
0000
0010
0000
1001
0000
1010
0000
1100
0010
0000
1000
0000
,
0110
0000
1000
0100
0000
0010
0000
0101
0000
0110
0000
1100
0001
0000
0100
0000
,
1010
0001
0010
0100
0000
1000
0000
0011
0000
1010
0000
0110
0001
0000
0100
0000
,
1001
0000
0010
1000
0000
0100
0000
0011
0000
0101
0000
1001
0010
0000
0100
0000
,
1010
0000
0100
0000
0011
0000
1000
0000
0101
0000
0100
0000
0000
0000
0011
0000
0000
0000
1100
0000
0010
0000
1001
0000
0100
0000
0012
0000
1000
0000
0100
0003
,
1010
0000
0011
1100
0000
0110
0000
1100
0000
0101
0000
0011
1010
0000
1100
0000
,
0101
0000
0010
0000
1001
0000
0100
0000
1010
0000
0010
0000
0000
0000
1001
0000
0000
0000
0110
0000
0001
0000
1100
0000
0010
0000
2001
0000
0100
0000
0010
3000
,
0101
0000
1001
1010
0000
0011
0000
0110
0000
1100
0000
0101
1001
0000
0110
0000
,
0021
0030
0000
0000
2000
3000
0000
0000
0200
0300
0002
0003
0000
0000
1020
0000
0000
0000
1000
0000
0000
0000
1000
0030
0200
0300
0000
0000
2000
3000
0000
0000
,
0012
0000
0000
0000
0000
0000
0000
0003
2000
0000
0000
0000
0000
0000
0010
3000
0201
0000
1000
0000
0001
0300
1020
0000
0000
0000
1000
0000
1000
0000
1000
0030
,
1010
0000
0000
0000
0000
0000
0000
0000
0020
0030
2000
3000
0001
0000
2001
3000
0201
0300
2001
3000
0001
0000
0201
0300
0000
0000
1020
0000
1000
0000
1000
0030
,
1002
0000
0000
0000
0103
0000
0000
0000
0020
0030
0200
0300
2000
3000
0002
0000
0000
0000
0000
0000
0000
0000
0010
0000
0010
0000
0000
0000
1000
0000
0003
0000
,
0011
1000
0100
0010
0000
1000
0000
0101
0000
0011
0000
1001
0100
0000
0010
0000
,
1100
0000
0010
0001
0000
1000
0000
1100
0000
0101
0000
0110
1000
0000
0001
0000
,
0011
0100
1000
0001
0000
0100
0000
1010
0000
0110
0000
0011
1000
0000
0100
0000
,
1010
0000
1000
0010
0000
0100
0000
1001
0000
1010
0000
1001
0100
0000
0001
0000
,
0021
0000
0000
0000
0000
0030
2000
0000
0000
3000
0200
0000
0000
0300
0021
0030
0200
0000
0001
0000
0000
0000
0001
0300
0020
0000
0000
0000
0000
0000
0000
0030
,
1002
0000
0000
0000
0000
0003
2000
0000
0000
3000
0200
0000
0000
0300
1020
0030
0200
0000
1000
0000
0000
0000
1000
0300
0020
0000
0000
0000
0000
0000
0000
0030
,
0102
0000
0000
0000
0000
0003
0200
0000
0000
0300
0020
0000
0000
0030
0102
0003
2000
0000
0100
0000
0000
0000
0100
3000
0020
0000
0000
0000
0000
0000
0030
0000
,
0102
0000
0000
0003
0200
0000
0000
0300
0020
0030
0002
0000
0000
0003
2100
0000
0000
0000
0000
3000
0102
0000
0100
0003
1020
0000
1000
0030
0201
0000
0000
0300
,
0010
0100
1000
0001
0010
0100
1000
0001
0010
1000
0100
0011
1100
0010
1001
0100
,
1010
0100
0011
1100
0010
1001
0110
1001
0010
0100
1010
0001
1010
0100
1010
0100
,
0011
0100
0001
0010
0100
0010
0100
1000
0010
1000
0010
0101
1010
0001
1100
0010
,
1001
0000
0100
0000
0010
0000
0001
0000
0010
0000
0100
0000
1000
0000
0101
0000
0000
0000
0010
0000
0100
0000
2001
0000
0000
3000
0100
0000
1010
0000
0001
0000
,
1100
0010
0001
1000
0000
0010
0000
0101
0000
1100
0000
0110
0001
0000
1000
0000
,
0011
0000
1000
0100
0000
0010
0000
0011
0000
0101
0000
1001
0010
0000
0100
0000
,
1100
0001
0010
0100
0000
0001
0000
1010
0000
1001
0000
1100
0010
0000
0001
0000
,
1010
0000
0010
1000
0000
0001
0000
0110
0000
1010
0000
0110
0001
0000
0100
0000
,
1001
0000
0010
0000
1100
0000
0001
0000
1010
0000
1000
0000
0000
0000
0110
0000
0000
0000
1001
0000
0010
0000
1100
0000
0010
0000
2001
0000
0010
0000
0100
3000
,
1010
0000
0011
1100
0000
0101
0000
1010
0000
1001
0000
0110
1010
0000
1100
0000
,
0011
0000
0100
0000
1001
0000
0010
0000
0101
0000
0001
0000
0000
0000
1100
0000
0000
0000
0011
0000
0100
0000
1001
0000
0100
0000
0012
0000
0100
0000
1000
0003
,
0101
0000
0110
1001
0000
1010
0000
0101
0000
0011
0000
1100
0101
0000
1001
0000
,
0110
0001
1000
0100
0000
0001
0000
1100
0000
0101
0000
0110
0001
0000
0100
0000
,
0011
0000
0100
0010
0000
0001
0000
1010
0000
0011
0000
0110
1000
0000
0010
0000
,
0101
1000
0001
0010
0000
0100
0000
1001
0000
0101
0000
0011
1000
0000
0010
0000
,
1100
0000
0001
0100
0000
0010
0000
1001
0000
1010
0000
1100
0001
0000
0010
0000
,
0101
0000
0010
0000
1001
0000
0100
0000
1010
0000
0010
0000
0000
0000
1001
0000
0000
0000
0110
0000
0001
0000
1100
0000
0010
0000
2001
0000
0100
0000
0010
3000
,
0101
0000
1001
0110
0000
0011
0000
0110
0000
1010
0000
1001
0101
0000
0110
0000
,
1010
0000
0001
0000
1100
0000
0010
0000
0101
0000
0001
0000
0000
0000
1100
0000
0000
0000
0011
0000
1000
0000
0110
0000
0001
0000
1200
0000
0010
0000
0001
0300
,
1010
0000
1100
0101
0000
1001
0000
0011
0000
0110
0000
1010
1100
0000
0011
0000
,
2100
3000
0000
0000
0020
0030
0000
0000
0002
0003
0200
0300
0000
0000
2010
0000
0000
0000
0010
0000
0000
0000
0010
3000
0002
0003
0000
0000
0020
0030
0000
0000
,
1200
0000
0000
0000
0000
0000
0000
0300
0020
0000
0000
0000
0000
0000
1000
0030
0102
0000
0010
0000
0100
0003
2010
0000
0000
0000
0001
0000
0001
0000
0001
3000
,
1001
0000
0000
0000
0000
0000
0000
0000
0002
0003
0020
0030
1000
0000
1020
0030
1200
0300
1020
0030
1000
0000
1002
0003
0000
0000
2010
0000
0010
0000
0010
3000
,
0210
0000
0000
0000
0301
0000
0000
0000
2000
3000
0002
0003
0020
0030
0200
0000
0000
0000
0000
0000
0000
0000
0001
0000
0001
0000
0000
0000
1000
0000
0300
0000
;
