#TITLE:Hunter's Anthem;
#SUBTITLE:;
#ARTIST:DJ SHARPNEL;
#TITLETRANSLIT:;
#SUBTITLETRANSLIT:;
#ARTISTTRANSLIT:;
#CREDIT:;
#BANNER:HA-BN.png;
#BACKGROUND:HA-BG.png;
#LYRICSPATH:;
#CDTITLE:;
#MUSIC:Hunters Anthem.ogg;
#OFFSET:-0.084;
#SAMPLESTART:57.660;
#SAMPLELENGTH:12.000;
#SELECTABLE:YES;
#BPMS:0.000=212.600,200.000=106.300,202.000=212.600;
#STOPS:;
#BGCHANGES:;
// cache tags:
#FIRSTBEAT:8.000;
#LASTBEAT:456.000;
#SONGFILENAME:Songs/SSSC Pack 2/Hunters Anthem [Zarkonis]/Hunters Anthem.sm;
#HASMUSIC:1;
#HASBANNER:1;
#MUSICLENGTH:131.885;
// end cache tags

//---------------dance-single - Zarkonis----------------
#NOTES:
     dance-single:
     Zarkonis:
     Challenge:
     13:
     1.000,1.000,0.713,0.235,0.705,952.000,94.000,31.000,63.000,0.000:



0000
0000
0000
0000
,
0000
0000
0000
0000
,
1001
0000
0000
0001
0000
0000
0010
0000
0000
0100
0000
0000
1000
0100
1000
0100
0000
0000
0010
0000
0000
0001
0000
0000
,
0101
0000
0000
0000
0000
0000
0100
0000
0000
0000
0000
0000
0010
1000
0010
1000
0000
0000
0100
0000
0000
0010
0000
0000
,
0011
0000
0000
0001
0000
0000
1000
0000
0000
0010
0000
0000
0100
0001
0100
0001
0000
0000
1000
0000
0000
0100
0000
0000
,
0110
0000
0000
0000
0000
0000
0010
0000
0000
0001
0000
0000
0100
0000
0000
0000
0000
0000
0001
0000
1000
0000
0004
0000
4000
0000
0000
0000
0000
0000
3003
0000
0000
0000
0000
0000
1001
0000
0000
0000
0000
0000
0000
0000
0000
0000
0000
0000
,
1001
0000
0000
0000
0000
0000
1000
0000
0000
0010
0000
0000
0100
0000
0000
0000
0000
0000
0001
0000
0000
0000
0000
0000
1000
0000
0001
0000
1000
0000
0001
0000
0000
0000
0000
0000
0010
0000
0000
0000
0000
0000
0100
0000
0000
0000
0000
0000
,
1100
0000
0000
0000
0000
0000
1000
0000
0000
0001
0000
0000
0100
0000
0000
0000
0000
0000
0010
0000
0000
0000
0000
0000
0100
0000
0001
0000
0100
0000
0001
0000
0000
0000
0000
0000
0010
0000
0000
0000
0000
0000
0100
0000
0000
0000
0000
0000
,
1100
0000
0000
0000
0000
0000
1000
0000
0000
0001
0000
0000
0100
0000
0000
0000
0000
0000
0010
0000
0000
0000
0000
0000
1000
0000
0010
0000
1000
0000
0010
0000
0000
0000
0000
0000
0100
0000
0000
0000
0000
0000
0001
0000
0000
0000
0000
0000
,
0011
0000
0010
0001
0100
0000
0001
1000
0001
1000
0000
0000
1001
0000
0000
0000
,
1001
0000
0000
0001
0000
0000
0100
0000
0000
0010
0000
0000
1000
0010
1000
0010
0000
0000
0100
0000
0000
0001
0000
0000
,
0011
0000
0000
0000
0000
0000
0010
0000
0000
0000
0000
0000
0100
1000
0100
1000
0000
0000
0010
0000
0000
0100
0000
0000
,
0101
0000
0000
0001
0000
0000
1000
0000
0000
0100
0000
0000
0010
0001
0010
0001
0000
0000
1000
0000
0000
0010
0000
0000
,
0110
0000
0000
0000
0000
0000
0100
0000
0000
0001
0000
0000
0010
0000
0000
0000
0000
0000
0001
0000
1000
0000
0004
0000
4000
0000
0000
0000
0000
0000
3003
0000
0000
0000
0000
0000
1001
0000
0000
0000
0000
0000
0000
0000
0000
0000
0000
0000
,
1001
0000
0000
0000
0000
0000
1000
0000
0000
0100
0000
0000
0010
0000
0000
0000
0000
0000
0001
0000
0000
0000
0000
0000
1000
0000
0001
0000
1000
0000
0001
0000
0000
0000
0000
0000
0100
0000
0000
0000
0000
0000
0010
0000
0000
0000
0000
0000
,
1010
0000
0000
0000
0000
0000
1000
0000
0000
0001
0000
0000
0010
0000
0000
0000
0000
0000
0100
0000
0000
0000
0000
0000
0010
0000
0001
0000
0010
0000
0001
0000
0000
0000
0000
0000
0100
0000
0000
0000
0000
0000
0010
0000
0000
0000
0000
0000
,
1010
0000
0000
0000
0000
0000
1000
0000
0000
0001
0000
0000
0010
0000
0000
0000
0000
0000
0100
0000
0000
0000
0000
0000
1000
0000
0100
0000
1000
0000
0100
0000
0000
0000
0000
0000
0010
0000
0000
0000
0000
0000
0001
0000
0000
0000
0000
0000
,
0101
0000
0000
0000
0000
0000
0100
0000
0000
0001
1000
0001
1000
0000
0000
0000
0000
0000
1001
0000
0000
0000
0000
0000
,
11MM
0000
M11M
0000
0001
0100
0100
0010
,
11MM
0000
M11M
0000
0001
0010
0010
0100
,
11MM
0000
M11M
0000
0001
1000
1000
0010
,
0100
0000
0000
0000
0000
0000
0001
0000
0000
0010
0000
0000
0100
0000
0000
0000
0000
0000
1000
0000
0001
0000
1000
0000
0001
0000
0000
0000
0000
0000
1000
0000
0000
0000
0000
0000
1001
0000
0000
0000
0000
0000
0001
0000
0000
0000
0000
0000
,
M1M1
0000
M11M
0000
1000
0100
0100
0010
,
M1M1
0000
M11M
0000
1000
0010
0010
0100
,
M1M1
0000
M11M
0000
1000
0100
0100
0010
,
0001
0000
0000
0000
0000
0000
1000
0000
0000
0010
0000
0000
0100
0000
0000
0000
0000
0000
0001
0000
1000
0000
0001
0000
1000
0000
0000
0000
0000
0000
0001
0000
0000
0000
0000
0000
1001
0000
0000
0000
0000
0000
1000
0000
0000
0000
0000
0000
,
1MM1
0000
1MM1
0000
0010
0100
0100
0010
,
M11M
0000
M11M
0000
1000
0001
0001
1000
,
1MM1
0000
1MM1
0000
0100
0010
0010
0100
,
0010
0000
0000
0000
0000
0000
0100
0000
0000
0010
0000
0000
0100
0000
0000
0000
0000
0000
0010
0000
0100
0000
0010
0000
0100
0000
0000
0000
0000
0000
0010
0000
0000
0000
0000
0000
0100
0000
0000
0000
0000
0000
0010
0000
0000
0000
0000
0000
,
1MM1
0000
1000
0000
0000
0100
0100
0000
,
M1MM
0000
0100
0000
0000
0010
0010
0000
,
MM1M
0000
0010
0000
0000
0001
0001
0000
,
0MM1
0000
0000
0000
0000
0000
0000
0000
0000
0000
0000
0000
0000
0000
0000
0000
0000
0000
0000
0000
0000
0000
0000
0000
1000
0000
0000
0000
0000
0000
0000
0000
0000
0000
0000
0000
0000
0000
0000
0000
0000
0000
0000
0000
0000
0000
0000
0000
0001
0000
0000
0000
0000
0000
0000
0000
0000
0000
0000
0000
0000
0000
0000
0000
0000
0000
0000
0000
0000
0000
0000
0000
1000
0000
0000
0000
0000
0000
0000
0000
0001
0000
0000
0000
0000
0000
0000
0000
1000
0000
0000
0000
0000
0000
0000
0000
0001
0000
0000
0000
0000
0000
0000
0000
0000
0000
0000
0000
0000
0000
0000
0000
0000
0000
0000
0000
0000
0000
0000
0000
1000
0000
0000
0000
0000
0000
0000
0000
0000
0000
0000
0000
0000
0000
0000
0000
0000
0000
0000
0000
0000
0000
0000
0000
2002
0000
0000
0000
0000
0000
3003
0000
0000
0000
0000
0000
0000
0000
0000
0000
0000
0000
0000
0000
0000
0000
0000
0000
0000
0000
0000
0000
0000
0000
0000
0000
0000
0000
0000
0000
0000
0000
0000
0000
0000
0000
0000
0000
0000
0000
0000
0000
,
0001
0010
0100
1000
0010
0400
0000
0301
,
0010
0100
1000
0001
0100
0040
0000
1030
,
0010
0100
0001
1000
0100
0040
0000
0031
,
0100
0000
0000
0000
0000
0000
0001
0000
0000
1000
0000
0000
0001
0000
0000
0000
0000
0000
1000
0000
0001
0000
1000
0000
0001
0000
0000
0000
0000
0000
1000
0000
0000
0000
0000
0000
1001
0000
0000
0000
0000
0000
0000
0000
0000
0000
0000
0000
,
0001
0010
0100
1000
0040
0000
0130
0001
,
0010
0100
1000
0001
0400
0000
0310
1000
,
0010
0100
0001
1000
0400
0000
0310
0001
,
0100
0000
0001
1000
0001
0000
1000
0001
1000
0001
0000
0000
1001
0000
0000
0000
,
0001
0100
0010
1000
0400
0000
0310
0001
,
0100
0010
1000
0001
0040
0000
0130
1000
,
0100
0010
0001
1000
0040
0000
0130
0001
,
0010
0000
0000
0000
0000
0000
0001
0000
0000
1000
0000
0000
0001
0000
0000
0000
0000
0000
1000
0000
0001
0000
1000
0000
0001
0000
0000
0000
0000
0000
1000
0000
0000
0000
0000
0000
1001
0000
0000
0000
0000
0000
0000
0000
0000
0000
0000
0000
,
0001
0010
0001
0010
0100
1000
0100
1000
0001
0100
0001
0100
0010
1000
0010
1000
,
0001
1000
0001
1000
0010
1000
0010
1000
0001
0010
0001
0010
0100
0010
0100
0010
,
0001
0010
0100
1000
0001
0100
0010
0100
0001
1000
0010
0100
0010
1000
0001
0010
,
0001
0000
0000
1000
0000
0000
0010
0000
0000
1000
0001
1000
0001
0000
0000
1000
0000
0000
1001
0000
0000
0000
0000
0000
,
2000
0000
0000
0000
0000
0000
0000
0000
3010
0000
0100
0001
0100
0000
0001
0000
,
0010
0010
0100
1000
1010
0010
0100
0001
,
0010
0100
1000
0001
1001
1000
0100
0010
,
0001
0000
0000
0000
0000
0000
0100
0000
0000
0000
0000
0000
0010
0000
0000
0000
0000
0000
0100
0000
0000
0001
0000
0000
0010
0000
0000
0000
0000
0000
0100
0000
0000
1000
0000
0000
0010
0000
0000
0000
0000
0000
1000
0000
0001
0000
1000
0000
,
0001
0100
1001
0000
2000
3200
0302
0103
,
1000
0002
0203
2300
3100
0001
0010
0001
,
0200
0000
0301
0000
0010
0000
0100
0000
0002
0000
0103
0000
1000
0000
0001
1000
,
0001
0000
0100
0000
0010
0000
1000
0001
1000
0000
0001
0000
0100
0010
1000
0001
,
0010
0100
0010
0100
1000
0010
0100
0001
1000
0000
0100
0010
0001
0000
0010
0000
,
0011
0001
1000
0010
0100
0010
1000
0001
,
0010
0000
0100
1000
0001
0000
0100
0000
0110
0000
0010
0000
1000
0000
0001
0000
,
0010
0000
0000
0000
0000
0000
0100
0000
0000
0000
0000
0000
1000
0000
0000
0000
0000
0000
0010
0000
0000
0100
0000
0000
0001
0000
0000
0000
0000
0000
0010
0000
0000
0100
0000
0000
1000
0000
0000
0000
0000
0000
0001
0000
1000
0000
0001
0000
,
1000
0100
0110
0010
0002
0203
2300
3100
,
0001
2000
3200
0302
0103
1000
0010
0100
,
0101
0001
0010
0100
1100
1000
0010
0100
,
0010
0000
0100
0000
0001
0000
1000
0000
1001
0000
0000
0000
0001
0010
0100
1000
,
0010
0100
0010
0100
0001
0000
0000
0000
1000
0000
0001
0010
0001
0000
1000
0000
,
0010
0010
0100
0001
0011
0010
0100
1000
,
0010
0100
0001
1000
1001
0001
0100
0010
,
1000
0000
0000
0000
0000
0000
0100
0000
0000
0000
0000
0000
0010
0000
0000
0000
0000
0000
0100
0000
0000
1000
0000
0000
0010
0000
0000
0000
0000
0000
0100
0000
0000
0001
0000
0000
0010
0000
0000
0000
0000
0000
0001
0000
1000
0000
0001
0000
,
1000
0010
1001
0000
0002
0203
2300
3100
,
0001
2000
3200
0302
0103
1000
0010
1000
,
0200
0000
1300
0000
0010
0000
0100
0000
2000
0000
3100
0000
0001
0000
1000
0001
,
1000
0000
0100
0000
0010
0000
0001
1000
0001
0000
1000
0000
0100
0010
0001
1000
,
0010
0100
0010
0100
0001
0010
0100
1000
0001
0000
0100
0010
1000
0000
0010
0000
,
1010
1000
0001
0010
0100
0010
0001
1000
,
0010
0000
0100
0001
1000
0000
0100
0000
0110
0000
0010
0000
0001
0000
1000
0000
,
0010
0000
0000
0000
0000
0000
0100
0000
0000
0000
0000
0000
0001
0000
0000
0000
0000
0000
0010
0000
0000
0100
0000
0000
1000
0000
0000
0000
0000
0000
0010
0000
0000
0100
0000
0000
0001
0000
0000
0000
0000
0000
1000
0000
0001
0000
1000
0000
,
0001
0100
0010
0010
2000
3200
0302
0103
,
1000
0002
0203
2300
3100
0001
0010
0100
,
0100
1000
0010
0100
0100
0001
0010
0100
,
0010
0100
1000
0001
1001
0000
1000
0000
,
1000
0000
1000
0000
1001
0001
0010
0100
,
1000
0100
1000
0100
0000
0000
0010
0000
0000
0001
0000
0000
0101
0000
0000
0000
0000
0000
0100
0000
0000
0000
0000
0000
,
0010
1000
0010
1000
0000
0000
0100
0000
0000
0010
0000
0000
0011
0000
0000
0001
0000
0000
1000
0000
0000
0010
0000
0000
,
0100
0000
0001
0000
0100
0000
0001
0000
0000
0000
0000
0000
1000
0000
0000
0000
0000
0000
0100
0000
0000
0000
0000
0000
0110
0000
0000
0000
0000
0000
0010
0000
0000
0001
0000
0000
0100
0000
0000
0000
0000
0000
0001
0000
1000
0000
0004
0000
,
4000
0000
3003
0000
1001
0000
0000
0000
1001
0000
1000
0010
0100
0000
0001
0000
,
1000
0000
0001
0000
1000
0000
0001
0000
0000
0000
0000
0000
0010
0000
0000
0000
0000
0000
0100
0000
0000
0000
0000
0000
1100
0000
0000
0000
0000
0000
1000
0000
0000
0001
0000
0000
0100
0000
0000
0000
0000
0000
0010
0000
0000
0000
0000
0000
,
0100
0000
0001
0000
0100
0000
0001
0000
0000
0000
0000
0000
0010
0000
0000
0000
0000
0000
0100
0000
0000
0000
0000
0000
1100
0000
0000
0000
0000
0000
1000
0000
0000
0001
0000
0000
0100
0000
0000
0000
0000
0000
0010
0000
0000
0000
0000
0000
,
1000
0000
0010
0000
1000
0000
0010
0000
0000
0000
0000
0000
0100
0000
0000
0000
0000
0000
0001
0000
0000
0000
0000
0000
0011
0000
0000
0000
0000
0000
0010
0000
0000
0001
0000
0000
0100
0000
0000
0000
0000
0000
0001
0000
0000
1000
0000
0000
,
0001
1000
0000
0000
1001
0000
0000
0000
1001
0000
0001
0000
0100
0000
0010
0000
,
1000
0010
1000
0010
0000
0000
0100
0000
0000
0001
0000
0000
0011
0000
0000
0000
0000
0000
0010
0000
0000
0000
0000
0000
,
0100
1000
0100
1000
0000
0000
0010
0000
0000
0100
0000
0000
0101
0000
0000
0001
0000
0000
1000
0000
0000
0100
0000
0000
,
0010
0000
0001
0000
0010
0000
0001
0000
0000
0000
0000
0000
1000
0000
0000
0000
0000
0000
0010
0000
0000
0000
0000
0000
0110
0000
0000
0000
0000
0000
0100
0000
0000
0001
0000
0000
0010
0000
0000
0000
0000
0000
0001
0000
1000
0000
0004
0000
,
4000
0000
3003
0000
1001
0000
0000
0000
1001
0000
1000
0100
0010
0000
0001
0000
,
1000
0000
0001
0000
1000
0000
0001
0000
0000
0000
0000
0000
0100
0000
0000
0000
0000
0000
0010
0000
0000
0000
0000
0000
1010
0000
0000
0000
0000
0000
1000
0000
0000
0001
0000
0000
0010
0000
0000
0000
0000
0000
0100
0000
0000
0000
0000
0000
,
0010
0000
0001
0000
0010
0000
0001
0000
0000
0000
0000
0000
0100
0000
0000
0000
0000
0000
0010
0000
0000
0000
0000
0000
1010
0000
0000
0000
0000
0000
1000
0000
0000
0001
0000
0000
0010
0000
0000
0000
0000
0000
0100
0000
0000
0000
0000
0000
,
1000
0100
1000
0100
0000
0000
0010
0000
0000
0001
0000
0000
0101
0000
0000
0000
0000
0000
0100
0000
0000
0001
1000
0001
,
1000
0000
1001
0000
1000
0100
1000
0100
,
0010
0001
0100
0001
1000
0010
1000
0010
,
0100
0001
0010
0001
0100
0001
0100
0001
,
1000
0000
0000
0100
0000
0000
0010
0000
0000
0001
0000
0000
1000
0000
0000
0010
0000
0000
1000
0000
0000
0001
1000
0001
,
1000
0001
1000
0100
0010
0001
0010
0001
,
0100
0010
1000
0100
0010
0100
0010
0100
,
1000
0010
0100
0001
1000
0001
1000
0001
,
0010
0000
0000
0100
0000
0000
1000
0000
0000
0010
0000
0000
0100
0000
0000
0001
0000
0000
0100
0000
0000
0001
1000
0001
,
1000
0100
0010
0001
1000
0100
1000
0100
,
0010
0001
0100
0001
1000
0010
1000
0010
,
0100
0001
0010
0001
0100
0001
0100
0001
,
1000
0000
0000
0100
0000
0000
0010
0000
0000
0001
0000
0000
1000
0000
0000
0010
0000
0000
1000
0000
0000
0001
1000
0001
,
1000
0000
0000
0001
0000
0000
1000
0000
0000
0100
0000
0000
0010
0000
0000
0000
000M
0000
0000
0000
M000
0000
0000
0000
,
00M0
0000
0M00
0000
000M
0000
M000
0000
0M00
0000
00M0
0000
,
000M
0000
00M0
0000
0M00
0000
M000
0000
00M0
0000
0M00
0000
,
000M
0000
0000
0000
M000
0000
0000
0000
0M00
0000
0000
0000
0001
0000
0000
0000
0000
0000
1000
0000
0000
0001
1000
0001
,
1000
0000
0000
0000
;
